<?xml version="1.0" standalone="no"?>
<!DOCTYPE svg PUBLIC "-//W3C//DTD SVG 1.1//EN" "http://www.w3.org/Graphics/SVG/1.1/DTD/svg11.dtd" >
<svg xmlns="http://www.w3.org/2000/svg">
<metadata></metadata>
<defs>
<font id="volkhovbold_italic" horiz-adv-x="1497" >
<font-face units-per-em="2048" ascent="1638" descent="-410" />
<missing-glyph horiz-adv-x="477" />
<glyph horiz-adv-x="0" />
<glyph unicode="&#xd;" horiz-adv-x="0" />
<glyph unicode=" "  horiz-adv-x="477" />
<glyph unicode="&#x09;" horiz-adv-x="477" />
<glyph unicode="&#xa0;" horiz-adv-x="477" />
<glyph unicode="!" horiz-adv-x="620" d="M39 160q0 76 51 126t123 50q76 0 126 -50t50 -126q0 -72 -50 -123t-126 -51q-72 0 -123 51t-51 123zM168 426l209 1008h264l-291 -1008h-182z" />
<glyph unicode="&#x22;" horiz-adv-x="774" d="M231 967l52 481h254l-162 -481h-144zM584 967l51 481h254l-164 -481h-141z" />
<glyph unicode="#" horiz-adv-x="1171" d="M49 0l152 391h-150l39 170h178l140 352h-191l39 170h217l143 367h172l-145 -367h209l143 367h172l-145 -367h168l-37 -170h-197l-139 -352h207l-37 -170h-237l-154 -391h-170l154 391h-209l-154 -391h-168zM438 561h209l139 352h-208z" />
<glyph unicode="$" horiz-adv-x="1179" d="M8 82l115 377h110v-309q76 -27 158 -33l131 530l-92 72q-78 61 -133 144t-55 190q0 182 153 290q135 92 326 103l37 145h157l-36 -147q160 -12 276 -60l-113 -376h-108v299q-31 6 -88 8l-127 -504q18 -12 57 -42t98.5 -83t101.5 -131t42 -172q0 -178 -135 -280.5 t-369 -114.5l-39 -158h-156l39 160q-195 14 -350 92zM473 1104q0 -59 39 -115q31 -43 76 -80l98 398q-62 -14 -117 -43q-96 -53 -96 -160zM549 129q53 10 102 33q53 25 84 71t31 109q0 76 -55 141q-27 33 -58 62z" />
<glyph unicode="%" horiz-adv-x="1538" d="M195 977q0 195 109.5 334t281.5 139q102 0 161.5 -56.5t59.5 -164.5q0 -195 -109.5 -334t-281.5 -139q-100 0 -160.5 56t-60.5 165zM199 0l1032 1434h176l-1030 -1434h-178zM387 965q0 -135 53 -136q80 0 128 133.5t48 278.5q0 133 -53 133q-80 0 -128 -126.5t-48 -282.5 zM788 205q0 195 110 334t282 139q102 0 161.5 -56.5t59.5 -164.5q0 -195 -109.5 -334t-281.5 -139q-100 0 -161 56t-61 165zM981 193q0 -135 53 -136q74 0 125 135.5t51 276.5q0 133 -53 133q-74 0 -125 -128.5t-51 -280.5z" />
<glyph unicode="&#x26;" horiz-adv-x="1560" d="M31 350q0 197 151.5 333t374.5 163v4q-121 16 -184.5 91t-63.5 167q0 152 133 247t373 95q164 0 261.5 -52t97.5 -143q0 -88 -73 -133t-190 -45q-18 0 -26 2q23 68 22 123q0 59 -31.5 102.5t-89.5 43.5q-90 0 -143 -76t-53 -191q0 -190 207 -190l-13 -123 q-168 -6 -316.5 -113.5t-148.5 -279.5q0 -113 68 -172.5t184 -59.5q348 0 553 353h-37q-195 4 -273.5 -18.5t-151.5 -110.5l-68 47q123 262 524 256h68q250 0 297 143q37 -18 63.5 -56t26.5 -85q0 -78 -66.5 -127t-195.5 -49h-58q-115 -229 -307 -370.5t-457 -141.5 q-223 0 -340.5 103t-117.5 263z" />
<glyph unicode="'" horiz-adv-x="417" d="M229 969l54 481h252l-162 -481h-144z" />
<glyph unicode="(" horiz-adv-x="696" d="M4 166q0 422 226.5 824.5t598.5 658.5l64 -86q-643 -567 -643 -1428q0 -362 156 -680l-87 -78q-315 312 -315 789z" />
<glyph unicode=")" horiz-adv-x="700" d="M-240 -537q643 567 643 1407q0 387 -155 701l88 78q145 -145 229 -354.5t84 -454.5q0 -420 -225 -812.5t-598 -650.5z" />
<glyph unicode="*" horiz-adv-x="999" d="M236 1190l67 205l254 -111l-29 272h217l-28 -272l252 107l67 -201l-270 -60l184 -210l-174 -129l-139 243l-135 -243l-180 129l186 213z" />
<glyph unicode="+" horiz-adv-x="1142" d="M133 647v168h385v385h168v-385h389v-168h-389v-387h-168v387h-385z" />
<glyph unicode="," horiz-adv-x="528" d="M-139 -264q170 139 239 307l-116 119q0 72 52 123t124 51q74 0 124 -50t50 -124q0 -152 -132 -295t-274 -217z" />
<glyph unicode="-" horiz-adv-x="733" d="M131 467v186h447v-186h-447z" />
<glyph unicode="." horiz-adv-x="524" d="M-12 160q0 76 53 126t121 50q76 0 126 -52.5t50 -123.5q0 -68 -51 -121t-125 -53q-70 0 -122 54t-52 120z" />
<glyph unicode="/" horiz-adv-x="935" d="M-78 0l957 1434h194l-956 -1434h-195z" />
<glyph unicode="0" horiz-adv-x="1296" d="M104 449q0 256 90.5 483t265.5 372.5t394 145.5q195 0 294 -122t99 -339q0 -268 -90 -495.5t-263 -367.5t-394 -140q-199 0 -297.5 127t-98.5 336zM381 414q0 -324 145 -324q129 0 235.5 158t158 367.5t51.5 406.5q0 319 -146 319q-131 0 -235.5 -147t-156.5 -356 t-52 -424z" />
<glyph unicode="1" horiz-adv-x="724" d="M102 0l312 1217l-224 -91l-16 95l463 229h102l-362 -1450h-275z" />
<glyph unicode="2" horiz-adv-x="1105" d="M-45 0l29 123l553 590q74 82 122 145.5t74.5 114.5t36.5 94t10 86q0 190 -149 190q-74 0 -115 -56t-41 -148q0 -43 19 -125q-35 -6 -80 -6q-78 0 -136.5 43t-58.5 129q0 63 31 113t86 85t133 53.5t170 18.5t169 -21.5t131 -62.5t84 -98.5t30 -126.5q0 -78 -30 -153 t-83 -146.5t-126 -143t-157 -145.5l-385 -354h457l135 200h127l-139 -399h-897z" />
<glyph unicode="3" horiz-adv-x="1130" d="M-27 115l47 102q195 -94 340 -94q152 0 252.5 88t100.5 217q0 256 -301 268l30 123q156 20 249 115.5t93 239.5q0 80 -41 127t-104 47q-76 0 -121 -49.5t-45 -139.5q0 -51 14 -106q-41 -8 -69 -9q-78 0 -135.5 38t-57.5 118q0 106 112 178t298 72q199 0 308.5 -80 t109.5 -221q0 -139 -107.5 -246.5t-281.5 -144.5v-4q154 -14 240.5 -103.5t86.5 -216.5q0 -199 -150.5 -323.5t-398.5 -124.5q-254 0 -469 129z" />
<glyph unicode="4" horiz-adv-x="1134" d="M-41 362l29 109l956 977h162l-229 -920h151l-41 -166h-151l-91 -362h-260l90 362h-616zM246 528h370l125 496z" />
<glyph unicode="5" horiz-adv-x="1060" d="M-78 72l68 98q96 -51 239 -51q182 0 309.5 121.5t127.5 302.5q0 111 -67 175t-185 64q-37 0 -82 -4t-80 -10l-49 37l209 629h407q129 0 175 15t93 64l84 -30q-39 -84 -66.5 -127t-73.5 -85t-109.5 -57.5t-159.5 -15.5h-291l-94 -293q100 33 201 33q186 0 280 -98.5 t94 -253.5q0 -238 -198.5 -419t-489.5 -181q-209 2 -342 86z" />
<glyph unicode="6" horiz-adv-x="1142" d="M76 403q0 389 279.5 693.5t711.5 353.5l14 -117q-252 -66 -428 -219q-150 -131 -250 -340q176 113 320 113q164 0 246 -95.5t82 -250.5q0 -246 -161 -400.5t-417 -154.5q-184 0 -290.5 111t-106.5 306zM324 408q0 -137 47 -218t131 -81q111 0 188.5 118.5t77.5 266.5 q0 104 -46 165.5t-136 61.5q-96 0 -211 -64l-17 -8q-34 -124 -34 -241z" />
<glyph unicode="7" horiz-adv-x="933" d="M115 0q135 354 336.5 660.5t384.5 525.5h-488l-96 -142h-102l133 390h825l-29 -129q-463 -606 -682 -1305h-282z" />
<glyph unicode="8" horiz-adv-x="1175" d="M72 264q0 147 109.5 277.5t252.5 214.5q-150 135 -149 286q0 174 142 291t339 117q168 0 268.5 -70.5t100.5 -197.5q0 -131 -87 -231.5t-223 -178.5q84 -74 127 -141q53 -84 54 -191q0 -197 -158 -325.5t-397 -128.5q-162 0 -270.5 68.5t-108.5 209.5zM303 299 q0 -84 52.5 -139.5t142.5 -55.5q117 0 198.5 74t81.5 168q0 27 -7 52.5t-16.5 46t-29.5 47.5q-47 63 -190 178q-82 -59 -157 -160.5t-75 -210.5zM516 1135q0 -27 7 -52.5t24 -52.5q43 -61 85 -99t64.5 -56.5t28.5 -22.5q190 145 190 301q0 82 -53 128t-133 46 q-86 0 -149.5 -55t-63.5 -137z" />
<glyph unicode="9" horiz-adv-x="1142" d="M119 100q252 66 413.5 207.5t262.5 349.5q-176 -111 -318 -110q-164 0 -245.5 95t-81.5 251q0 246 160.5 400.5t416.5 154.5q184 0 290.5 -111.5t106.5 -306.5q0 -389 -279.5 -693t-711.5 -353zM432 940q0 -104 46 -165.5t136 -61.5q96 0 211 63l17 8q35 123 35 242 q0 137 -47.5 218t-131.5 81q-111 0 -188.5 -119t-77.5 -266z" />
<glyph unicode=":" horiz-adv-x="636" d="M27 160q0 76 53 126t121 50q76 0 126 -52.5t50 -123.5q0 -68 -51.5 -121t-124.5 -53q-70 0 -122 54t-52 120zM203 805q0 76 53 126t121 50q76 0 126 -52t50 -124q0 -68 -51 -121t-125 -53q-70 0 -122 54t-52 120z" />
<glyph unicode=";" horiz-adv-x="634" d="M-88 -264q170 139 240 307l-117 119q0 72 52 123t124 51q74 0 124 -50t50 -124q0 -152 -132 -295t-273 -217zM215 805q0 76 53.5 126t120.5 50q76 0 126 -52t50 -124q0 -68 -51 -121t-125 -53q-70 0 -122 54t-52 120z" />
<glyph unicode="&#x3c;" horiz-adv-x="1189" d="M125 657v150l879 473v-195l-654 -354l654 -350v-195z" />
<glyph unicode="=" horiz-adv-x="1308" d="M195 457v168h940v-168h-940zM195 797v168h940v-168h-940z" />
<glyph unicode="&#x3e;" horiz-adv-x="1185" d="M248 186v195l653 350l-653 354v195l878 -473v-150z" />
<glyph unicode="?" horiz-adv-x="999" d="M219 160q0 76 51.5 126t122.5 50q76 0 126 -50t50 -126q0 -72 -50 -123t-126 -51q-72 0 -123 51t-51 123zM236 1217q0 109 114.5 171t315.5 62q170 0 275.5 -71.5t105.5 -200.5q0 -98 -62.5 -174t-153 -124.5t-180.5 -90t-152.5 -94t-62.5 -113.5q0 -35 20.5 -56.5 t53.5 -21.5q51 0 102 39l62 -78q-78 -78 -187 -78q-94 0 -155.5 55.5t-61.5 143.5q0 78 37 140t92.5 102t120.5 83l121 80q55 39 92 95.5t37 125.5q0 61 -35 96t-94 35q-66 0 -106.5 -52t-40.5 -144q0 -49 14 -115q-272 1 -272 185z" />
<glyph unicode="@" horiz-adv-x="1814" d="M111 475q0 203 72.5 380t201.5 309t307 209t389 77q147 0 273.5 -45t218.5 -125t145.5 -189.5t53.5 -238.5q0 -147 -56.5 -269t-158 -210t-240.5 -136.5t-305 -48.5q-59 0 -60 48q0 33 25 94q-133 -141 -291 -142q-88 0 -138 52.5t-50 158.5q0 137 52 261t140 217.5 t199.5 148.5t232.5 55q178 0 318 -80l-242 -692q96 16 178 64.5t142.5 119t95.5 159.5t35 190q0 111 -43 203t-119 158.5t-181.5 102t-228.5 35.5q-174 0 -312 -72.5t-234.5 -191.5t-147.5 -271.5t-51 -311.5q0 -141 43 -255t123 -193t191.5 -121t246.5 -42q186 0 381 76 l41 -78q-219 -121 -484 -121q-150 0 -287.5 44t-243 133.5t-169 223.5t-63.5 314zM739 446q0 -113 66 -112q47 0 109.5 42t125.5 122l170 483q-35 6 -71 6q-78 0 -149.5 -45t-127 -119.5t-89.5 -172.5t-34 -204z" />
<glyph unicode="A" horiz-adv-x="1357" d="M-168 0l23 84l186 45l778 1305h170l94 -1307l162 -43l-20 -84h-578l23 84l155 37l-20 280h-404l-163 -274l161 -43l-22 -84h-545zM479 532h316l-35 467z" />
<glyph unicode="B" horiz-adv-x="1286" d="M-76 0l29 104l190 46l283 1134l-164 45l25 105h534q393 0 393 -301q0 -141 -95 -243t-242 -138l-3 -7q125 -20 198 -101t73 -202q0 -209 -167 -325.5t-409 -116.5h-645zM412 156h125q139 2 235 86t96 213q0 102 -60 160.5t-171 58.5h-94zM575 813h68q125 2 210 90t85 215 q0 162 -178 162h-68z" />
<glyph unicode="C" horiz-adv-x="1267" d="M94 489q0 178 60.5 349.5t169 307.5t273.5 220t355 84q111 0 212.5 -20.5t187.5 -61.5l-95 -379h-120l-13 305q-57 16 -123 17q-268 0 -451 -237.5t-183 -571.5q0 -180 73.5 -274.5t194.5 -94.5q86 0 149 19l236 311h119l-146 -377q-174 -100 -411 -100q-248 0 -368 140 t-120 363z" />
<glyph unicode="D" horiz-adv-x="1439" d="M-70 0l23 104l186 46l287 1134l-166 45l27 105h504q305 0 455.5 -132.5t150.5 -373.5q0 -219 -76 -397.5t-208 -293t-305 -176t-374 -61.5h-504zM408 147h53q268 0 465.5 222.5t197.5 566.5q0 172 -98 261t-270 89h-64z" />
<glyph unicode="E" horiz-adv-x="1210" d="M-72 0l23 100l192 50l283 1134l-164 47l25 103h993l-104 -420h-117l-15 272h-352l-119 -485l375 41l-49 -213l-360 37l-129 -519h338l223 295h119l-166 -442h-996z" />
<glyph unicode="F" horiz-adv-x="1124" d="M-72 0l27 104l188 46l283 1134l-168 45l27 105h993l-104 -420h-119l-13 272h-350l-123 -485l387 43l-53 -217l-364 39l-129 -516l206 -46l-24 -104h-664z" />
<glyph unicode="G" horiz-adv-x="1400" d="M94 483q0 403 256 685t658 282q188 0 381 -80l-95 -379h-118l-13 312q-82 14 -139 14q-287 0 -469 -245t-182 -576q0 -178 96 -274.5t250 -96.5q49 0 76.5 4t44.5 8l94 379l-201 70l19 84h628l-18 -84l-164 -72l-106 -428q-211 -100 -449 -100q-246 0 -397.5 123.5 t-151.5 373.5z" />
<glyph unicode="H" horiz-adv-x="1576" d="M-72 0l29 104l184 43l285 1135l-168 47l27 105h624l-24 -105l-191 -45l-125 -496h533l125 494l-164 47l24 105h619l-25 -105l-188 -43l-285 -1136l170 -46l-26 -104h-621l29 104l182 43l129 515h-534l-127 -512l172 -46l-27 -104h-627z" />
<glyph unicode="I" horiz-adv-x="776" d="M-72 0l27 104l188 46l281 1134l-166 45l27 105h622l-26 -105l-191 -45l-280 -1134l168 -46l-27 -104h-623z" />
<glyph unicode="J" horiz-adv-x="735" d="M-176 -217q127 86 209 203.5t133 320.5l244 975l-166 47l28 105h619l-27 -105l-186 -43l-244 -979q-55 -219 -217 -384t-352 -249z" />
<glyph unicode="K" horiz-adv-x="1402" d="M-70 0l27 104l186 46l283 1134l-166 45l25 105h624l-26 -105l-191 -47l-280 -1135l168 -43l-27 -104h-623zM602 745l512 541l-117 43l25 105h528l-26 -105l-176 -41l-490 -502l98 -256q94 -250 151.5 -318.5t192.5 -107.5l-28 -118q-236 0 -352.5 100t-210.5 367z" />
<glyph unicode="L" horiz-adv-x="1148" d="M-72 0l27 104l188 46l283 1132l-168 47l27 105h622l-24 -105l-191 -47l-284 -1135h350l211 295h118l-165 -442h-994z" />
<glyph unicode="M" horiz-adv-x="1933" d="M-104 0l26 104l197 50l344 1132l-160 43l27 105h422l155 -1037l658 1037h454l-26 -105l-181 -41l-223 -1138l178 -46l-28 -104h-621l27 104l178 43l184 924l-690 -1081h-108l-164 1083l-275 -926l162 -43l-26 -104h-510z" />
<glyph unicode="N" horiz-adv-x="1474" d="M-72 0l25 104l188 46l283 1132l-164 47l25 105h321l453 -961l201 811l-164 45l26 105h506l-24 -105l-193 -45l-317 -1284h-97l-485 1030l-219 -883l166 -43l-25 -104h-506z" />
<glyph unicode="O" d="M92 477q0 252 103.5 472t302 360.5t446.5 140.5q252 0 385 -134t133 -360q0 -250 -102.5 -470t-300 -360t-447.5 -140q-254 0 -387 133t-133 358zM373 457q0 -156 62.5 -248t193.5 -92q135 0 244.5 82t175 212t100.5 277.5t35 288.5q0 156 -64.5 249t-195.5 93 q-133 0 -242 -83t-174.5 -214t-100 -277.5t-34.5 -287.5z" />
<glyph unicode="P" horiz-adv-x="1220" d="M-72 0l27 104l188 46l285 1134l-168 45l27 105h547q205 0 321.5 -90.5t116.5 -266.5q0 -256 -173 -401.5t-444 -145.5q-66 0 -147 11l-100 -398l227 -39l-27 -104h-680zM543 676q32 -2 65 -2q176 0 281.5 111.5t105.5 283.5q0 225 -247 225h-52z" />
<glyph unicode="Q" horiz-adv-x="1499" d="M94 477q0 252 106.5 474.5t302 360.5t443.5 138q252 0 385 -134t133 -360q0 -250 -102 -470t-301 -361q-123 -86 -268 -119l57 -16q82 -23 225.5 -106t239.5 -83q104 0 217 107l82 -47q-76 -154 -155 -222.5t-175 -68.5q-72 0 -146.5 39t-194.5 152.5t-198 162.5 q-70 45 -141 62q-242 2 -376 134t-134 357zM375 457q0 -156 62.5 -248t193.5 -92q135 0 244.5 82t175 212t100.5 277.5t35 288.5q0 156 -64.5 249t-195.5 93q-133 0 -242 -83t-174.5 -214t-100 -277.5t-34.5 -287.5z" />
<glyph unicode="R" horiz-adv-x="1331" d="M-72 0l27 104l188 46l285 1132l-168 47l25 105h546q440 0 441 -322q0 -207 -133 -326q-106 -96 -258 -114l57 -197q49 -180 110.5 -266t188.5 -127l-25 -96q-223 6 -341.5 108.5t-180.5 308.5l-69 224h-93l-118 -477l168 -46l-25 -104h-625zM561 760h62q147 0 259.5 92 t112.5 256q0 186 -219 186h-80z" />
<glyph unicode="S" horiz-adv-x="1134" d="M-6 82l115 377h100v-314q93 -28 182 -28h6q150 0 237 57t87 168q0 74 -51.5 139.5t-125 118.5t-147 112.5t-125 146.5t-51.5 194q0 188 150.5 292.5t380.5 104.5q233 0 389 -66l-113 -376h-98v292q-90 16 -148 17q-121 0 -207 -50t-86 -163q0 -61 53.5 -125t130.5 -121 t152.5 -122.5t129 -157t53.5 -195.5q0 -186 -141.5 -291.5t-434.5 -105.5q-252 0 -438 96z" />
<glyph unicode="T" horiz-adv-x="1206" d="M145 0l25 104l188 46l285 1136h-240l-153 -287h-100l108 435h1106l-109 -435h-98l-10 287h-240l-284 -1136l168 -46l-27 -104h-619z" />
<glyph unicode="U" d="M174 346q0 84 31 205l180 733l-164 45l27 105h622l-26 -105l-191 -45l-184 -733q-27 -111 -27 -174q0 -96 65.5 -159.5t190.5 -63.5q154 0 264.5 107.5t155.5 289.5l182 733l-161 45l24 105h506l-27 -105l-190 -43l-182 -735q-139 -565 -647 -565q-215 0 -332 90 t-117 270z" />
<glyph unicode="V" horiz-adv-x="1349" d="M164 1329l26 105h580l-27 -105l-149 -35l70 -921l505 913l-139 43l29 105h504l-27 -105l-195 -45l-720 -1298h-189l-100 1296z" />
<glyph unicode="W" horiz-adv-x="1966" d="M164 1329l24 105h584l-27 -105l-159 -37l39 -870l514 1012h170l55 -1002l418 856l-144 41l27 105h504l-25 -105l-194 -45l-635 -1298h-187l-55 989l-500 -989h-186l-59 1298z" />
<glyph unicode="X" horiz-adv-x="1368" d="M-156 0l25 104l205 50l514 573l-195 551l-176 51l25 105h563l-25 -105l-121 -31l140 -389l329 383l-137 37l25 105h538l-22 -105l-211 -49l-467 -530l211 -600l176 -46l-24 -104h-566l25 104l119 29l-152 434l-373 -426l138 -37l-25 -104h-539z" />
<glyph unicode="Y" horiz-adv-x="1284" d="M152 1329l26 105h555l-24 -105l-125 -24l161 -469l359 454l-146 39l27 105h504l-29 -105l-170 -51l-487 -610l-129 -518l180 -46l-25 -104h-620l24 104l175 46l127 518l-218 616z" />
<glyph unicode="Z" horiz-adv-x="1255" d="M-76 0l31 127l997 1159h-487l-143 -272h-99l105 420h1013l-30 -127l-1000 -1160h527l206 295h101l-166 -442h-1055z" />
<glyph unicode="[" horiz-adv-x="684" d="M-33 -262l453 1818h457l-27 -116h-238l-395 -1585h238l-29 -117h-459z" />
<glyph unicode="\" horiz-adv-x="743" d="M319 -248v1804h134v-1804h-134z" />
<glyph unicode="]" horiz-adv-x="686" d="M-168 -262l27 117h237l396 1585h-238l29 116h458l-452 -1818h-457z" />
<glyph unicode="^" horiz-adv-x="1144" d="M213 547l633 917h102l178 -917h-157l-123 690l-463 -690h-170z" />
<glyph unicode="_" horiz-adv-x="1562" d="M104 -145h940v-146h-940v146z" />
<glyph unicode="`" horiz-adv-x="452" d="M-84 1528q102 88 234 102l161 -397l-116 -57z" />
<glyph unicode="a" horiz-adv-x="1196" d="M35 281q0 324 196.5 540.5t481.5 216.5q201 0 368 -94l-202 -782h200v-86q-158 -43 -253 -66.5t-152 -23.5q-76 0 -76 67q0 33 12 78l11 39q-162 -184 -349 -184q-109 0 -173 76t-64 219zM307 301q0 -154 86 -154q70 0 149 72t136 172l139 527q-31 10 -90 10 q-166 0 -293 -197t-127 -430z" />
<glyph unicode="b" horiz-adv-x="1142" d="M16 80l363 1399h-199v84q326 90 393 90q86 0 86 -68q0 -25 -12 -78l-168 -653q162 184 348 184q109 0 173.5 -75.5t64.5 -219.5q0 -324 -196.5 -540.5t-481.5 -216.5q-203 0 -371 94zM283 106q31 -10 90 -10q166 0 293 196.5t127 430.5q0 154 -86 154q-70 0 -149 -72 t-136 -172z" />
<glyph unicode="c" horiz-adv-x="958" d="M35 348q0 162 77.5 322.5t228.5 264t345 103.5q123 0 199 -44t76 -122q0 -80 -66 -129t-162 -49q-8 43 -16 101.5t-14.5 87t-18.5 41t-39 12.5q-121 0 -225.5 -166t-104.5 -405q0 -254 205 -254q111 0 248 55l27 -80q-68 -35 -113 -52.5t-114.5 -32.5t-164.5 -15 q-172 0 -270 94t-98 268z" />
<glyph unicode="d" horiz-adv-x="1191" d="M35 281q0 332 199.5 544.5t476.5 212.5q68 0 123 -12l110 451h-199v86q332 90 392 90q88 0 88 -62q0 -29 -23 -114l-323 -1315h192v-86q-111 -33 -234.5 -61.5t-162.5 -28.5q-78 0 -78 63q0 37 22 123q-164 -186 -358 -186q-94 0 -159.5 72.5t-65.5 222.5zM305 317v-8 q0 -162 84 -162q74 0 150.5 70t138.5 180l129 523q-33 8 -76 8q-119 0 -220 -102.5t-153.5 -242t-52.5 -266.5z" />
<glyph unicode="e" horiz-adv-x="985" d="M33 332q0 131 44 255t125 225t209 163.5t281 62.5q137 0 207 -58t70 -146q0 -180 -199 -295q-176 -100 -463 -146v-41q0 -111 49.5 -176t145.5 -65q113 0 256 51l26 -78q-182 -98 -391 -98q-170 0 -265 89t-95 257zM315 504q394 147 394 350q0 82 -80 82 q-104 0 -201 -141q-86 -125 -113 -291z" />
<glyph unicode="f" horiz-adv-x="759" d="M-627 -453q0 133 187 226q6 -20 55 -152.5t137 -132.5q84 0 157 94t118 283l254 1044h-154l25 88l153 13l39 164q111 479 600 479q178 0 264 -48.5t86 -131.5q0 -66 -51 -126.5t-133 -97.5q-10 33 -62.5 160t-152.5 127q-39 0 -74 -13.5t-78 -53t-82.5 -128t-72.5 -219.5 l-25 -98l299 25l-35 -140h-290l-254 -1048q-119 -492 -576 -492q-150 0 -242 45t-92 133z" />
<glyph unicode="g" horiz-adv-x="1138" d="M-106 -449q0 133 186 222q33 -104 75 -194.5t113 -90.5q31 0 68 13.5t75 58.5t75.5 128t72.5 224l66 264q-170 -190 -361 -190q-98 0 -163.5 70.5t-65.5 224.5q0 164 54 302t146.5 239.5t215 158.5t260.5 57q201 0 364 -94l-272 -1083q-123 -492 -578 -492 q-150 0 -240.5 45t-90.5 137zM303 317q0 -170 88 -170q131 0 291 254l129 519q-31 8 -76 8q-100 0 -180 -62.5t-136.5 -155t-86 -199t-29.5 -194.5z" />
<glyph unicode="h" horiz-adv-x="1198" d="M6 -14l373 1493h-199v84q162 43 269.5 66.5t136.5 23.5q71 0 71 -60q0 -39 -12 -84l-178 -708q198 237 393 237h2q94 0 140.5 -53t46.5 -143q0 -104 -68 -336l-96 -342h198v-88q-164 -43 -271 -66.5t-142 -23.5q-72 0 -72 59q0 23 18 82l80 295q39 139 57.5 199.5 t30 106.5t11.5 73q0 53 -45 53q-57 0 -149.5 -72.5t-186.5 -197.5l-146 -584z" />
<glyph unicode="i" horiz-adv-x="679" d="M76 862v86q295 90 379 90q98 0 98 -71q0 -27 -21 -109l-174 -698h201v-84q-111 -35 -215 -62.5t-168 -27.5q-92 0 -92 80q0 29 16 98l176 698h-200zM350 1329q0 74 51.5 124t122.5 50q74 0 124 -50t50 -124q0 -72 -50 -123t-124 -51q-72 0 -123 51t-51 123z" />
<glyph unicode="j" horiz-adv-x="651" d="M-602 -453q0 137 186 226q6 -20 55.5 -152.5t129.5 -132.5q74 0 157.5 93t141.5 331l231 952h-199v84q299 90 385 90q90 0 90 -77q0 -31 -16 -97l-246 -1003q-35 -137 -97 -236.5t-143 -153t-165 -78t-178 -24.5q-150 0 -241 46t-91 132zM356 1329q0 74 51.5 124 t122.5 50q74 0 124.5 -50t50.5 -124q0 -72 -50.5 -123t-124.5 -51q-72 0 -123 51t-51 123z" />
<glyph unicode="k" horiz-adv-x="1110" d="M6 -14l373 1491h-199v86q297 90 383 90q90 0 90 -74q0 -37 -16 -102l-369 -1477zM438 532q350 160 350 293q0 51 -73 156q72 57 155 57q68 0 109 -40t41 -99q0 -115 -96 -205q-74 -70 -217 -157l63 -148q70 -170 113 -230.5t121 -90.5l-27 -82q-166 0 -253 42t-151 185z " />
<glyph unicode="l" horiz-adv-x="643" d="M45 66q0 25 18 98l328 1313h-198v86q293 90 378 90q98 0 99 -74q0 -25 -21 -106l-330 -1313h203v-84q-113 -35 -214 -62.5t-169 -27.5q-94 0 -94 80z" />
<glyph unicode="m" horiz-adv-x="1798" d="M51 -14l221 876h-200v86q162 43 269.5 66.5t139.5 23.5q72 0 72 -61q0 -37 -12 -82l-23 -82q186 225 369 225q196 0 196 -202q0 -14 -2 -29q180 231 381 231q193 0 193 -204q0 -27 -6.5 -68t-20.5 -96q-37 -158 -147 -506h200v-88q-164 -43 -269 -66.5t-146 -23.5 q-74 0 -74 59q0 16 20 88l140 475q18 68 28.5 115t10.5 70q0 63 -45 63q-63 0 -168 -94q-74 -66 -140 -166l-161 -596l-263 -14l156 573q49 182 49 234q0 63 -49 63q-61 0 -170 -96q-70 -63 -137 -162l-150 -598z" />
<glyph unicode="n" horiz-adv-x="1241" d="M51 -14l219 876h-196v86q162 43 269.5 66.5t135.5 23.5q72 0 72 -61q0 -39 -10 -82l-25 -90q195 233 391 233q94 0 140.5 -53t46.5 -143q0 -104 -68 -336l-98 -342h200v-88q-166 -43 -273 -66.5t-140 -23.5q-72 0 -72 59q0 23 19 82l137 496q16 57 27.5 104t11.5 74 q0 53 -43 53q-57 0 -149.5 -72.5t-186.5 -197.5l-146 -584z" />
<glyph unicode="o" horiz-adv-x="1128" d="M37 360q0 125 47 247t131 217.5t202 154.5t259 59q172 0 271.5 -101t99.5 -275q0 -121 -43 -242t-126 -217.5t-202 -156.5t-273 -60h-2q-364 0 -364 374zM313 324q0 -236 115 -236q84 0 147.5 61.5t105.5 153.5t63.5 198.5t21.5 196.5q0 238 -115 238q-57 0 -104 -31 t-84 -80t-65.5 -113.5t-47 -133t-28 -135t-9.5 -119.5z" />
<glyph unicode="p" horiz-adv-x="1191" d="M-102 -614l374 1476h-198v86q164 43 271.5 66.5t135.5 23.5q72 0 72 -61q0 -37 -12 -82l-11 -43q162 186 357 186q98 0 163.5 -72.5t65.5 -222.5q0 -326 -197.5 -541.5t-480.5 -215.5q-66 0 -127 12l-149 -582zM338 102q49 -8 80 -8q123 0 225 106.5t152.5 243 t50.5 254.5q0 178 -88 179q-131 0 -283 -242z" />
<glyph unicode="q" horiz-adv-x="1138" d="M33 281q0 324 197.5 540.5t480.5 216.5q207 0 370 -94l-407 -1546l-260 -27l204 799q-166 -184 -344 -184q-104 0 -172.5 69.5t-68.5 225.5zM305 326q0 -92 19.5 -135.5t66.5 -43.5q90 0 184 107q57 66 101 139l139 525q-37 10 -86 10q-119 0 -220 -102.5t-152.5 -239.5 t-51.5 -260z" />
<glyph unicode="r" horiz-adv-x="940" d="M53 -14l221 878h-198v84q319 90 399 90q78 0 78 -59q0 -37 -21 -113l-16 -57q16 20 31 37q55 68 139 130t158 62q70 0 110.5 -36.5t40.5 -94.5q0 -78 -51 -149q-55 29 -100 51t-80 22q-86 0 -186 -108q-51 -53 -121 -154l-144 -569z" />
<glyph unicode="s" horiz-adv-x="919" d="M-25 172q0 66 47.5 109t131.5 86q29 -82 81 -179.5t150 -97.5q55 0 93 37t38 90q0 33 -10 60.5t-35 54t-43 43t-59 47.5l-56 43q-168 123 -168 299q0 123 106.5 198.5t293.5 75.5q156 0 241.5 -48t85.5 -122q0 -63 -52 -104t-136 -53q-35 80 -53.5 114.5t-55 69.5 t-81.5 35q-51 0 -78 -32t-27 -77q0 -92 154 -200q113 -84 166 -163t53 -179q0 -137 -119 -215t-305 -78q-172 0 -267.5 51t-95.5 135z" />
<glyph unicode="t" horiz-adv-x="774" d="M88 109q0 35 12 75l179 727h-166l16 80l174 15l47 174l264 30l-49 -190l266 22l-28 -131h-264l-166 -667q-4 -20 -4 -27q0 -41 41 -41q33 0 231 66l25 -82q-53 -31 -201 -102.5t-258 -71.5q-119 0 -119 123z" />
<glyph unicode="u" horiz-adv-x="1243" d="M68 860v88q166 43 273.5 66.5t137.5 23.5q74 0 74 -61q0 -18 -18 -82l-138 -496q-16 -59 -27.5 -105t-11.5 -75q0 -51 43 -51q57 0 149.5 72.5t184.5 195.5l148 588l262 14l-219 -878h198v-84q-164 -43 -269 -66.5t-138 -23.5q-72 0 -72 59q0 39 12 82l25 92 q-197 -233 -393 -233q-186 0 -187 194q0 135 166 680h-200z" />
<glyph unicode="v" horiz-adv-x="1136" d="M25 862v86q82 27 192.5 58.5t149.5 31.5q86 0 102 -82l133 -755q63 84 105 141q63 90 117.5 207t54.5 209q0 55 -30 89t-110 87q82 104 205 104q66 0 110 -38.5t44 -114.5q0 -127 -105.5 -316.5t-404.5 -568.5l-203 -14l-156 876h-204z" />
<glyph unicode="w" horiz-adv-x="1687" d="M25 862v86q82 27 192.5 58.5t144.5 31.5q90 0 105 -82l127 -753q61 82 106 149q70 111 119 260q8 29 17 58l-62 354l250 14l147 -835q240 328 240 553q0 55 -30.5 90t-108.5 88q88 104 201 104q76 0 116.5 -42t40.5 -113q0 -297 -473 -883l-203 -14l-80 454l-75 -129 q-37 -59 -97.5 -151t-113.5 -160l-207 -14l-156 876h-200z" />
<glyph unicode="x" horiz-adv-x="1163" d="M-61 111q0 53 28 127q121 -41 170 -41q51 0 98.5 27.5t143.5 162.5l65 92l-116 383h-211v86q82 27 193.5 58.5t144.5 31.5q82 0 106 -82l80 -268q137 184 217 260q92 90 176 90q63 0 99 -33.5t36 -93.5q0 -55 -26 -125q-121 41 -172 41q-63 0 -112.5 -39.5t-92.5 -101.5 l-88 -123l125 -401h213v-86q-82 -27 -191.5 -58.5t-146.5 -31.5q-84 0 -109 84l-88 286q-135 -182 -223 -270q-100 -100 -182 -100q-137 0 -137 125z" />
<glyph unicode="y" horiz-adv-x="1128" d="M-2 -492q0 66 56.5 133.5t181.5 180.5q90 82 155 151l-160 889h-206v86q82 27 192.5 58.5t147.5 31.5q88 0 104 -82l133 -739q276 365 277 541q0 35 -22.5 68.5t-47.5 54t-70 53.5q88 104 211 104q63 0 106.5 -41t43.5 -112q0 -248 -453 -795l-278 -321q-37 -39 -67 -77 t-38 -58.5t-8 -47.5q0 -47 68 -121q-71 -79 -188 -79h-3q-59 0 -97 32.5t-38 89.5z" />
<glyph unicode="z" horiz-adv-x="1044" d="M-6 53l731 799q-92 -41 -231 -41h-117q-94 0 -132 -21.5t-75 -99.5l-88 17q53 221 83 276t105 55q45 0 198 -7t220 -7q154 0 266 14l56 -59l-768 -842q174 33 340 35q356 0 356 -186q0 -72 -46 -113t-126 -41l-64 2v12q0 78 -77.5 127.5t-233.5 49.5q-137 0 -334 -23z " />
<glyph unicode="{" horiz-adv-x="747" d="M41 598l27 107q111 6 181 52t99 161l86 346q74 293 350 292h152l-27 -108h-57q-86 0 -133 -45t-74 -150l-88 -350q-53 -215 -274 -254v-2q160 -31 159 -172q0 -45 -10 -80l-90 -354q-12 -55 -12 -90q0 -104 123 -105h57l-27 -108h-151q-106 0 -161.5 53t-55.5 148 q0 45 12 94l88 346q10 39 10 78q0 135 -184 141z" />
<glyph unicode="|" horiz-adv-x="677" d="M242 -492v2048h161v-2048h-161z" />
<glyph unicode="}" horiz-adv-x="747" d="M-166 -262l27 108h57q86 0 133 45.5t74 149.5l88 350q53 215 274 252v2q-160 33 -159 174q0 41 8 80l92 354q12 55 12 90q-23 104 -123 105h-57l27 108h153q106 0 161.5 -53t55.5 -147q0 -45 -12 -94l-88 -347q-10 -39 -10 -77q0 -133 184 -144l-26 -104 q-111 -6 -181.5 -52t-99.5 -161l-86 -346q-74 -293 -350 -293h-154z" />
<glyph unicode="~" horiz-adv-x="940" d="M225 1337q20 18 55 46t123.5 74t153.5 46q78 0 151.5 -49t116.5 -49q117 0 230 70l47 -68l-53 -47q-33 -27 -120 -73t-157 -46q-82 0 -151.5 49t-118.5 49q-109 0 -230 -69z" />
<glyph unicode="&#xa1;" horiz-adv-x="579" d="M-80 -410l291 1008h182l-209 -1008h-264zM172 864q0 72 50 123t126 51q72 0 123 -51t51 -123q0 -76 -51 -126t-123 -50q-76 0 -126 50t-50 126z" />
<glyph unicode="&#xa2;" horiz-adv-x="1032" d="M61 348q0 160 76 318.5t225 265.5q113 76 238 96l76 299h143l-74 -291q94 -4 166 -43q76 -47 76 -121q0 -80 -65.5 -129t-161.5 -49q-8 43 -16.5 101.5t-13.5 82t-13 37.5l-201 -804h31q111 0 248 55l26 -80q-66 -33 -111.5 -51.5t-104 -30.5t-120.5 -16l-67 -275h-144 l70 281q-113 16 -184 86q-98 94 -99 268zM342 365q0 -127 47 -189l180 727q-64 -37 -123 -129q-104 -170 -104 -409z" />
<glyph unicode="&#xa3;" horiz-adv-x="1228" d="M-4 74q158 104 268.5 252.5t110.5 312.5q0 12 -2 29h-252l22 108l207 17q-6 25 -29.5 108.5t-23.5 161.5q0 174 141.5 279.5t352.5 105.5q190 0 304.5 -65.5t114.5 -184.5q0 -78 -59 -122t-166 -44h-29q12 53 13 115q0 92 -46 143t-126 51q-106 0 -169 -79.5t-63 -219.5 q0 -63 27 -178q8 -29 12 -53l316 25l-66 -168h-233q-2 -141 -86 -265q-53 -78 -144 -165h471l127 182h101l-146 -420h-934z" />
<glyph unicode="&#xa4;" horiz-adv-x="1198" d="M66 354l159 135q-25 57 -24 144q0 195 157 371l-94 133l119 88l90 -127q125 84 272 84q123 0 213 -72l162 131l88 -115l-159 -133q23 -72 22 -133q0 -51 -12 -105.5t-35 -105.5t-53.5 -97t-67.5 -83l94 -135l-114 -88l-95 125q-121 -80 -253 -80q-135 0 -224 80 l-155 -129zM391 678q0 -106 51.5 -171t143.5 -65q57 0 109.5 31t90 80t60 110.5t22.5 122.5q0 104 -51 171t-143 67q-59 0 -110.5 -29.5t-90.5 -79t-60.5 -112t-21.5 -125.5z" />
<glyph unicode="&#xa5;" horiz-adv-x="1464" d="M244 1329l24 105h557l-26 -105l-131 -26l168 -474l370 459l-151 41l24 105h502l-22 -105l-166 -47l-416 -512l285 16l-62 -157h-334l-26 -101l360 21l-59 -158h-336l-60 -241l181 -46l-25 -104h-586l25 104l172 46l59 241h-295l27 107l299 16l29 115h-295l26 106l232 13 l-199 540z" />
<glyph unicode="&#xa6;" horiz-adv-x="655" d="M231 328h162v-820h-162v820zM231 737v819h162v-819h-162z" />
<glyph unicode="&#xa7;" horiz-adv-x="1073" d="M-4 -88l80 319h88l16 -249q63 -25 148 -25q125 0 196.5 50t71.5 136q0 61 -45 112.5t-250 174.5q-68 43 -115 107.5t-47 146.5q0 104 68.5 184t159.5 121q-27 23 -56.5 74t-29.5 131q0 164 139 262t348 98q178 0 309 -53l-80 -321h-88l-14 239q-68 14 -119 15 q-106 0 -183 -46.5t-77 -132.5q0 -61 48 -110t118 -87t140.5 -84t117.5 -113.5t47 -158.5q0 -113 -62.5 -186.5t-164.5 -128.5q23 -23 55.5 -71t36.5 -134q-2 -174 -148.5 -263t-353.5 -89q-219 4 -354 82zM375 745q0 -61 49 -111t113.5 -89t119.5 -76q74 78 74 170 q0 80 -47 136t-207 138q-36 -22 -59 -49q-43 -49 -43 -119z" />
<glyph unicode="&#xa8;" horiz-adv-x="1001" d="M125 1393q0 72 47 117.5t113 45.5q72 0 118 -46t46 -117q0 -66 -46.5 -113t-117.5 -47q-66 0 -113 47t-47 113zM575 1393q0 72 47.5 117.5t112.5 45.5q72 0 118 -46t46 -117q0 -66 -46 -113t-118 -47q-66 0 -113 47t-47 113z" />
<glyph unicode="&#xa9;" horiz-adv-x="1783" d="M158 731q0 158 60.5 297t164.5 243.5t243.5 166t297.5 61.5t297 -61.5t243.5 -166t166 -243.5t61.5 -297t-61.5 -297t-166 -243.5t-244 -165t-296.5 -60.5q-320 0 -543 223t-223 543zM313 731q0 -127 47.5 -238.5t130 -194.5t194.5 -130t239 -47t238.5 48t194.5 131 t131 193.5t48 237.5t-48 238.5t-131 194.5t-194.5 131t-238.5 48t-238 -48t-193.5 -131t-131 -194.5t-48.5 -238.5zM485 731q0 223 123 343t357 120q139 0 247 -51v-238h-98l-45 160q-86 6 -88 6q-135 0 -195.5 -84t-60.5 -256q0 -168 59.5 -253t190.5 -85h46t30 2l82 174 h96l-33 -235q-125 -66 -252 -66q-217 0 -338 121t-121 342z" />
<glyph unicode="&#xaa;" horiz-adv-x="837" d="M188 977q0 96 35 182t94.5 150.5t136 102.5t162.5 38q141 0 232 -59l-123 -478h121v-63q-82 -25 -146.5 -41t-105.5 -16q-57 0 -57 45q0 20 8 45l8 28q-88 -119 -209 -118q-156 0 -156 184zM381 1006q0 -96 49 -97q35 0 81 46t83 118l78 293q-16 6 -45 6 q-53 0 -98.5 -31.5t-78 -84t-51 -117.5t-18.5 -133z" />
<glyph unicode="&#xab;" horiz-adv-x="976" d="M72 520l18 66l385 356h146l-293 -389l98 -389h-145zM446 524l13 58l309 301h135l-213 -330l37 -350h-137z" />
<glyph unicode="&#xac;" horiz-adv-x="1222" d="M141 651v162h893v-561h-164v399h-729z" />
<glyph unicode="&#xad;" horiz-adv-x="825" d="M129 434v195h533v-195h-533z" />
<glyph unicode="&#xae;" horiz-adv-x="1783" d="M158 731q0 158 60.5 297t164.5 243.5t243.5 166t297.5 61.5t297 -61.5t243.5 -166t166 -243.5t61.5 -297t-61.5 -297t-166 -243.5t-244 -165t-296.5 -60.5q-320 0 -543 223t-223 543zM313 731q0 -127 47.5 -238.5t130 -194.5t194.5 -130t239 -47q129 0 239.5 48 t193.5 131t130 193.5t47 237.5t-48 238.5t-131 194.5t-193.5 131t-237.5 48q-254 0 -432 -178t-179 -434zM539 305v84l100 27v641l-100 26v84h348q356 0 356 -243q0 -180 -188 -234l174 -274l98 -29v-82h-237l-216 367h-57v-256l115 -27v-84h-393zM817 776h57q184 0 185 148 q0 135 -185 135h-57v-283z" />
<glyph unicode="&#xaf;" horiz-adv-x="0" />
<glyph unicode="&#xb0;" horiz-adv-x="782" d="M221 1247q0 66 24.5 123t67.5 100t100.5 68t123.5 25t123 -26t100 -69t68.5 -100t25.5 -121q0 -66 -25.5 -123t-68.5 -100t-100 -67.5t-123 -24.5t-123.5 24.5t-100.5 67.5t-67.5 100.5t-24.5 122.5zM395 1247q0 -57 42.5 -99t99.5 -42q59 0 101 42t42 99t-43 99.5 t-100 42.5t-99.5 -42t-42.5 -100z" />
<glyph unicode="&#xb1;" horiz-adv-x="1282" d="M147 0v168h920v-168h-920zM147 647v168h365v385h168v-385h387v-168h-387v-387h-168v387h-365z" />
<glyph unicode="&#xb2;" horiz-adv-x="782" d="M117 580l16 71q305 340 373 426q27 35 38 55.5t23.5 47t16.5 48t4 44.5q0 106 -78 106q-82 0 -82 -123q0 -45 6 -88q-78 2 -131 32t-53 89q0 74 78 118t196 44q117 0 187.5 -50t70.5 -138q0 -57 -32.5 -111.5t-73.5 -93.5q-254 -229 -336 -312h278l72 107h72l-100 -272 h-545z" />
<glyph unicode="&#xb3;" horiz-adv-x="755" d="M123 635l31 74q92 -57 190 -58q88 0 140.5 47t52.5 125q0 68 -42 115t-126 53l14 82q90 2 141 63.5t51 147.5q0 98 -73 98q-45 0 -69.5 -35.5t-24.5 -95.5q0 -51 6 -84q-68 0 -118 29t-50 96q0 72 78.5 115t199.5 43q111 0 175.5 -46t64.5 -138q0 -88 -71.5 -152.5 t-170.5 -81.5v-2q94 -8 151.5 -64.5t57.5 -134.5q0 -129 -97 -198.5t-237 -69.5q-145 0 -274 72z" />
<glyph unicode="&#xb4;" horiz-adv-x="520" d="M76 1219l172 407q133 -14 233 -102l-288 -363z" />
<glyph unicode="&#xb6;" horiz-adv-x="1257" d="M201 1059q0 199 153.5 348t407.5 149h629l-25 -98l-174 -41l-410 -1646h-159l407 1636h-143l-406 -1636h-159l249 999h-18q-174 0 -263 77t-89 212z" />
<glyph unicode="&#xb7;" horiz-adv-x="641" d="M92 610q0 100 69.5 166t157.5 66q100 0 166 -68.5t66 -163.5q0 -88 -66.5 -157.5t-165.5 -69.5q-90 0 -158.5 70.5t-68.5 156.5z" />
<glyph unicode="&#xb8;" horiz-adv-x="681" d="M-2 -469l31 98q31 -6 75 -6q66 0 118 29t52 92q0 100 -120 100l90 174h131l-49 -102q72 -4 115.5 -40t43.5 -101q0 -127 -105.5 -195.5t-240.5 -68.5q-73 0 -141 20z" />
<glyph unicode="&#xb9;" horiz-adv-x="518" d="M193 580l178 702l-148 -61l-20 82l295 145h96l-217 -868h-184z" />
<glyph unicode="&#xba;" horiz-adv-x="811" d="M188 1024q0 174 126 300t298 126q127 0 194.5 -63.5t67.5 -167.5q0 -172 -123.5 -299t-299.5 -127q-129 0 -196 63.5t-67 167.5zM395 995q0 -123 72 -123q78 0 140.5 125t62.5 250q0 63 -16.5 93t-57.5 30q-80 0 -140.5 -123t-60.5 -252z" />
<glyph unicode="&#xbb;" horiz-adv-x="980" d="M53 223l213 330l-37 350h136l145 -321l-14 -58l-306 -301h-137zM336 164l293 389l-99 389h146l207 -356l-15 -66l-385 -356h-147z" />
<glyph unicode="&#xbc;" horiz-adv-x="1511" d="M137 0l957 1434h194l-956 -1434h-195zM236 580l178 702l-148 -61l-20 82l295 145h96l-217 -868h-184zM704 233l16 63l564 576h110l-131 -532h88l-26 -107h-91l-57 -231h-168l60 231h-365zM892 340h203l68 268z" />
<glyph unicode="&#xbd;" horiz-adv-x="1660" d="M137 0l957 1434h194l-956 -1434h-195zM236 580l178 702l-148 -61l-20 82l295 145h96l-217 -868h-184zM848 2l16 71q305 340 373 426q27 35 38 55.5t23.5 47t16.5 48t4 44.5q0 106 -78 106q-82 0 -82 -123q0 -45 6 -88q-78 2 -131 32t-53 89q0 74 78 118t196 44 q117 0 187.5 -50t70.5 -138q0 -57 -32.5 -111.5t-73.5 -93.5q-254 -229 -336 -312h278l72 107h72l-100 -272h-545z" />
<glyph unicode="&#xbe;" horiz-adv-x="1798" d="M135 635l31 74q92 -57 190 -58q88 0 140.5 47t52.5 125q0 68 -42 115t-126 53l14 82q90 2 141 63.5t51 147.5q0 98 -73 98q-45 0 -69.5 -35.5t-24.5 -95.5q0 -51 6 -84q-68 0 -118 29t-50 96q0 72 78.5 115t199.5 43q111 0 175.5 -46t64.5 -138q0 -88 -71.5 -152.5 t-170.5 -81.5v-2q94 -8 151.5 -64.5t57.5 -134.5q0 -129 -97 -198.5t-237 -69.5q-145 0 -274 72zM434 0l957 1434h194l-956 -1434h-195zM999 233l16 63l564 576h110l-131 -532h88l-26 -107h-91l-57 -231h-168l60 231h-365zM1187 340h203l68 268z" />
<glyph unicode="&#xbf;" horiz-adv-x="978" d="M-103 -154q0 98 62.5 174t153 124.5t180.5 90t152.5 94t62.5 113.5q0 35 -20.5 56.5t-53.5 21.5q-51 0 -102 -39l-62 78q78 78 187 78q94 0 155.5 -55.5t61.5 -143.5q0 -78 -37 -140t-92.5 -102t-120.5 -83l-121 -80q-55 -39 -92 -95.5t-37 -125.5q0 -61 35 -96t94 -35 q66 0 106.5 52t40.5 144q0 49 -14 115q272 -1 272 -185q0 -109 -114.5 -171t-315.5 -62q-170 0 -275.5 71.5t-105.5 200.5zM375 864q0 72 50 123t126 51q72 0 123 -51t51 -123q0 -76 -51.5 -126t-122.5 -50q-76 0 -126 50t-50 126z" />
<glyph unicode="&#xc0;" horiz-adv-x="1357" d="M-168 0l23 84l186 45l778 1305h170l94 -1307l162 -43l-20 -84h-578l23 84l155 37l-20 280h-404l-163 -274l161 -43l-22 -84h-545zM479 532h316l-35 467zM578 1696q29 66 77 123t99 73l323 -299l-49 -77z" />
<glyph unicode="&#xc1;" horiz-adv-x="1357" d="M-168 0l23 84l186 45l778 1305h170l94 -1307l162 -43l-20 -84h-578l23 84l155 37l-20 280h-404l-163 -274l161 -43l-22 -84h-545zM479 532h316l-35 467zM717 1573l332 303q51 -16 99 -73.5t77 -123.5l-461 -184z" />
<glyph unicode="&#xc2;" horiz-adv-x="1357" d="M-168 0l23 84l186 45l778 1305h170l94 -1307l162 -43l-20 -84h-578l23 84l155 37l-20 280h-404l-163 -274l161 -43l-22 -84h-545zM479 532h316l-35 467zM500 1630l315 250h223l199 -250l-139 -49l-197 133l-262 -133z" />
<glyph unicode="&#xc3;" horiz-adv-x="1357" d="M-168 0l23 84l186 45l778 1305h170l94 -1307l162 -43l-20 -84h-578l23 84l155 37l-20 280h-404l-163 -274l161 -43l-22 -84h-545zM479 532h316l-35 467zM512 1698q51 57 142.5 117.5t175.5 60.5q82 0 153.5 -54t135.5 -54q86 0 210 88l60 -88q-35 -45 -129 -110.5 t-184 -65.5q-78 0 -158 54t-133 54q-88 0 -209 -88z" />
<glyph unicode="&#xc4;" horiz-adv-x="1357" d="M-168 0l23 84l186 45l778 1305h170l94 -1307l162 -43l-20 -84h-578l23 84l155 37l-20 280h-404l-163 -274l161 -43l-22 -84h-545zM479 532h316l-35 467zM553 1733q0 72 47 117.5t113 45.5q72 0 118 -46t46 -117q0 -66 -46 -113t-118 -47q-66 0 -113 47t-47 113zM983 1733 q0 72 47 117.5t113 45.5q72 0 118 -46t46 -117q0 -66 -46 -113t-118 -47q-66 0 -113 47t-47 113z" />
<glyph unicode="&#xc5;" horiz-adv-x="1361" d="M-168 0l23 84l186 45l731 1225q-8 6 -14 14q-74 72 -74 174t73.5 174t172.5 72q100 0 173 -73t73 -173q0 -102 -74 -174q-45 -47 -105 -63l86 -1178l162 -43l-20 -84h-578l23 84l155 37l-20 280h-404l-163 -274l161 -43l-22 -84h-545zM479 532h316l-35 467zM823 1542 q0 -45 31 -74.5t76 -29.5t74.5 29.5t29.5 74.5t-29.5 74t-74.5 29q-47 0 -77 -29t-30 -74z" />
<glyph unicode="&#xc6;" horiz-adv-x="2111" d="M-180 0l26 104l258 60l1278 1270h799l-104 -420h-99l-12 293h-369l-129 -514l381 38l-47 -192l-362 35l-131 -527h372l211 295h99l-166 -442h-998l27 104l186 46l62 251h-565l-269 -266l123 -31l-26 -104h-545zM670 532h467l151 607z" />
<glyph unicode="&#xc7;" horiz-adv-x="1267" d="M94 489q0 178 60.5 349.5t169 307.5t273.5 220t355 84q111 0 212.5 -20.5t187.5 -61.5l-95 -379h-120l-13 305q-57 16 -123 17q-268 0 -451 -237.5t-183 -571.5q0 -180 73.5 -274.5t194.5 -94.5q86 0 149 19l236 311h119l-146 -377q-100 -59 -223 -84l-41 -86 q72 -4 116 -40t44 -101q0 -127 -105.5 -195.5t-240.5 -68.5q-74 0 -142 20l31 98q31 -6 76 -6q66 0 118 29t52 92q0 100 -121 100l74 144q-25 -2 -49 -2q-248 0 -368 140t-120 363z" />
<glyph unicode="&#xc8;" horiz-adv-x="1210" d="M-72 0l23 100l192 50l283 1134l-164 47l25 103h993l-104 -420h-117l-15 272h-352l-119 -485l375 41l-49 -213l-360 37l-129 -519h338l223 295h119l-166 -442h-996zM563 1696q29 66 77 123t99 73l323 -299l-49 -77z" />
<glyph unicode="&#xc9;" horiz-adv-x="1210" d="M-72 0l23 100l192 50l283 1134l-164 47l25 103h993l-104 -420h-117l-15 272h-352l-119 -485l375 41l-49 -213l-360 37l-129 -519h338l223 295h119l-166 -442h-996zM723 1573l332 303q51 -16 99 -73.5t77 -123.5l-461 -184z" />
<glyph unicode="&#xca;" horiz-adv-x="1210" d="M-72 0l23 100l192 50l283 1134l-164 47l25 103h993l-104 -420h-117l-15 272h-352l-119 -485l375 41l-49 -213l-360 37l-129 -519h338l223 295h119l-166 -442h-996zM506 1591l315 250h223l199 -250l-139 -49l-197 133l-262 -133z" />
<glyph unicode="&#xcb;" horiz-adv-x="1210" d="M-72 0l23 100l192 50l283 1134l-164 47l25 103h993l-104 -420h-117l-15 272h-352l-119 -485l375 41l-49 -213l-360 37l-129 -519h338l223 295h119l-166 -442h-996zM579 1733q0 72 47 117.5t113 45.5q72 0 118 -46t46 -117q0 -66 -46 -113t-118 -47q-66 0 -113 47t-47 113 zM1009 1733q0 72 47 117.5t113 45.5q72 0 118 -46t46 -117q0 -66 -46 -113t-118 -47q-66 0 -113 47t-47 113z" />
<glyph unicode="&#xcc;" horiz-adv-x="776" d="M-72 0l27 104l188 46l281 1134l-166 45l27 105h622l-26 -105l-191 -45l-280 -1134l168 -46l-27 -104h-623zM271 1696q29 66 77 123t99 73l323 -299l-49 -77z" />
<glyph unicode="&#xcd;" horiz-adv-x="776" d="M-72 0l27 104l188 46l281 1134l-166 45l27 105h622l-26 -105l-191 -45l-280 -1134l168 -46l-27 -104h-623zM430 1573l332 303q51 -16 99 -73.5t77 -123.5l-461 -184z" />
<glyph unicode="&#xce;" horiz-adv-x="776" d="M-72 0l27 104l188 46l281 1134l-166 45l27 105h622l-26 -105l-191 -45l-280 -1134l168 -46l-27 -104h-623zM254 1630l315 250h223l199 -250l-139 -49l-197 133l-262 -133z" />
<glyph unicode="&#xcf;" horiz-adv-x="776" d="M-72 0l27 104l188 46l281 1134l-166 45l27 105h622l-26 -105l-191 -45l-280 -1134l168 -46l-27 -104h-623zM287 1733q0 72 47 117.5t113 45.5q72 0 118 -46t46 -117q0 -66 -46 -113t-118 -47q-66 0 -113 47t-47 113zM717 1733q0 72 47 117.5t113 45.5q72 0 118 -46 t46 -117q0 -66 -46 -113t-118 -47q-66 0 -113 47t-47 113z" />
<glyph unicode="&#xd0;" horiz-adv-x="1439" d="M-70 0l23 104l186 46l125 497h-164v146h201l125 491l-166 45l27 105h504q305 0 455.5 -132.5t150.5 -373.5q0 -219 -76 -397.5t-208 -293t-305 -176t-374 -61.5h-504zM408 147h53q268 0 465.5 222.5t197.5 566.5q0 172 -98 261t-270 89h-64l-125 -493h287v-146h-322z" />
<glyph unicode="&#xd1;" horiz-adv-x="1474" d="M-72 0l25 104l188 46l283 1132l-164 47l25 105h321l453 -961l201 811l-164 45l26 105h506l-24 -105l-193 -45l-317 -1284h-97l-485 1030l-219 -883l166 -43l-25 -104h-506zM542 1698q51 57 142.5 117.5t175.5 60.5q82 0 153.5 -54t135.5 -54q86 0 210 88l60 -88 q-35 -45 -129 -110.5t-184 -65.5q-78 0 -158 54t-133 54q-88 0 -209 -88z" />
<glyph unicode="&#xd2;" d="M92 477q0 252 103.5 472t302 360.5t446.5 140.5q252 0 385 -134t133 -360q0 -250 -102.5 -470t-300 -360t-447.5 -140q-254 0 -387 133t-133 358zM373 457q0 -156 62.5 -248t193.5 -92q135 0 244.5 82t175 212t100.5 277.5t35 288.5q0 156 -64.5 249t-195.5 93 q-133 0 -242 -83t-174.5 -214t-100 -277.5t-34.5 -287.5zM629 1696q29 66 77 123t99 73l323 -299l-49 -77z" />
<glyph unicode="&#xd3;" d="M92 477q0 252 103.5 472t302 360.5t446.5 140.5q252 0 385 -134t133 -360q0 -250 -102.5 -470t-300 -360t-447.5 -140q-254 0 -387 133t-133 358zM373 457q0 -156 62.5 -248t193.5 -92q135 0 244.5 82t175 212t100.5 277.5t35 288.5q0 156 -64.5 249t-195.5 93 q-133 0 -242 -83t-174.5 -214t-100 -277.5t-34.5 -287.5zM768 1573l332 303q51 -16 99 -73.5t77 -123.5l-461 -184z" />
<glyph unicode="&#xd4;" d="M92 477q0 252 103.5 472t302 360.5t446.5 140.5q252 0 385 -134t133 -360q0 -250 -102.5 -470t-300 -360t-447.5 -140q-254 0 -387 133t-133 358zM373 457q0 -156 62.5 -248t193.5 -92q135 0 244.5 82t175 212t100.5 277.5t35 288.5q0 156 -64.5 249t-195.5 93 q-133 0 -242 -83t-174.5 -214t-100 -277.5t-34.5 -287.5zM633 1630l315 250h223l199 -250l-139 -49l-197 133l-262 -133z" />
<glyph unicode="&#xd5;" d="M92 477q0 252 103.5 472t302 360.5t446.5 140.5q252 0 385 -134t133 -360q0 -250 -102.5 -470t-300 -360t-447.5 -140q-254 0 -387 133t-133 358zM373 457q0 -156 62.5 -248t193.5 -92q135 0 244.5 82t175 212t100.5 277.5t35 288.5q0 156 -64.5 249t-195.5 93 q-133 0 -242 -83t-174.5 -214t-100 -277.5t-34.5 -287.5zM583 1716q51 57 142.5 117.5t175.5 60.5q82 0 153.5 -54t135.5 -54q86 0 210 88l60 -88q-35 -45 -129 -110.5t-184 -65.5q-78 0 -158 54t-133 54q-88 0 -209 -88z" />
<glyph unicode="&#xd6;" d="M92 477q0 252 103.5 472t302 360.5t446.5 140.5q252 0 385 -134t133 -360q0 -250 -102.5 -470t-300 -360t-447.5 -140q-254 0 -387 133t-133 358zM373 457q0 -156 62.5 -248t193.5 -92q135 0 244.5 82t175 212t100.5 277.5t35 288.5q0 156 -64.5 249t-195.5 93 q-133 0 -242 -83t-174.5 -214t-100 -277.5t-34.5 -287.5zM645 1733q0 72 47 117.5t113 45.5q72 0 118 -46t46 -117q0 -66 -46 -113t-118 -47q-66 0 -113 47t-47 113zM1075 1733q0 72 47 117.5t113 45.5q72 0 118 -46t46 -117q0 -66 -46 -113t-118 -47q-66 0 -113 47t-47 113 z" />
<glyph unicode="&#xd7;" horiz-adv-x="1232" d="M199 399l333 332l-333 334l116 117l334 -332l334 334l117 -117l-334 -336l334 -334l-117 -116l-334 333l-332 -331z" />
<glyph unicode="&#xd8;" d="M92 477q0 252 103.5 472t302 360.5t446.5 140.5q82 0 154 -14l41 77h172l-70 -131q49 -29 88 -67q133 -133 133 -359q0 -250 -102.5 -470t-300 -360t-447.5 -140q-53 0 -100 6l-39 -74h-172l59 113q-113 45 -190.5 154.5t-77.5 291.5zM373 457q0 -156 61 -248l10 -14 l582 1105q-45 18 -102 19q-133 0 -242 -83t-174.5 -214t-100 -277.5t-34.5 -287.5zM580 121q22 -4 49 -4q135 0 244.5 82t175 212t100.5 277.5t35 288.5q0 127 -43 213z" />
<glyph unicode="&#xd9;" d="M174 346q0 84 31 205l180 733l-164 45l27 105h622l-26 -105l-191 -45l-184 -733q-27 -111 -27 -174q0 -96 65.5 -159.5t190.5 -63.5q154 0 264.5 107.5t155.5 289.5l182 733l-161 45l24 105h506l-27 -105l-190 -43l-182 -735q-139 -565 -647 -565q-215 0 -332 90 t-117 270zM621 1696q29 66 77 123t99 73l323 -299l-49 -77z" />
<glyph unicode="&#xda;" d="M174 346q0 84 31 205l180 733l-164 45l27 105h622l-26 -105l-191 -45l-184 -733q-27 -111 -27 -174q0 -96 65.5 -159.5t190.5 -63.5q154 0 264.5 107.5t155.5 289.5l182 733l-161 45l24 105h506l-27 -105l-190 -43l-182 -735q-139 -565 -647 -565q-215 0 -332 90 t-117 270zM883 1573l332 303q51 -16 99 -73.5t77 -123.5l-461 -184z" />
<glyph unicode="&#xdb;" d="M174 346q0 84 31 205l180 733l-164 45l27 105h622l-26 -105l-191 -45l-184 -733q-27 -111 -27 -174q0 -96 65.5 -159.5t190.5 -63.5q154 0 264.5 107.5t155.5 289.5l182 733l-161 45l24 105h506l-27 -105l-190 -43l-182 -735q-139 -565 -647 -565q-215 0 -332 90 t-117 270zM625 1630l315 250h223l199 -250l-139 -49l-197 133l-262 -133z" />
<glyph unicode="&#xdc;" d="M174 346q0 84 31 205l180 733l-164 45l27 105h622l-26 -105l-191 -45l-184 -733q-27 -111 -27 -174q0 -96 65.5 -159.5t190.5 -63.5q154 0 264.5 107.5t155.5 289.5l182 733l-161 45l24 105h506l-27 -105l-190 -43l-182 -735q-139 -565 -647 -565q-215 0 -332 90 t-117 270zM637 1733q0 72 47 117.5t113 45.5q72 0 118 -46t46 -117q0 -66 -46 -113t-118 -47q-66 0 -113 47t-47 113zM1067 1733q0 72 47 117.5t113 45.5q72 0 118 -46t46 -117q0 -66 -46 -113t-118 -47q-66 0 -113 47t-47 113z" />
<glyph unicode="&#xdd;" horiz-adv-x="1284" d="M152 1329l26 105h555l-24 -105l-125 -24l161 -469l359 454l-146 39l27 105h504l-29 -105l-170 -51l-487 -610l-129 -518l180 -46l-25 -104h-620l24 104l175 46l127 518l-218 616zM725 1573l332 303q51 -16 99 -73.5t77 -123.5l-461 -184z" />
<glyph unicode="&#xde;" horiz-adv-x="1193" d="M-74 0l25 94l188 45l287 1155l-166 45l23 95h622l-22 -95l-191 -45l-39 -161h84q207 0 327 -83t120 -253q0 -240 -182.5 -368t-446.5 -128h-111l-38 -162l167 -45l-22 -94h-625zM481 444h66q162 0 263 92.5t101 264.5q0 193 -235 192h-60z" />
<glyph unicode="&#xdf;" horiz-adv-x="1288" d="M0 -14l307 1188q66 258 218.5 368.5t381.5 110.5q172 0 272.5 -72t100.5 -201q0 -88 -36 -144t-89 -95t-116.5 -68t-117 -59.5t-89 -72.5t-35.5 -105q0 -109 89 -185t187 -151q39 -35 73 -90.5t34 -130.5q0 -141 -111 -217t-313 -76q-387 0 -387 168q0 61 41 107t127 106 q90 -168 143 -222.5t125 -54.5q63 0 101 36t38 91t-28.5 103.5t-71.5 80.5l-94 72q-37 27 -72 56.5t-62.5 64.5t-44 79t-16.5 103q0 92 45 151.5t119 102.5l143 78q70 37 116 97.5t46 148.5q0 86 -38 137t-112 51q-49 0 -93 -19.5t-84 -67.5t-76.5 -129t-67.5 -204 l-291 -1122z" />
<glyph unicode="&#xe0;" horiz-adv-x="1196" d="M35 281q0 324 196.5 540.5t481.5 216.5q201 0 368 -94l-202 -782h200v-86q-158 -43 -253 -66.5t-152 -23.5q-76 0 -76 67q0 33 12 78l11 39q-162 -184 -349 -184q-109 0 -173 76t-64 219zM307 301q0 -154 86 -154q70 0 149 72t136 172l139 527q-31 10 -90 10 q-166 0 -293 -197t-127 -430zM408 1528q102 88 234 102l161 -397l-116 -57z" />
<glyph unicode="&#xe1;" horiz-adv-x="1196" d="M35 281q0 324 196.5 540.5t481.5 216.5q201 0 368 -94l-202 -782h200v-86q-158 -43 -253 -66.5t-152 -23.5q-76 0 -76 67q0 33 12 78l11 39q-162 -184 -349 -184q-109 0 -173 76t-64 219zM307 301q0 -154 86 -154q70 0 149 72t136 172l139 527q-31 10 -90 10 q-166 0 -293 -197t-127 -430zM568 1219l172 407q133 -14 233 -102l-288 -363z" />
<glyph unicode="&#xe2;" horiz-adv-x="1196" d="M35 281q0 324 196.5 540.5t481.5 216.5q201 0 368 -94l-202 -782h200v-86q-158 -43 -253 -66.5t-152 -23.5q-76 0 -76 67q0 33 12 78l11 39q-162 -184 -349 -184q-109 0 -173 76t-64 219zM307 301q0 -154 86 -154q70 0 149 72t136 172l139 527q-31 10 -90 10 q-166 0 -293 -197t-127 -430zM314 1217l329 397h232l145 -397l-149 -50l-140 285l-276 -285z" />
<glyph unicode="&#xe3;" horiz-adv-x="1196" d="M35 281q0 324 196.5 540.5t481.5 216.5q201 0 368 -94l-202 -782h200v-86q-158 -43 -253 -66.5t-152 -23.5q-76 0 -76 67q0 33 12 78l11 39q-162 -184 -349 -184q-109 0 -173 76t-64 219zM307 301q0 -154 86 -154q70 0 149 72t136 172l139 527q-31 10 -90 10 q-166 0 -293 -197t-127 -430zM315 1362q41 59 124 119.5t163 60.5q70 0 141.5 -55t128.5 -55q45 0 87 20.5t112 69.5l59 -76q-43 -57 -133 -117.5t-172 -60.5q-68 0 -145.5 54t-124.5 54q-39 0 -74 -18.5t-104 -69.5z" />
<glyph unicode="&#xe4;" horiz-adv-x="1196" d="M35 281q0 324 196.5 540.5t481.5 216.5q201 0 368 -94l-202 -782h200v-86q-158 -43 -253 -66.5t-152 -23.5q-76 0 -76 67q0 33 12 78l11 39q-162 -184 -349 -184q-109 0 -173 76t-64 219zM307 301q0 -154 86 -154q70 0 149 72t136 172l139 527q-31 10 -90 10 q-166 0 -293 -197t-127 -430zM342 1393q0 72 47 117.5t113 45.5q72 0 118 -46t46 -117q0 -66 -46.5 -113t-117.5 -47q-66 0 -113 47t-47 113zM792 1393q0 72 47.5 117.5t112.5 45.5q72 0 118 -46t46 -117q0 -66 -46 -113t-118 -47q-66 0 -113 47t-47 113z" />
<glyph unicode="&#xe5;" horiz-adv-x="1196" d="M35 281q0 324 196.5 540.5t481.5 216.5q201 0 368 -94l-202 -782h200v-86q-158 -43 -253 -66.5t-152 -23.5q-76 0 -76 67q0 33 12 78l11 39q-162 -184 -349 -184q-109 0 -173 76t-64 219zM307 301q0 -154 86 -154q70 0 149 72t136 172l139 527q-31 10 -90 10 q-166 0 -293 -197t-127 -430zM504 1413q0 102 73.5 174t172.5 72q100 0 172.5 -73t72.5 -173q0 -102 -72.5 -174t-172.5 -72q-98 0 -172 72t-74 174zM643 1413q0 -45 31 -74.5t76 -29.5t74.5 29.5t29.5 74.5t-29.5 74t-74.5 29q-47 0 -77 -29t-30 -74z" />
<glyph unicode="&#xe6;" horiz-adv-x="1570" d="M8 223q0 176 170 262t461 86q49 137 49 220q0 152 -139 151q-166 0 -170 -285q-84 0 -161 43t-77 129q0 104 112 156.5t261 52.5q238 0 340 -133q45 39 100 68q121 66 265 65q166 0 248.5 -57t82.5 -160q0 -119 -97 -202.5t-242.5 -122.5t-329.5 -45q-4 -41 -4 -68 q0 -131 40.5 -204t153.5 -73q133 0 279 56l22 -74q-205 -102 -442 -102q-201 0 -281 127q-23 -16 -31 -23l-45 -29q-35 -23 -59.5 -32t-62 -21t-78.5 -17t-86 -5q-131 0 -205 64t-74 173zM289 246q0 -51 27.5 -84t82.5 -33q111 0 213 80q-12 55 -12 123q0 63 10 127 q-147 -2 -233 -62q-88 -59 -88 -151zM899 565q180 25 285.5 104t105.5 177q0 43 -23.5 68.5t-62.5 25.5q-98 0 -185 -99.5t-120 -275.5z" />
<glyph unicode="&#xe7;" horiz-adv-x="958" d="M35 348q0 162 77.5 322.5t228.5 264t345 103.5q123 0 199 -44t76 -122q0 -80 -66 -129t-162 -49q-8 43 -16 101.5t-14.5 87t-18.5 41t-39 12.5q-121 0 -225.5 -166t-104.5 -405q0 -254 205 -254q111 0 248 55l27 -80q-68 -35 -113 -53q-39 -14 -94 -29l-43 -88 q72 -4 116 -40t44 -101q0 -127 -105.5 -195.5t-241.5 -68.5q-73 0 -141 20l31 98q31 -6 76 -6q66 0 118 29t52 92q0 100 -121 100l73 142h-43q-172 0 -270 94t-98 268z" />
<glyph unicode="&#xe8;" horiz-adv-x="985" d="M33 332q0 131 44 255t125 225t209 163.5t281 62.5q137 0 207 -58t70 -146q0 -180 -199 -295q-176 -100 -463 -146v-41q0 -111 49.5 -176t145.5 -65q113 0 256 51l26 -78q-182 -98 -391 -98q-170 0 -265 89t-95 257zM315 504q394 147 394 350q0 82 -80 82 q-104 0 -201 -141q-86 -125 -113 -291zM346 1528q102 88 234 102l161 -397l-116 -57z" />
<glyph unicode="&#xe9;" horiz-adv-x="985" d="M33 332q0 131 44 255t125 225t209 163.5t281 62.5q137 0 207 -58t70 -146q0 -180 -199 -295q-176 -100 -463 -146v-41q0 -111 49.5 -176t145.5 -65q113 0 256 51l26 -78q-182 -98 -391 -98q-170 0 -265 89t-95 257zM315 504q394 147 394 350q0 82 -80 82 q-104 0 -201 -141q-86 -125 -113 -291zM586 1219l172 407q133 -14 233 -102l-288 -363z" />
<glyph unicode="&#xea;" horiz-adv-x="985" d="M33 332q0 131 44 255t125 225t209 163.5t281 62.5q137 0 207 -58t70 -146q0 -180 -199 -295q-176 -100 -463 -146v-41q0 -111 49.5 -176t145.5 -65q113 0 256 51l26 -78q-182 -98 -391 -98q-170 0 -265 89t-95 257zM211 1217l329 397h232l145 -397l-149 -50l-140 285 l-276 -285zM315 504q394 147 394 350q0 82 -80 82q-104 0 -201 -141q-86 -125 -113 -291z" />
<glyph unicode="&#xeb;" horiz-adv-x="985" d="M33 332q0 131 44 255t125 225t209 163.5t281 62.5q137 0 207 -58t70 -146q0 -180 -199 -295q-176 -100 -463 -146v-41q0 -111 49.5 -176t145.5 -65q113 0 256 51l26 -78q-182 -98 -391 -98q-170 0 -265 89t-95 257zM240 1393q0 72 47 117.5t113 45.5q72 0 118 -46 t46 -117q0 -66 -46.5 -113t-117.5 -47q-66 0 -113 47t-47 113zM315 504q394 147 394 350q0 82 -80 82q-104 0 -201 -141q-86 -125 -113 -291zM690 1393q0 72 47.5 117.5t112.5 45.5q72 0 118 -46t46 -117q0 -66 -46 -113t-118 -47q-66 0 -113 47t-47 113z" />
<glyph unicode="&#xec;" horiz-adv-x="679" d="M76 862v86q295 90 379 90q98 0 98 -71q0 -27 -21 -109l-174 -698h201v-84q-113 -35 -211 -62.5t-172 -27.5q-94 0 -94 80q0 20 18 98l176 698h-200zM106 1528q102 88 234 102l161 -397l-116 -57z" />
<glyph unicode="&#xed;" horiz-adv-x="679" d="M76 862v86q295 90 379 90q98 0 98 -71q0 -27 -21 -109l-174 -698h201v-84q-113 -35 -211 -62.5t-172 -27.5q-94 0 -94 80q0 20 18 98l176 698h-200zM328 1219l172 407q133 -14 233 -102l-288 -363z" />
<glyph unicode="&#xee;" horiz-adv-x="679" d="M35 1217l329 397h232l145 -397l-149 -50l-140 285l-276 -285zM76 862v86q295 90 379 90q98 0 98 -71q0 -27 -21 -109l-174 -698h201v-84q-113 -35 -211 -62.5t-172 -27.5q-94 0 -94 80q0 20 18 98l176 698h-200z" />
<glyph unicode="&#xef;" horiz-adv-x="679" d="M2 1393q0 72 47 117.5t113 45.5q72 0 118 -46t46 -117q0 -66 -46.5 -113t-117.5 -47q-66 0 -113 47t-47 113zM76 862v86q295 90 379 90q98 0 98 -71q0 -27 -21 -109l-174 -698h201v-84q-113 -35 -211 -62.5t-172 -27.5q-94 0 -94 80q0 20 18 98l176 698h-200zM452 1393 q0 72 47.5 117.5t112.5 45.5q72 0 118 -46t46 -117q0 -66 -46 -113t-118 -47q-66 0 -113 47t-47 113z" />
<glyph unicode="&#xf0;" horiz-adv-x="1202" d="M37 381q0 256 204.5 431t503.5 175q35 0 74 -4q-2 43 -4 70q-4 45 -19.5 92t-31.5 78l-264 -160v160l182 108q-113 100 -295 101l31 120q270 0 432 -116l233 143v-160l-133 -82q66 -80 101 -180q45 -127 45 -323q0 -113 -18.5 -223.5t-65.5 -226.5t-119 -202t-189.5 -141 t-265.5 -55q-188 0 -294.5 107.5t-106.5 287.5zM313 334q0 -246 146 -246q86 0 156.5 76t113.5 198.5t66 264.5q18 121 22 243h-33q-123 0 -218 -51t-147 -133t-79 -172t-27 -180z" />
<glyph unicode="&#xf1;" horiz-adv-x="1241" d="M51 -14l219 876h-196v86q162 43 269.5 66.5t135.5 23.5q72 0 72 -61q0 -39 -10 -82l-25 -90q195 233 391 233q94 0 140.5 -53t46.5 -143q0 -104 -68 -336l-98 -342h200v-88q-166 -43 -273 -66.5t-140 -23.5q-72 0 -72 59q0 23 19 82l137 496q16 57 27.5 104t11.5 74 q0 53 -43 53q-57 0 -149.5 -72.5t-186.5 -197.5l-146 -584zM352 1362q41 59 124 119.5t163 60.5q70 0 141.5 -55t128.5 -55q45 0 87 20.5t112 69.5l59 -76q-43 -57 -133 -117.5t-172 -60.5q-68 0 -145.5 54t-124.5 54q-39 0 -74 -18.5t-104 -69.5z" />
<glyph unicode="&#xf2;" horiz-adv-x="1128" d="M37 360q0 125 47 247t131 217.5t202 154.5t259 59q172 0 271.5 -101t99.5 -275q0 -121 -43 -242t-126 -217.5t-202 -156.5t-273 -60q-366 -1 -366 374zM313 324q0 -236 115 -236q84 0 147.5 61.5t105.5 153.5t63.5 198.5t21.5 196.5q0 238 -115 238q-57 0 -104 -31 t-84 -80t-65.5 -113.5t-47 -133t-28 -135t-9.5 -119.5zM362 1528q102 88 234 102l161 -397l-116 -57z" />
<glyph unicode="&#xf3;" horiz-adv-x="1128" d="M37 360q0 125 47 247t131 217.5t202 154.5t259 59q172 0 271.5 -101t99.5 -275q0 -121 -43 -242t-126 -217.5t-202 -156.5t-273 -60q-366 -1 -366 374zM313 324q0 -236 115 -236q84 0 147.5 61.5t105.5 153.5t63.5 198.5t21.5 196.5q0 238 -115 238q-57 0 -104 -31 t-84 -80t-65.5 -113.5t-47 -133t-28 -135t-9.5 -119.5zM563 1219l172 407q133 -14 233 -102l-288 -363z" />
<glyph unicode="&#xf4;" horiz-adv-x="1128" d="M37 360q0 125 47 247t131 217.5t202 154.5t259 59q172 0 271.5 -101t99.5 -275q0 -121 -43 -242t-126 -217.5t-202 -156.5t-273 -60q-366 -1 -366 374zM313 324q0 -236 115 -236q84 0 147.5 61.5t105.5 153.5t63.5 198.5t21.5 196.5q0 238 -115 238q-57 0 -104 -31 t-84 -80t-65.5 -113.5t-47 -133t-28 -135t-9.5 -119.5zM330 1217l329 397h232l145 -397l-149 -50l-140 285l-276 -285z" />
<glyph unicode="&#xf5;" horiz-adv-x="1128" d="M37 360q0 125 47 247t131 217.5t202 154.5t259 59q172 0 271.5 -101t99.5 -275q0 -121 -43 -242t-126 -217.5t-202 -156.5t-273 -60q-366 -1 -366 374zM250 1362q41 59 124 119.5t163 60.5q70 0 141.5 -55t128.5 -55q45 0 87 20.5t112 69.5l59 -76q-43 -57 -133 -117.5 t-172 -60.5q-68 0 -145.5 54t-124.5 54q-39 0 -74 -18.5t-104 -69.5zM313 324q0 -236 115 -236q84 0 147.5 61.5t105.5 153.5t63.5 198.5t21.5 196.5q0 238 -115 238q-57 0 -104 -31t-84 -80t-65.5 -113.5t-47 -133t-28 -135t-9.5 -119.5z" />
<glyph unicode="&#xf6;" horiz-adv-x="1128" d="M37 360q0 125 47 247t131 217.5t202 154.5t259 59q172 0 271.5 -101t99.5 -275q0 -121 -43 -242t-126 -217.5t-202 -156.5t-273 -60q-366 -1 -366 374zM297 1393q0 72 47 117.5t113 45.5q72 0 118 -46t46 -117q0 -66 -46.5 -113t-117.5 -47q-66 0 -113 47t-47 113z M313 324q0 -236 115 -236q84 0 147.5 61.5t105.5 153.5t63.5 198.5t21.5 196.5q0 238 -115 238q-57 0 -104 -31t-84 -80t-65.5 -113.5t-47 -133t-28 -135t-9.5 -119.5zM747 1393q0 72 47.5 117.5t112.5 45.5q72 0 118 -46t46 -117q0 -66 -46 -113t-118 -47q-66 0 -113 47 t-47 113z" />
<glyph unicode="&#xf7;" horiz-adv-x="1134" d="M141 647v168h920v-168h-920zM424 342q0 76 53 126t121 50q76 0 126 -52t50 -124q0 -68 -51 -121t-125 -53q-70 0 -122 54t-52 120zM424 1128q0 76 53 126.5t121 50.5q76 0 126 -52.5t50 -124.5q0 -68 -51 -121t-125 -53q-70 0 -122 54t-52 120z" />
<glyph unicode="&#xf8;" horiz-adv-x="1128" d="M37 360q0 170 80 325t229.5 254t329.5 99q33 0 63 -4l72 131h156l-95 -174q41 -23 74 -55q100 -102 100.5 -274.5t-76.5 -325t-226.5 -251.5t-340.5 -99q-43 0 -79 6l-74 -137h-158l96 178q-152 86 -151 327zM313 324q0 -33 2 -62l367 668q-14 6 -31 6 q-104 0 -185 -108.5t-117 -245.5t-36 -258zM383 98q20 -10 45 -10q80 0 147.5 61.5t107.5 154.5t61.5 196.5t21.5 197.5q0 51 -6 90z" />
<glyph unicode="&#xf9;" horiz-adv-x="1243" d="M68 860v88q166 43 273.5 66.5t137.5 23.5q74 0 74 -61q0 -18 -18 -82l-138 -496q-16 -59 -27.5 -105t-11.5 -75q0 -51 43 -51q57 0 149.5 72.5t184.5 195.5l148 588l262 14l-219 -878h198v-84q-164 -43 -269 -66.5t-138 -23.5q-72 0 -72 59q0 39 12 82l25 92 q-197 -233 -393 -233q-186 0 -187 194q0 135 166 680h-200zM440 1528q102 88 234 102l161 -397l-116 -57z" />
<glyph unicode="&#xfa;" horiz-adv-x="1243" d="M68 860v88q166 43 273.5 66.5t137.5 23.5q74 0 74 -61q0 -18 -18 -82l-138 -496q-16 -59 -27.5 -105t-11.5 -75q0 -51 43 -51q57 0 149.5 72.5t184.5 195.5l148 588l262 14l-219 -878h198v-84q-164 -43 -269 -66.5t-138 -23.5q-72 0 -72 59q0 39 12 82l25 92 q-197 -233 -393 -233q-186 0 -187 194q0 135 166 680h-200zM639 1219l172 407q133 -14 233 -102l-288 -363z" />
<glyph unicode="&#xfb;" horiz-adv-x="1243" d="M68 860v88q166 43 273.5 66.5t137.5 23.5q74 0 74 -61q0 -18 -18 -82l-138 -496q-16 -59 -27.5 -105t-11.5 -75q0 -51 43 -51q57 0 149.5 72.5t184.5 195.5l148 588l262 14l-219 -878h198v-84q-164 -43 -269 -66.5t-138 -23.5q-72 0 -72 59q0 39 12 82l25 92 q-197 -233 -393 -233q-186 0 -187 194q0 135 166 680h-200zM408 1217l329 397h232l145 -397l-149 -50l-140 285l-276 -285z" />
<glyph unicode="&#xfc;" horiz-adv-x="1243" d="M68 860v88q166 43 273.5 66.5t137.5 23.5q74 0 74 -61q0 -18 -18 -82l-138 -496q-16 -59 -27.5 -105t-11.5 -75q0 -51 43 -51q57 0 149.5 72.5t184.5 195.5l148 588l262 14l-219 -878h198v-84q-164 -43 -269 -66.5t-138 -23.5q-72 0 -72 59q0 39 12 82l25 92 q-197 -233 -393 -233q-186 0 -187 194q0 135 166 680h-200zM311 1393q0 72 47 117.5t113 45.5q72 0 118 -46t46 -117q0 -66 -46.5 -113t-117.5 -47q-66 0 -113 47t-47 113zM761 1393q0 72 47.5 117.5t112.5 45.5q72 0 118 -46t46 -117q0 -66 -46 -113t-118 -47 q-66 0 -113 47t-47 113z" />
<glyph unicode="&#xfd;" horiz-adv-x="1128" d="M-2 -492q0 66 56.5 133.5t181.5 180.5q90 82 155 151l-160 889h-206v86q82 27 192.5 58.5t147.5 31.5q88 0 104 -82l133 -739q276 365 277 541q0 35 -22.5 68.5t-47.5 54t-70 53.5q88 104 211 104q63 0 106.5 -41t43.5 -112q0 -248 -453 -795l-278 -321q-37 -39 -67 -77 t-38 -58.5t-8 -47.5q0 -47 68 -121q-72 -80 -191 -79q-59 0 -97 32.5t-38 89.5zM568 1219l172 407q133 -14 233 -102l-288 -363z" />
<glyph unicode="&#xfe;" horiz-adv-x="1148" d="M-133 -565l463 1841h-201v84q162 43 269.5 66.5t136.5 23.5q74 0 73 -61q0 -29 -12 -82l-109 -455q162 186 357 186q98 0 163.5 -72.5t65.5 -222.5q0 -326 -197.5 -541.5t-480.5 -215.5q-74 0 -127 14l-137 -535zM295 104q49 -8 80 -8q123 0 225 105.5t152.5 242 t50.5 254.5q0 178 -88 179q-131 0 -283 -242z" />
<glyph unicode="&#xff;" horiz-adv-x="1128" d="M-2 -492q0 66 56.5 133.5t181.5 180.5q90 82 155 151l-160 889h-206v86q82 27 192.5 58.5t147.5 31.5q88 0 104 -82l133 -739q276 365 277 541q0 35 -22.5 68.5t-47.5 54t-70 53.5q88 104 211 104q63 0 106.5 -41t43.5 -112q0 -248 -453 -795l-278 -321q-37 -39 -67 -77 t-38 -58.5t-8 -47.5q0 -47 68 -121q-72 -80 -191 -79q-59 0 -97 32.5t-38 89.5zM260 1393q0 72 47 117.5t113 45.5q72 0 118 -46t46 -117q0 -66 -46.5 -113t-117.5 -47q-66 0 -113 47t-47 113zM710 1393q0 72 47.5 117.5t112.5 45.5q72 0 118 -46t46 -117q0 -66 -46 -113 t-118 -47q-66 0 -113 47t-47 113z" />
<glyph unicode="&#x152;" horiz-adv-x="2082" d="M92 477q0 248 104.5 468t306.5 362.5t453 142.5q176 0 275 -92q43 -41 72 -88l43 164h806l-104 -420h-98l-13 272h-378l-125 -493l385 38l-45 -192l-369 35l-135 -527h385l209 295h98l-166 -442h-807l41 164q-176 -178 -438 -178q-500 -1 -500 491zM371 436 q0 -147 62.5 -233t184.5 -86q115 0 214.5 64.5t163 163.5t109.5 220t66.5 231.5t20.5 200.5q0 150 -67.5 236t-188.5 86q-129 0 -239.5 -89t-179 -224.5t-107.5 -286t-39 -283.5z" />
<glyph unicode="&#x153;" horiz-adv-x="1710" d="M37 360q0 279 183 478.5t458 199.5q117 0 194.5 -47t118.5 -121q63 59 148 103q127 66 270 65q287 0 287 -204q0 -92 -59.5 -167t-166 -127.5t-210 -83t-234.5 -59.5q-2 -14 -2 -45q0 -143 43 -194.5t147 -51.5q125 0 271 56l22 -74q-186 -102 -397 -102q-233 0 -311 151 q-45 -45 -151.5 -98t-241.5 -53q-182 0 -275.5 96t-93.5 278zM315 324q-2 -236 121 -236q94 0 174 107.5t120 246t40 256.5q0 238 -121 238q-82 0 -148.5 -63.5t-105.5 -160t-59.5 -198.5t-20.5 -190zM1036 498q156 53 273.5 150t117.5 216q0 76 -67 76q-113 0 -201 -126 t-123 -316z" />
<glyph unicode="&#x2c6;" horiz-adv-x="716" d="M-14 1217l329 397h232l145 -397l-149 -50l-140 285l-276 -285z" />
<glyph unicode="&#x2dc;" horiz-adv-x="899" d="M57 1362q41 59 124 119.5t163 60.5q70 0 141.5 -55t128.5 -55q45 0 87 20.5t112 69.5l59 -76q-43 -57 -133 -117.5t-172 -60.5q-68 0 -145.5 54t-124.5 54q-39 0 -74 -18.5t-104 -69.5z" />
<glyph unicode="&#x2000;" horiz-adv-x="948" />
<glyph unicode="&#x2001;" horiz-adv-x="1896" />
<glyph unicode="&#x2002;" horiz-adv-x="948" />
<glyph unicode="&#x2003;" horiz-adv-x="1896" />
<glyph unicode="&#x2004;" horiz-adv-x="632" />
<glyph unicode="&#x2005;" horiz-adv-x="474" />
<glyph unicode="&#x2006;" horiz-adv-x="316" />
<glyph unicode="&#x2007;" horiz-adv-x="316" />
<glyph unicode="&#x2008;" horiz-adv-x="237" />
<glyph unicode="&#x2009;" horiz-adv-x="379" />
<glyph unicode="&#x200a;" horiz-adv-x="105" />
<glyph unicode="&#x2010;" horiz-adv-x="733" d="M131 467v186h447v-186h-447z" />
<glyph unicode="&#x2011;" horiz-adv-x="733" d="M131 467v186h447v-186h-447z" />
<glyph unicode="&#x2012;" horiz-adv-x="733" d="M131 467v186h447v-186h-447z" />
<glyph unicode="&#x2013;" horiz-adv-x="1261" d="M109 473v172h1044v-172h-1044z" />
<glyph unicode="&#x2014;" horiz-adv-x="2285" d="M109 473v170h2068v-170h-2068z" />
<glyph unicode="&#x2018;" horiz-adv-x="536" d="M180 991q0 152 132 295.5t274 216.5l67 -86q-170 -139 -239 -307l116 -119q0 -72 -52 -123t-124 -51q-74 0 -124 50.5t-50 123.5z" />
<glyph unicode="&#x2019;" horiz-adv-x="526" d="M156 903q170 139 239 307l-116 119q0 72 52 123t124 51q74 0 124 -50t50 -124q0 -152 -132 -295t-274 -217z" />
<glyph unicode="&#x201a;" horiz-adv-x="528" d="M-139 -264q170 139 239 307l-116 119q0 72 52 123t124 51q74 0 124 -50t50 -124q0 -152 -132 -295t-274 -217z" />
<glyph unicode="&#x201c;" horiz-adv-x="960" d="M180 991q0 152 132 295.5t274 216.5l67 -86q-170 -139 -239 -307l116 -119q0 -72 -52 -123t-124 -51q-74 0 -124 50.5t-50 123.5zM606 991q0 152 132 295.5t274 216.5l67 -86q-170 -139 -239 -307l116 -119q0 -72 -52 -123t-124 -51q-74 0 -124 50.5t-50 123.5z" />
<glyph unicode="&#x201d;" horiz-adv-x="952" d="M156 903q170 139 239 307l-116 119q0 72 52 123t124 51q74 0 124 -50t50 -124q0 -152 -132 -295t-274 -217zM582 903q170 139 239 307l-116 119q0 72 52 123t124 51q74 0 124 -50t50 -124q0 -152 -132 -295t-274 -217z" />
<glyph unicode="&#x201e;" horiz-adv-x="952" d="M-147 -317q170 139 239 307l-117 119q0 72 52.5 123t124.5 51q74 0 124 -50.5t50 -123.5q0 -152 -132.5 -295.5t-273.5 -216.5zM279 -317q170 139 239 307l-117 119q0 72 52.5 123t124.5 51q74 0 124 -50.5t50 -123.5q0 -152 -132.5 -295.5t-273.5 -216.5z" />
<glyph unicode="&#x2022;" horiz-adv-x="931" d="M147 729q0 150 104.5 248t237.5 98q150 0 248.5 -102.5t98.5 -243.5q0 -133 -99.5 -237.5t-247.5 -104.5q-135 0 -238.5 106.5t-103.5 235.5z" />
<glyph unicode="&#x202f;" horiz-adv-x="379" />
<glyph unicode="&#x2039;" horiz-adv-x="651" d="M72 520l18 66l385 356h146l-293 -389l98 -389h-145z" />
<glyph unicode="&#x203a;" horiz-adv-x="651" d="M6 164l295 389l-98 389h145l207 -356l-16 -66l-385 -356h-148z" />
<glyph unicode="&#x205f;" horiz-adv-x="474" />
<glyph unicode="&#x20ac;" horiz-adv-x="1394" d="M70 487l30 109l101 6q8 88 35 176h-95l29 107l104 6q57 139 160 266t265.5 210t353.5 83q111 0 210 -20.5t144 -40.5l45 -21l-94 -379h-121l-12 305q-57 16 -123 17q-207 0 -352.5 -134.5t-200.5 -269.5l512 31l-62 -160h-495q-23 -78 -33 -162l483 29l-61 -158h-426 q2 -170 74 -260q74 -94 194 -94q84 0 150 19l235 311h119l-145 -377q-174 -100 -412 -100q-248 0 -369 139q-119 139 -118 362h-125z" />
<glyph unicode="&#x25fc;" horiz-adv-x="1034" d="M0 0v1034h1034v-1034h-1034z" />
</font>
</defs>
</svg>
