<?xml version="1.0" standalone="no"?>
<!DOCTYPE svg PUBLIC "-//W3C//DTD SVG 1.1//EN" "http://www.w3.org/Graphics/SVG/1.1/DTD/svg11.dtd" >
<svg xmlns="http://www.w3.org/2000/svg">
<metadata></metadata>
<defs>
<font id="volkhovbold" horiz-adv-x="1585" >
<font-face units-per-em="2048" ascent="1638" descent="-410" />
<missing-glyph horiz-adv-x="456" />
<glyph horiz-adv-x="0" />
<glyph unicode="&#xd;" horiz-adv-x="0" />
<glyph unicode=" "  horiz-adv-x="456" />
<glyph unicode="&#x09;" horiz-adv-x="456" />
<glyph unicode="&#xa0;" horiz-adv-x="456" />
<glyph unicode="!" horiz-adv-x="612" d="M131 145q0 70 52.5 122t123.5 52q72 0 123 -51t51 -123q0 -68 -51 -122t-123 -54t-124 54t-52 122zM154 1434h303l-41 -1008h-221z" />
<glyph unicode="&#x22;" horiz-adv-x="768" d="M78 1464h258l-62 -481h-135zM434 1464h256l-61 -481h-135z" />
<glyph unicode="#" horiz-adv-x="1247" d="M94 391v170h195l67 352h-206v170h237l70 381h176l-72 -381h236l71 381h176l-73 -381h184v-170h-215l-68 -352h228v-170h-260l-72 -391h-174l72 391h-234l-74 -391h-174l72 391h-162zM463 561h235l68 352h-236z" />
<glyph unicode="$" horiz-adv-x="1261" d="M113 66v376h114l105 -303q98 -31 227 -30h8v514q-10 4 -29.5 13t-29.5 13q-174 76 -276.5 178.5t-102.5 266.5q0 156 121 254t317 114v129h152v-129q217 -12 356 -61v-377h-114l-101 289q-53 10 -141 14v-448q23 -10 41 -17q100 -35 182 -87t148.5 -143t74.5 -202 q0 -203 -120.5 -318.5t-325.5 -136.5v-145h-152v139q-266 11 -454 97zM399 1151q0 -113 168 -205v371q-80 -18 -124 -62.5t-44 -103.5zM719 133q82 29 130 84t48 123q0 125 -178 217v-424z" />
<glyph unicode="%" horiz-adv-x="1527" d="M80 1112q0 76 21.5 140.5t63.5 111.5t101.5 73.5t134.5 26.5q76 0 136.5 -27.5t100.5 -74.5t61.5 -111.5t21.5 -138.5t-21.5 -138.5t-61.5 -112.5t-100.5 -74.5t-136.5 -26.5q-151 0 -237 100q-84 102 -84 252zM297 1112q0 -252 104 -252q102 0 103 252q0 252 -103 252 q-104 0 -104 -252zM317 0l715 1434h174l-712 -1434h-177zM805 322q0 76 21.5 140t63.5 111.5t101.5 74t134.5 26.5q76 0 136.5 -28t101.5 -76t62.5 -111.5t21.5 -136.5q0 -74 -21.5 -138.5t-62.5 -111.5t-101.5 -75t-136.5 -28q-151 1 -237 101q-84 102 -84 252zM1022 322 q0 -252 104 -252t105 252q0 250 -105 249q-104 1 -104 -249z" />
<glyph unicode="&#x26;" horiz-adv-x="1581" d="M74 340q0 258 311 408q-98 111 -141 197.5t-43 189.5q0 154 111.5 241.5t310.5 87.5q195 0 306 -93t111 -228q0 -221 -299 -381l303 -299q37 88 54 199l-123 45v112h440v-112l-174 -45q-25 -166 -90 -302l205 -194l227 -53v-113h-426l-151 145q-172 -176 -435 -176 q-236 0 -366.5 96.5t-130.5 274.5zM354 354q0 -106 67.5 -168.5t180.5 -62.5q184 0 303 119l-411 393q-140 -119 -140 -281zM463 1157q0 -45 18.5 -87t53.5 -85l100 -108q143 115 143 274q0 82 -43 129t-117 47q-70 0 -112.5 -45t-42.5 -125z" />
<glyph unicode="'" horiz-adv-x="434" d="M78 1464h278l-61 -481h-156z" />
<glyph unicode="(" horiz-adv-x="704" d="M61 512q0 360 160 661.5t412 479.5l72 -94q-193 -193 -297.5 -469.5t-104.5 -577.5q0 -305 105.5 -582.5t298.5 -468.5l-74 -90q-252 170 -412 472t-160 669z" />
<glyph unicode=")" horiz-adv-x="704" d="M-2 -539q193 190 297 468t104 583q0 303 -104.5 579.5t-296.5 467.5l72 94q252 -178 412.5 -480.5t160.5 -660.5q0 -367 -160.5 -669t-412.5 -472z" />
<glyph unicode="*" horiz-adv-x="976" d="M90 1194l66 201l272 -142l-47 303h213l-47 -303l274 140l66 -199l-301 -57l213 -217l-170 -125l-142 270l-141 -272l-174 133l219 213z" />
<glyph unicode="+" horiz-adv-x="1116" d="M88 641v176h381v381h176v-381h383v-176h-383v-381h-176v381h-381z" />
<glyph unicode="," horiz-adv-x="542" d="M51 -276q121 125 191 266l-166 104q0 84 56 139.5t132 55.5q92 0 141.5 -52.5t49.5 -148.5q0 -119 -99.5 -250t-208.5 -200z" />
<glyph unicode="-" horiz-adv-x="686" d="M119 463v196h448v-196h-448z" />
<glyph unicode="." horiz-adv-x="518" d="M84 129q0 70 52 122t124 52t123 -51t51 -123q0 -68 -51 -122t-123 -54t-124 54t-52 122z" />
<glyph unicode="/" horiz-adv-x="946" d="M59 0l637 1434h193l-635 -1434h-195z" />
<glyph unicode="0" horiz-adv-x="1294" d="M98 717q0 319 147.5 533t401.5 214t401.5 -214t147.5 -533q0 -326 -147.5 -537t-401.5 -211t-401.5 211t-147.5 537zM438 717q0 -606 209 -606t209 606t-209 606t-209 -606z" />
<glyph unicode="1" horiz-adv-x="905" d="M53 1206l432 228h179v-1293l174 -32v-109h-742v109l236 41v1056l-246 -104z" />
<glyph unicode="2" horiz-adv-x="1114" d="M63 0v143q31 31 75 79t135.5 161t161 221.5t124.5 244.5t55 245q0 102 -45 175.5t-116 73.5l-242 -241q-109 100 -117 260q199 102 434 102q190 0 309 -84t119 -258q0 -379 -538 -862h428l80 160h110l-57 -420h-916z" />
<glyph unicode="3" horiz-adv-x="1118" d="M43 53l43 121q158 -57 289 -57q143 0 227 78.5t84 195.5q0 139 -99.5 217t-264.5 78v133q123 0 206.5 82t83.5 217q0 100 -56 165t-118 65l-229 -230q-35 25 -70 108t-39 140q18 10 51 26.5t134.5 44t206.5 27.5q240 0 350 -91t110 -240q0 -119 -86 -214.5t-241 -142.5 q195 -31 299 -132t104 -249q0 -211 -159.5 -318.5t-409.5 -107.5q-226 0 -416 84z" />
<glyph unicode="4" horiz-adv-x="1191" d="M25 262v121l780 1051h149v-1010h162v-162h-162v-293h-301v293h-628zM270 424h383v508z" />
<glyph unicode="5" horiz-adv-x="1101" d="M43 55l49 111q123 -51 230 -51q150 0 247 84t97 247q0 156 -80 237t-215 81q-76 0 -172 -23l-45 29l59 664h584l137 145l104 -49l-143 -354h-549l-27 -275q109 23 199 23q236 0 361 -128t125 -331q0 -160 -87.5 -275.5t-215.5 -168t-275 -52.5q-227 0 -379 84z" />
<glyph unicode="6" horiz-adv-x="1187" d="M94 614q0 371 230.5 602.5t627.5 231.5l-4 -139q-217 0 -350 -139.5t-174 -374.5q121 106 274 106q207 0 316.5 -133t109.5 -334q0 -197 -132 -331t-359 -134q-254 0 -396.5 178t-142.5 467zM408 596q0 -154 15 -256t59 -170t118 -68q78 0 133 90.5t55 206.5 q0 147 -61 231.5t-162 84.5q-92 0 -155 -45q-2 -25 -2 -74z" />
<glyph unicode="7" horiz-adv-x="1017" d="M53 1014l58 420h905v-91q-406 -553 -486 -1343h-327q35 281 177 606.5t308 567.5h-448l-76 -160h-111z" />
<glyph unicode="8" horiz-adv-x="1206" d="M115 334q0 211 270 405q-233 176 -233 373q0 174 128 263t324 89q188 0 315.5 -88t127.5 -246q0 -186 -191 -333q244 -172 244 -410q0 -184 -147.5 -301t-366.5 -117q-221 0 -346 97.5t-125 267.5zM360 332q0 -100 60.5 -164t154.5 -64q88 0 147.5 58.5t59.5 161.5 q0 66 -42 128t-89 100t-135 97q-156 -157 -156 -317zM467 1163q0 -57 38 -110.5t82 -84t126 -81.5q92 115 92 241q0 90 -48 142.5t-132 52.5q-61 0 -109.5 -45t-48.5 -115z" />
<glyph unicode="9" horiz-adv-x="1187" d="M63 997q0 199 132.5 333t359.5 134q254 0 396.5 -178t142.5 -467q0 -373 -232.5 -611.5t-609.5 -238.5h-16l2 140q219 0 352 144t174 386q-117 -109 -275 -109q-207 0 -316.5 133t-109.5 334zM399 1032q0 -147 61.5 -231t162.5 -84q88 0 155 45q0 12 1 36.5t1 39.5 q0 236 -43 364.5t-151 128.5q-76 0 -131.5 -91t-55.5 -208z" />
<glyph unicode=":" horiz-adv-x="583" d="M117 143q0 70 52 122t124 52t123 -51t51 -123q0 -68 -51 -122t-123 -54t-124 54t-52 122zM117 825q0 70 52 122t124 52t123 -51t51 -123q0 -68 -51 -122t-123 -54t-124 54t-52 122z" />
<glyph unicode=";" horiz-adv-x="602" d="M88 -276q121 125 191 266l-166 104q0 84 56 139.5t132 55.5q92 0 141.5 -52.5t49.5 -148.5q0 -119 -99.5 -250t-208.5 -200zM121 825q0 70 52 122t124 52t123 -51t51 -123q0 -68 -51 -122t-123 -54t-124 54t-52 122z" />
<glyph unicode="&#x3c;" horiz-adv-x="1107" d="M80 664v137l881 473v-205l-627 -338l627 -336v-205z" />
<glyph unicode="=" horiz-adv-x="1206" d="M133 473v176h940v-176h-940zM133 811v178h940v-178h-940z" />
<glyph unicode="&#x3e;" horiz-adv-x="1107" d="M147 190v205l627 336l-627 338v205l881 -473v-137z" />
<glyph unicode="?" horiz-adv-x="1005" d="M74 1366q18 10 53 26.5t141.5 44t214.5 27.5q219 0 329 -92t110 -258q0 -152 -96.5 -264.5t-303.5 -265.5l-30 -191h-123l-31 250q96 109 141 168t83 146t38 178q0 94 -56.5 158.5t-131.5 64.5l-242 -232q-88 86 -96 240zM254 145q0 70 52 122t124 52t123 -51t51 -123 q0 -68 -51 -122t-123 -54t-124 54t-52 122z" />
<glyph unicode="@" horiz-adv-x="1880" d="M106 588q0 379 267.5 627.5t664.5 248.5q338 0 549 -180t211 -461q0 -272 -210 -446t-503 -174q-94 0 -94 78q0 16 4 39.5t9 37.5l6 15q-143 -170 -305 -170q-96 0 -143.5 67.5t-47.5 182.5q0 264 177 453.5t411 189.5q184 0 338 -80l-170 -660q160 41 258 171t98 313 q0 217 -167 354t-417 137q-182 0 -340.5 -87t-261 -260t-102.5 -398q0 -315 201.5 -493.5t500.5 -178.5q199 0 381 76l41 -94q-207 -121 -475 -121q-395 0 -638 213t-243 600zM791 436q0 -78 43 -78q49 0 121.5 81t117.5 177l94 367q-20 4 -41 4q-90 0 -168.5 -88 t-122.5 -214t-44 -249z" />
<glyph unicode="A" horiz-adv-x="1499" d="M-20 0v115l200 47l490 1282h178l459 -1282l196 -47v-115h-694v115l145 35l-88 245h-430l-92 -239l172 -41v-115h-536zM492 537h323l-160 436z" />
<glyph unicode="B" horiz-adv-x="1384" d="M68 0v115l188 45v1114l-188 45v115h626q240 0 381.5 -83t141.5 -266q0 -111 -80 -199.5t-189 -115.5v-6q170 -31 270.5 -126t100.5 -235q0 -182 -155.5 -292.5t-393.5 -110.5h-702zM590 145h72q317 0 317 258q0 125 -77 195t-230 70h-82v-523zM590 817h28q109 0 184 65.5 t75 184.5q0 221 -271 221h-16v-471z" />
<glyph unicode="C" horiz-adv-x="1343" d="M88 717q0 358 191.5 552.5t560.5 194.5q98 0 212.5 -23.5t186.5 -56.5v-378h-115l-90 288q-70 12 -116 13q-256 0 -373 -142.5t-117 -447.5q0 -303 110.5 -446.5t344.5 -143.5q49 0 114 10l152 309h115l-54 -376q-72 -39 -183.5 -70t-221.5 -31q-344 0 -530.5 196 t-186.5 552z" />
<glyph unicode="D" horiz-adv-x="1538" d="M68 0v115l188 45v1114l-188 45v115h614q373 0 570.5 -198t197.5 -519q0 -342 -209 -529.5t-559 -187.5h-614zM590 158h61q223 0 341 145.5t118 413.5q0 270 -118 414.5t-341 144.5h-61v-1118z" />
<glyph unicode="E" horiz-adv-x="1290" d="M68 0v115l188 45v1114l-188 45v115h1087v-420h-121l-82 262h-362v-475l381 35v-203l-381 31v-506h366l140 284h121l-62 -442h-1087z" />
<glyph unicode="F" horiz-adv-x="1191" d="M68 0v115l188 45v1114l-188 45v115h1077v-420h-115l-82 262h-358v-471l381 31v-203l-381 29v-502l229 -45v-115h-751z" />
<glyph unicode="G" horiz-adv-x="1492" d="M86 717q0 358 205 552.5t588 194.5q215 0 399 -80v-378h-115l-94 303q-55 8 -113 8q-248 0 -389 -153.5t-141 -446.5q0 -600 489 -600q31 0 60 2v389l-234 72v94h719v-94l-151 -72v-438q-41 -20 -96.5 -39t-119 -32t-129 -21.5t-126.5 -8.5q-362 0 -557 194.5t-195 553.5 z" />
<glyph unicode="H" horiz-adv-x="1689" d="M68 0v115l188 45v1114l-188 45v115h710v-115l-188 -45v-471h510v471l-189 45v115h711v-115l-188 -45v-1114l188 -45v-115h-711v115l189 45v485h-510v-485l188 -45v-115h-710z" />
<glyph unicode="I" horiz-adv-x="845" d="M68 0v115l188 45v1114l-188 45v115h710v-115l-188 -45v-1114l188 -45v-115h-710z" />
<glyph unicode="J" horiz-adv-x="804" d="M8 -211q231 164 232 518v967l-189 45v115h711v-115l-189 -45v-967q0 -215 -142 -393t-302 -248z" />
<glyph unicode="K" horiz-adv-x="1558" d="M68 0v115l188 45v1114l-188 45v115h710v-115l-188 -45v-1114l188 -45v-115h-710zM635 715l442 563l-125 41v115h533v-115l-195 -45l-344 -428l438 -645l193 -86v-115h-475z" />
<glyph unicode="L" horiz-adv-x="1236" d="M68 0v115l188 45v1114l-188 45v115h710v-115l-188 -45v-1116h373l139 284h115l-62 -442h-1087z" />
<glyph unicode="M" horiz-adv-x="2091" d="M33 0v115l194 47l64 1114l-180 43l4 115h508l421 -977l439 977h495v-115l-182 -43l72 -1116l196 -45v-115h-718v115l180 43l-56 860l-458 -1028h-133l-445 1034l-47 -866l182 -43v-115h-536z" />
<glyph unicode="N" horiz-adv-x="1705" d="M68 0v115l188 45v1114l-188 45v115h352l878 -963v803l-188 45v115h547v-115l-189 -45v-1274h-198l-850 930v-770l188 -45v-115h-540z" />
<glyph unicode="O" d="M86 717q0 332 183.5 539.5t523.5 207.5q336 0 521 -204.5t185 -542.5q0 -336 -185.5 -542t-520.5 -206q-336 0 -521.5 204t-185.5 544zM430 717q0 -289 91.5 -447.5t271.5 -158.5q178 0 270 158.5t92 447.5t-93 447.5t-269 158.5q-178 0 -270.5 -158.5t-92.5 -447.5z" />
<glyph unicode="P" horiz-adv-x="1316" d="M68 0v115l188 45v1114l-188 45v115h579q297 0 461 -103.5t164 -345.5q0 -123 -52.5 -214t-142.5 -143.5t-198.5 -78t-235.5 -25.5h-53v-364l250 -45v-115h-772zM590 674h43q125 0 212 78.5t87 232.5q0 147 -81 223t-204 76h-57v-610z" />
<glyph unicode="Q" d="M86 717q0 332 183.5 539.5t523.5 207.5q336 0 521 -204.5t185 -542.5q0 -340 -186 -545q-88 -96 -211 -145q72 -61 172 -103q117 -47 272 -63l-76 -148q-455 2 -733 258q-297 14 -467 201q-184 205 -184 545zM430 717q0 -289 91.5 -447.5t271.5 -158.5q178 0 270 158.5 t92 447.5t-93 447.5t-269 158.5q-178 0 -270.5 -158.5t-92.5 -447.5z" />
<glyph unicode="R" horiz-adv-x="1462" d="M68 0v115l188 45v1114l-188 45v115h641q285 0 427 -103.5t142 -294.5q0 -129 -74 -225t-203 -135l287 -518l197 -49v-109h-498l-325 621h-72v-461l178 -45v-115h-700zM590 764h59q143 0 219 73.5t76 198.5q0 113 -78 180.5t-219 67.5h-57v-520z" />
<glyph unicode="S" horiz-adv-x="1234" d="M100 66v376h115l104 -286q86 -31 216 -31q139 0 240.5 49t101.5 145q0 23 -5.5 43.5t-17.5 39t-24.5 34t-37 32.5t-43 28.5t-54.5 30t-126 61.5l-73 35q-203 98 -291 205.5t-88 265.5q0 168 139 269t360 101q248 0 447 -63v-377h-115l-100 274q-84 18 -162 19 q-121 0 -207 -42t-86 -122q0 -72 68.5 -120t245.5 -126l41 -18q209 -94 307 -209t98 -279q0 -154 -77 -251t-201.5 -139t-284.5 -42q-254 1 -490 97z" />
<glyph unicode="T" horiz-adv-x="1349" d="M45 999v435h1260v-435h-125l-84 277h-254v-1116l188 -45v-115h-711v115l189 45v1116h-256l-84 -277h-123z" />
<glyph unicode="U" horiz-adv-x="1574" d="M10 1319v115h711v-115l-189 -45v-737q0 -393 326 -394q160 0 257 99.5t97 294.5v737l-188 45v115h545v-115l-189 -45v-737q0 -274 -164.5 -421t-416.5 -147q-262 0 -431 146.5t-169 421.5v737z" />
<glyph unicode="V" horiz-adv-x="1460" d="M-14 1319v115h708v-115l-168 -35l310 -848l280 838l-162 45v115h516v-115l-188 -45l-446 -1288h-199l-469 1288z" />
<glyph unicode="W" horiz-adv-x="2146" d="M-20 1319v115h704v-115l-172 -37l256 -750l250 902h272l303 -904l199 744l-166 45v115h516v-115l-188 -45l-348 -1288h-199l-344 1036l-293 -1036h-186l-426 1290z" />
<glyph unicode="X" horiz-adv-x="1519" d="M14 0v115l189 45l385 532l-379 580l-189 47v115h691v-115l-119 -27l248 -377l254 363l-131 41v115h503v-115l-188 -45l-350 -481l428 -637l174 -41v-115h-690v115l118 22l-282 426l-289 -407l131 -41v-115h-504z" />
<glyph unicode="Y" horiz-adv-x="1435" d="M-18 1319v115h671v-115l-133 -27l293 -430l262 416l-151 41v115h522v-115l-189 -45l-368 -586v-528l188 -45v-115h-710v115l188 45v530l-408 588z" />
<glyph unicode="Z" horiz-adv-x="1359" d="M86 0v127l737 1149h-514l-88 -293h-117v451h1143v-127l-735 -1149h526l144 284h112l-59 -442h-1149z" />
<glyph unicode="[" horiz-adv-x="659" d="M168 -262v1818h436v-133h-192v-1552h192v-133h-436z" />
<glyph unicode="\" horiz-adv-x="946" d="M57 1434h193l637 -1434h-195z" />
<glyph unicode="]" horiz-adv-x="659" d="M55 -129h193v1552h-193v133h437v-1818h-437v133z" />
<glyph unicode="^" horiz-adv-x="1236" d="M115 547l430 917h143l432 -917h-194l-312 684l-307 -684h-192z" />
<glyph unicode="_" horiz-adv-x="1488" d="M274 -139h940v-152h-940v152z" />
<glyph unicode="`" horiz-adv-x="452" d="M-219 1464q94 86 242 107l208 -354l-125 -62z" />
<glyph unicode="a" horiz-adv-x="1171" d="M61 254q0 178 146.5 271t474.5 93v62q0 61 -1 89t-9 66.5t-23.5 55t-46.5 30t-76 13.5l-260 -225q-139 80 -139 247l61 27q39 16 152 44t219 28q440 0 440 -353v-548h160v-88q-10 -10 -28.5 -26.5t-80 -43.5t-126.5 -27q-156 0 -232 105q-137 -104 -299 -105 q-141 0 -236.5 72t-95.5 213zM391 272q0 -59 40 -94t97 -35q92 0 154 68v281q-115 0 -203 -61t-88 -159z" />
<glyph unicode="b" horiz-adv-x="1245" d="M-37 1452v109l328 77h162v-688q127 104 295 105q190 0 308 -126t118 -378q0 -186 -95.5 -321.5t-236 -198t-301.5 -62.5q-233 0 -404 105v1378h-174zM453 109q25 -4 69 -5q139 0 232.5 113t93.5 326q0 338 -207 338q-80 0 -188 -62v-710z" />
<glyph unicode="c" horiz-adv-x="1007" d="M70 516q0 238 156.5 388.5t369.5 150.5q178 0 350 -86q-6 -170 -149 -250l-176 203h-13q-86 -25 -151.5 -126.5t-65.5 -283.5v-8q0 -199 92 -299q88 -84 230 -84q59 0 115.5 10t115.5 29l25 -121q-166 -70 -340 -70q-231 0 -395 147.5t-164 399.5z" />
<glyph unicode="d" horiz-adv-x="1298" d="M72 475q0 276 175 428t427 152q63 0 119 -13v410h-175v109l328 77h164v-1484h160v-88q-12 -10 -34 -26.5t-85.5 -43.5t-120.5 -27q-86 0 -144.5 41t-82.5 88q-113 -129 -277 -129q-186 0 -320 130t-134 376zM395 483q0 -168 73 -254t144 -86q102 0 181 76v688 q-57 14 -101 15q-135 0 -216 -108t-81 -331z" />
<glyph unicode="e" horiz-adv-x="1116" d="M72 524q0 242 136 386.5t370 144.5q238 0 359.5 -162t121.5 -399h-672q14 -152 108.5 -261.5t241.5 -109.5q111 0 238 47l43 -117q-190 -84 -373 -84q-264 0 -418.5 154.5t-154.5 400.5zM387 621l346 22q0 49 -6 91t-35 102q-51 86 -121 86q-82 0 -135 -84 q-31 -50 -41 -112q-8 -51 -8 -90v-15z" />
<glyph unicode="f" horiz-adv-x="870" d="M55 0v109l174 41v743h-172v117l172 12v154q0 240 110 366.5t314 126.5q86 0 180.5 -17.5t145.5 -33.5l51 -16v-8q0 -68 -34 -132q-35 -69 -91 -98l-170 172q-41 0 -70.5 -12.5t-59.5 -47t-45 -110.5t-15 -190v-134l280 19v-168h-280v-743l241 -41v-109h-731z" />
<glyph unicode="g" horiz-adv-x="1251" d="M16 -311q0 164 183 260q-55 39 -88 100q-12 25 -19 57q-5 22 -5 44q0 12 1 24l236 203q-106 47 -166 128t-60 179q0 147 139.5 250.5t352.5 103.5q184 0 319 -82l320 119q25 -49 24 -108q0 -70 -8 -105h-225q66 -86 65 -178q0 -152 -134 -253t-361 -101q-74 0 -109 2 l-90 -125q25 -41 68 -50.5t145 -9.5h150q203 0 312.5 -90t109.5 -252q0 -158 -153 -275.5t-427 -117.5q-580 1 -580 277zM328 -266q0 -188 262 -189q172 0 264 57.5t92 143.5q0 66 -53 99.5t-195 33.5h-325q-45 -63 -45 -145zM395 684q0 -98 45.5 -160.5t149.5 -62.5 q100 0 149 62.5t49 160.5t-49 162.5t-149 64.5q-104 0 -149.5 -64.5t-45.5 -162.5z" />
<glyph unicode="h" horiz-adv-x="1363" d="M31 0v109l174 41v1302h-174v109l327 77h162v-714q125 131 309 131q80 0 144.5 -23.5t108.5 -66.5t69 -102.5t25 -129.5v-583l174 -41v-109h-623v109l133 41v526q0 102 -23.5 150t-101.5 48q-41 0 -96 -20t-119 -70v-634l133 -41v-109h-622z" />
<glyph unicode="i" horiz-adv-x="755" d="M61 0v109l175 41v688h-175v108l328 78h162v-874l174 -41v-109h-664zM203 1339q0 80 55 134.5t135 54.5q82 0 136.5 -54.5t54.5 -134.5q0 -82 -54.5 -137t-136.5 -55q-80 0 -135 55t-55 137z" />
<glyph unicode="j" horiz-adv-x="665" d="M-10 -537q109 92 162 217t53 320v838h-174v108l327 78h162v-1024q0 -410 -446 -653zM172 1339q0 80 55.5 134.5t134.5 54.5q82 0 136.5 -54.5t54.5 -134.5q0 -82 -54.5 -137t-136.5 -55q-80 0 -135 55t-55 137z" />
<glyph unicode="k" horiz-adv-x="1323" d="M31 0v109l174 41v1302h-174v109l327 77h162v-1488l133 -41v-109h-622zM557 494l361 391l-123 30v109h481v-109l-186 -38l-236 -261l289 -469l164 -38v-109h-451z" />
<glyph unicode="l" horiz-adv-x="724" d="M31 0v109l174 41v1302h-174v109l327 77h162v-1488l174 -41v-109h-663z" />
<glyph unicode="m" horiz-adv-x="2045" d="M61 0v109l175 41v688h-175v108l328 78h162v-84q139 115 303 115q207 0 303 -148q162 147 352 148q160 0 255.5 -90.5t95.5 -231.5v-583l174 -41v-109h-623v109l133 41v557q0 94 -37 130.5t-114 36.5q-86 0 -193 -81q6 -31 6 -60v-583l133 -41v-109h-583v109l133 41v557 q0 94 -37 130.5t-113 36.5q-84 0 -188 -73v-651l133 -41v-109h-623z" />
<glyph unicode="n" horiz-adv-x="1394" d="M61 0v109l175 41v688h-175v108l328 78h162v-100q125 131 309 131q80 0 144.5 -23.5t108.5 -66.5t68.5 -102.5t24.5 -129.5v-583l174 -41v-109h-622v109l133 41v526q0 63 -7 102t-23.5 60.5t-44.5 28.5t-68 7q-78 0 -197 -90v-634l133 -41v-109h-623z" />
<glyph unicode="o" horiz-adv-x="1239" d="M68 514q0 119 43 218t116.5 171t175 112t218.5 40t217 -40t174.5 -112t116.5 -171t42 -218q0 -117 -42 -217t-116.5 -173t-174.5 -114t-217 -41t-218.5 41t-175 113t-116.5 172t-43 219zM397 514q0 -193 56.5 -302.5t167.5 -109.5t167 110t56 302q0 190 -56.5 299 t-166.5 109q-111 0 -167.5 -109t-56.5 -299z" />
<glyph unicode="p" horiz-adv-x="1312" d="M31 -506l174 41v1303h-174v108l327 78h162v-98q125 129 299 129q86 0 163 -34t134.5 -98.5t91 -158.5t33.5 -213q0 -139 -48 -247.5t-130 -182.5t-191.5 -113t-232.5 -39q-80 0 -119 13v-447l215 -41v-108h-704v108zM520 123q47 -20 101 -21q131 0 212.5 112t81.5 329 q0 166 -57 245.5t-158 79.5q-45 0 -97 -20.5t-83 -50.5v-674z" />
<glyph unicode="q" horiz-adv-x="1245" d="M72 475q0 274 188.5 427t444.5 153q233 0 403 -105v-1415l174 -41v-108h-707v108l216 41v528q-92 -94 -267 -94q-82 0 -160.5 31t-145 89t-106.5 158.5t-40 227.5zM395 483q0 -160 72 -243.5t176 -83.5q86 0 148 47v712q-33 6 -68 7q-328 -1 -328 -439z" />
<glyph unicode="r" horiz-adv-x="956" d="M61 0v109l175 41v688h-175v108l328 78h162v-123q154 154 364 154q12 -39 13 -86q0 -94 -21 -176l-258 43q-49 -23 -98 -66v-620l215 -41v-109h-705z" />
<glyph unicode="s" horiz-adv-x="985" d="M86 16v293h115l73 -203q74 -4 117 -4q240 0 240 105q0 43 -43 74.5t-82 50t-148 65.5q-141 61 -205.5 140t-64.5 204q0 154 124 234t325 80q182 0 313 -39v-279h-107l-63 181q-61 10 -123 10q-197 0 -197 -97q0 -25 18.5 -51t67 -53t152.5 -72q186 -84 251.5 -162.5 t65.5 -211.5q0 -152 -124.5 -232t-331.5 -80q-195 0 -373 47z" />
<glyph unicode="t" horiz-adv-x="774" d="M57 881v82l349 247h75v-196l254 10v-143h-254v-586q0 -100 22.5 -141t92.5 -41q51 0 137 37l33 -115q-123 -66 -260 -66q-340 0 -340 316v596h-109z" />
<glyph unicode="u" horiz-adv-x="1366" d="M18 915v109h490v-707q0 -104 25.5 -144t103.5 -40q59 0 122.5 31t102.5 82v628l-133 41v109h451v-870h159v-88q-45 -31 -72.5 -44.5t-61.5 -26.5t-69.5 -19.5t-66.5 -6.5q-147 0 -207 133q-145 -133 -356 -133q-313 0 -313 322v583z" />
<glyph unicode="v" horiz-adv-x="1187" d="M-8 915v109h626v-109l-139 -32l207 -490l203 488l-135 34v109h444v-109l-172 -45l-364 -884h-144l-379 886z" />
<glyph unicode="w" horiz-adv-x="1701" d="M-6 915v109h618v-109l-145 -36l168 -451l201 596h208l211 -588l152 443l-164 36v109h465v-109l-166 -45l-295 -884h-168l-233 653l-219 -653h-168l-328 893z" />
<glyph unicode="x" horiz-adv-x="1259" d="M18 0v109l179 34l272 324l-262 414l-162 34v109h645v-109l-106 -20l133 -207l164 195l-113 32v109h459v-109l-178 -38l-258 -306l274 -432l168 -30v-109h-662v109l111 16l-139 225l-181 -213l109 -28v-109h-453z" />
<glyph unicode="y" horiz-adv-x="1255" d="M-10 915v109h633v-109l-136 -24l265 -526l192 512l-156 38v109h476v-109l-170 -47l-572 -1480h-37q-61 0 -115.5 26.5t-76.5 65.5l297 473l-447 919z" />
<glyph unicode="z" horiz-adv-x="1042" d="M57 0v102l518 791h-278l-98 -207h-95l23 338h836v-100l-514 -791h307l106 227h101l-21 -360h-885z" />
<glyph unicode="{" horiz-adv-x="765" d="M-63 590v117q115 6 178 53t63 162v342q0 141 75 216.5t220 75.5h178v-118h-61q-88 0 -128 -53.5t-40 -161.5v-320q0 -215 -148 -252v-2q147 -39 148 -254v-323q0 -215 168 -215h61v-119h-178q-141 0 -218 80t-77 215v340q0 119 -62 165t-179 52z" />
<glyph unicode="|" horiz-adv-x="526" d="M166 -492v2048h194v-2048h-194z" />
<glyph unicode="}" horiz-adv-x="765" d="M115 -143h61q168 0 168 215v323q0 215 148 254v2q-147 37 -148 252v320q0 109 -40 162t-128 53h-61v118h178q145 0 220 -75.5t75 -216.5v-342q0 -115 63.5 -162t177.5 -53v-117q-117 -6 -179 -52t-62 -165v-340q0 -135 -77 -215t-218 -80h-178v119z" />
<glyph unicode="~" horiz-adv-x="1124" d="M90 578q37 332 277 331q86 0 212 -72.5t183 -72.5q106 0 125 145l162 -24q-18 -139 -94 -236.5t-201 -97.5q-86 0 -212 72.5t-184 72.5q-45 0 -71.5 -27.5t-34.5 -117.5z" />
<glyph unicode="&#xa1;" horiz-adv-x="573" d="M115 879q0 -70 52.5 -122t123.5 -52q72 0 123 51t51 123q0 68 -51 122t-123 54t-124 -54t-52 -122zM138 -410h303l-41 1008h-221z" />
<glyph unicode="&#xa2;" horiz-adv-x="1079" d="M86 512q0 111 32 203t91 160.5t141.5 112t184.5 59.5v280h149v-274q74 -4 151.5 -24.5t147.5 -59.5q0 -66 -29.5 -137.5t-89.5 -118.5l-178 209h-2v-799q74 -2 139.5 7t137.5 30l24 -121q-152 -63 -301 -70v-256h-149v267q-98 14 -181.5 58t-142.5 111.5t-92 158.5 t-33 204zM408 512q0 -248 127 -338v709q-127 -80 -127 -371z" />
<glyph unicode="&#xa3;" horiz-adv-x="1157" d="M106 0v113q264 197 265 434q0 55 -29 135h-221v117l160 10l-66 117q-8 14 -40 86.5t-32 142.5q0 158 137.5 233.5t321.5 75.5q236 0 434 -102q-4 -68 -36.5 -142.5t-88.5 -117.5l-233 241q-109 0 -151 -67.5t-42 -159.5q0 -106 82 -287l283 21l-21 -168h-204 q18 -59 18 -121q0 -152 -164 -301h398l77 160h111l-57 -420h-902z" />
<glyph unicode="&#xa4;" horiz-adv-x="1253" d="M119 360l143 144q-68 100 -67 231q0 119 65 228l-141 143l137 135l141 -139q100 63 230 63q125 0 229 -67l141 141l138 -135l-142 -141q66 -115 66 -228q0 -125 -70 -231l144 -139l-136 -138l-141 140q-106 -63 -229 -64q-129 0 -230 64l-143 -144zM385 735 q0 -51 18.5 -95t51 -77t76.5 -51t96 -18q49 0 93 19t76.5 52t52 77t19.5 93t-19.5 92t-53 76t-76.5 52.5t-92 19.5t-93.5 -19.5t-77 -51.5t-52 -76t-19.5 -93z" />
<glyph unicode="&#xa5;" horiz-adv-x="1601" d="M70 1319v115h669v-115l-133 -27l295 -430l260 416l-149 41v115h522v-115l-191 -45l-311 -498l262 15l-18 -168h-299v-86l317 16l-18 -168h-299v-225l186 -45v-115h-708v115l188 45v225h-342v117l342 16v105h-342v116l297 15l-365 524z" />
<glyph unicode="&#xa6;" horiz-adv-x="497" d="M172 328h154v-820h-154v820zM172 737v819h154v-819h-154z" />
<glyph unicode="&#xa7;" horiz-adv-x="1097" d="M113 709q0 168 176 264q-172 113 -172 268q0 139 126 226t302 87q209 0 362 -53v-321h-102l-84 229q-76 14 -111 14q-106 0 -154 -37.5t-48 -93.5q0 -137 188 -211q70 -27 115 -48t105.5 -58t96 -75t61 -95t25.5 -123q0 -80 -43 -153.5t-108 -125.5q145 -106 145 -256 q0 -152 -137 -234.5t-334 -82.5q-215 0 -383 82v319h103l88 -239q78 -25 125 -25q231 0 231 160q0 66 -44 109t-163 96q-195 82 -280.5 166t-85.5 211zM301 762q0 -43 19.5 -77t63.5 -61.5t79 -43t100 -39.5q137 -55 174 -74q55 61 56 143q0 88 -68 143.5t-211 112.5 q-74 29 -113 47q-100 -63 -100 -151z" />
<glyph unicode="&#xa8;" horiz-adv-x="870" d="M66 1411q0 68 47 114t114 46q72 0 118 -46t46 -114q0 -72 -46 -119t-118 -47q-68 0 -114.5 47t-46.5 119zM475 1411q0 68 47 114t115 46q72 0 118 -46t46 -114q0 -72 -46 -119t-118 -47q-68 0 -115 47t-47 119z" />
<glyph unicode="&#xa9;" horiz-adv-x="1697" d="M96 731q0 156 59.5 293t162 239.5t239.5 162t293 59.5q154 0 291 -60.5t239.5 -163t162 -239.5t59.5 -291t-59.5 -290t-161 -238.5t-238.5 -162.5t-293 -60t-293 59t-239.5 161.5t-162 238.5t-59.5 292zM231 731q0 -127 49.5 -239.5t133.5 -196.5t196.5 -133t239.5 -49 q129 0 242.5 49t196.5 133t131 196.5t48 239.5q0 129 -48 241.5t-132 197.5t-196.5 133.5t-241.5 48.5q-127 0 -239.5 -49.5t-196.5 -134.5t-133.5 -197.5t-49.5 -239.5zM444 731q0 217 115 333t338 116q133 0 238 -47v-228h-97l-49 158q-16 2 -27.5 3t-19.5 1 q-270 0 -270 -336t264 -336h35l84 174h96l-33 -227q-113 -59 -244 -59q-205 0 -317.5 116.5t-112.5 331.5z" />
<glyph unicode="&#xaa;" horiz-adv-x="823" d="M78 981q0 104 97 161.5t276 57.5v37q0 57 -4.5 84t-22.5 46t-55 19l-154 -135q-88 47 -88 154q117 57 260 57q137 0 206 -56t69 -155v-327h96v-56q-57 -57 -152 -57q-92 0 -139 63q-82 -63 -195 -63q-84 0 -139 44t-55 126zM297 993q0 -35 19.5 -53t52.5 -18q49 0 82 34 v164q-61 -6 -107.5 -40t-46.5 -87z" />
<glyph unicode="&#xab;" horiz-adv-x="1005" d="M88 520v66l313 356h134l-146 -389l146 -389h-134zM512 524v58l240 321h118l-90 -350l90 -350h-118z" />
<glyph unicode="&#xac;" horiz-adv-x="1146" d="M106 647v170h900v-565h-175v395h-725z" />
<glyph unicode="&#xad;" horiz-adv-x="745" d="M106 629v205h533v-205h-533z" />
<glyph unicode="&#xae;" horiz-adv-x="1697" d="M96 731q0 156 59.5 293t162 239.5t239.5 162t293 59.5q154 0 291 -60.5t239.5 -163t162 -239.5t59.5 -291t-59.5 -290t-161 -238.5t-238.5 -162.5t-293 -60t-293 59t-239.5 161.5t-162 238.5t-59.5 292zM229 731q0 -127 49.5 -239.5t133.5 -196.5t197.5 -133t240.5 -49 t239.5 49t196.5 133t132 196.5t48 239.5t-49 239.5t-133 197.5t-195.5 134.5t-238.5 49.5q-256 -1 -438 -183t-183 -438zM451 307v70l114 26v668l-114 27v69h385q342 0 342 -237q0 -160 -177 -234l160 -295l99 -30v-64h-263l-190 373h-41v-277l113 -26v-70h-428zM766 766h33 q86 0 130 44t44 120q0 66 -44 106.5t-130 40.5h-33v-311z" />
<glyph unicode="&#xaf;" horiz-adv-x="940" d="M0 1264v170h940v-170h-940z" />
<glyph unicode="&#xb0;" horiz-adv-x="765" d="M70 1247q0 66 24.5 123t67.5 99t100 67t121 25q63 0 120.5 -25t100.5 -67t68.5 -99t25.5 -123t-24.5 -123t-67.5 -100t-100 -67.5t-123 -24.5q-131 0 -223 92q-90 94 -90 223zM231 1247q0 -63 45.5 -108t106.5 -45q63 0 108.5 45t45.5 108q0 61 -45.5 106.5t-108.5 45.5 q-61 0 -106.5 -45.5t-45.5 -106.5z" />
<glyph unicode="&#xb1;" horiz-adv-x="1138" d="M109 0v178h919v-178h-919zM109 641v176h360v381h176v-381h383v-176h-383v-381h-176v381h-360z" />
<glyph unicode="&#xb2;" horiz-adv-x="778" d="M90 584v86q35 33 99.5 106.5t146.5 213.5t82 245q0 63 -21.5 105t-64.5 42l-144 -163q-82 76 -90 174q117 61 279 61q115 0 189.5 -50t74.5 -153q0 -123 -92 -242.5t-238 -248.5h264l48 94h65l-35 -270h-563z" />
<glyph unicode="&#xb3;" horiz-adv-x="763" d="M70 614l26 82q88 -33 172 -32q86 0 140.5 45t54.5 112q0 82 -57.5 126t-149.5 44v78q72 12 117 60.5t45 117.5q0 57 -28 93t-66 44l-136 -137q-33 25 -57.5 70t-26.5 78q113 59 252 59q145 0 215 -54t70 -143q0 -80 -56.5 -138t-148.5 -75q250 -29 250 -227 q0 -123 -103.5 -187.5t-265.5 -64.5q-132 0 -247 49z" />
<glyph unicode="&#xb4;" horiz-adv-x="520" d="M160 1210l207 361q147 -25 241 -107l-325 -309z" />
<glyph unicode="&#xb6;" horiz-adv-x="1355" d="M74 1192q0 365 461 364h729v-108l-174 -41v-1636h-189v1626h-162v-1626h-188v1020h-21q-456 0 -456 401z" />
<glyph unicode="&#xb7;" horiz-adv-x="548" d="M92 614q0 72 54.5 126.5t129.5 54.5q74 0 127.5 -53.5t53.5 -127.5q0 -72 -53.5 -128t-127.5 -56q-76 0 -130 56t-54 128z" />
<glyph unicode="&#xb8;" horiz-adv-x="743" d="M123 -334q82 -16 102 -16q59 0 95 26.5t36 71.5q0 57 -34.5 82t-104.5 29l43 159h127l-20 -88q111 0 178 -52t67 -136q0 -111 -89 -172.5t-242 -61.5q-45 0 -158 23v135z" />
<glyph unicode="&#xb9;" horiz-adv-x="641" d="M80 1319l258 135h125v-786l104 -19v-65h-461v65l140 25v645l-146 -64z" />
<glyph unicode="&#xba;" horiz-adv-x="804" d="M76 1139q0 143 83 234t242 91q162 0 245 -91t83 -234q0 -147 -83 -239.5t-245 -92.5q-160 0 -242.5 92.5t-82.5 239.5zM291 1139q0 -246 110 -246q113 0 113 246q0 242 -113 241q-110 1 -110 -241z" />
<glyph unicode="&#xbb;" horiz-adv-x="1007" d="M137 203l90 350l-90 350h119l240 -321v-58l-240 -321h-119zM473 164l145 389l-145 389h133l314 -356v-66l-314 -356h-133z" />
<glyph unicode="&#xbc;" horiz-adv-x="1671" d="M84 1319l258 135h125v-786l104 -19v-65h-461v65l140 25v645l-146 -64zM450 0l732 1462h163l-729 -1462h-166zM920 176v69l463 625h106v-600h94v-94h-94v-174h-205v174h-364zM1082 280h202v269z" />
<glyph unicode="&#xbd;" horiz-adv-x="1812" d="M86 1319l258 135h125v-786l104 -19v-65h-461v65l140 25v645l-146 -64zM452 0l732 1462h163l-729 -1462h-166zM1130 2v86q35 33 99.5 106.5t146.5 213.5t82 245q0 63 -21.5 105t-64.5 42l-144 -163q-82 76 -90 174q117 61 279 61q115 0 189.5 -50t74.5 -153 q0 -123 -92 -242.5t-238 -248.5h264l48 94h65l-35 -270h-563z" />
<glyph unicode="&#xbe;" horiz-adv-x="1732" d="M82 614l26 82q88 -33 172 -32q86 0 140.5 45t54.5 112q0 82 -57.5 126t-149.5 44v78q72 12 117 60.5t45 117.5q0 57 -28 93t-66 44l-136 -137q-33 25 -57.5 70t-26.5 78q113 59 252 59q145 0 215 -54t70 -143q0 -80 -56.5 -138t-148.5 -75q250 -29 250 -227 q0 -123 -103.5 -187.5t-265.5 -64.5q-132 0 -247 49zM510 0l732 1462h163l-729 -1462h-166zM979 176v69l463 625h106v-600h94v-94h-94v-174h-205v174h-364zM1141 280h202v269z" />
<glyph unicode="&#xbf;" horiz-adv-x="993" d="M77 -90q0 152 96.5 264.5t303.5 265.5l30 191h123l31 -250q-96 -109 -141 -168t-83 -146t-38 -178q0 -94 56.5 -158.5t131.5 -64.5l242 232q88 -86 96 -240q-18 -10 -53 -26.5t-141.5 -44t-214.5 -27.5q-219 0 -329 92t-110 258zM395 879q0 68 51 122t123 54t124 -54 t52 -122q0 -70 -52 -122t-124 -52t-123 51t-51 123z" />
<glyph unicode="&#xc0;" horiz-adv-x="1499" d="M-20 0v115l200 47l490 1282h178l459 -1282l196 -47v-115h-694v115l145 35l-88 245h-430l-92 -239l172 -41v-115h-536zM422 1698q33 70 89 124t106 70l292 -262l-80 -98zM492 537h323l-160 436z" />
<glyph unicode="&#xc1;" horiz-adv-x="1499" d="M-20 0v115l200 47l490 1282h178l459 -1282l196 -47v-115h-694v115l145 35l-88 245h-430l-92 -239l172 -41v-115h-536zM492 537h323l-160 436zM585 1632l304 262q53 -16 110 -74.5t84 -119.5l-418 -166z" />
<glyph unicode="&#xc2;" horiz-adv-x="1499" d="M-20 0v115l200 47l490 1282h178l459 -1282l196 -47v-115h-694v115l145 35l-88 245h-430l-92 -239l172 -41v-115h-536zM391 1614l256 248h223l258 -248l-139 -49l-232 129l-229 -129zM492 537h323l-160 436z" />
<glyph unicode="&#xc3;" horiz-adv-x="1499" d="M-20 0v115l200 47l490 1282h178l459 -1282l196 -47v-115h-694v115l145 35l-88 245h-430l-92 -239l172 -41v-115h-536zM307 1683q63 82 139 127.5t154 45.5q66 0 153 -55.5t146 -55.5q82 0 195 90l76 -80q-37 -70 -120 -132t-184 -62q-66 0 -151.5 55t-144.5 55 q-47 0 -95.5 -25.5t-93.5 -50.5zM492 537h323l-160 436z" />
<glyph unicode="&#xc4;" horiz-adv-x="1499" d="M-20 0v115l200 47l490 1282h178l459 -1282l196 -47v-115h-694v115l145 35l-88 245h-430l-92 -239l172 -41v-115h-536zM371 1724q0 68 47 114t115 46q72 0 118 -46t46 -114q0 -72 -46 -118.5t-118 -46.5q-68 0 -115 46.5t-47 118.5zM492 537h323l-160 436zM822 1724 q0 68 47 114t114 46q72 0 118 -46t46 -114q0 -72 -46 -118.5t-118 -46.5q-68 0 -114.5 46.5t-46.5 118.5z" />
<glyph unicode="&#xc5;" horiz-adv-x="1499" d="M-20 0v115l200 47l486 1272l-9 4q-43 20 -75.5 54t-52 78t-19.5 95q0 49 19.5 94t52 78t78 52.5t94.5 19.5t94 -19.5t77.5 -52.5t52 -78t19.5 -94q0 -51 -19.5 -95t-52 -78t-75.5 -54l457 -1276l196 -47v-115h-694v115l145 35l-88 245h-430l-92 -239l172 -41v-115h-536z M492 537h323l-160 436zM666 1665q0 -35 26.5 -61.5t61.5 -26.5t61.5 26.5t26.5 61.5q0 33 -27 60.5t-61 27.5q-35 0 -61.5 -26.5t-26.5 -61.5z" />
<glyph unicode="&#xc6;" horiz-adv-x="2109" d="M-29 0v115l189 45l884 1274h930v-420h-114l-82 262h-400v-481l412 41v-203l-412 37v-512h404l139 284h115l-62 -442h-1118v115l188 45v305h-469l-208 -307l182 -43v-115h-578zM680 616h364v533z" />
<glyph unicode="&#xc7;" horiz-adv-x="1343" d="M88 717q0 358 191.5 552.5t560.5 194.5q98 0 212.5 -23.5t186.5 -56.5v-378h-115l-90 288q-70 12 -116 13q-256 0 -373 -142.5t-117 -447.5q0 -303 110.5 -446.5t344.5 -143.5q49 0 114 10l152 309h115l-54 -376q-72 -39 -183.5 -70t-221.5 -31q-66 0 -123 8l-10 -47 q111 0 178.5 -52t67.5 -136q0 -111 -89.5 -172.5t-242.5 -61.5q-45 0 -158 23v135q82 -16 102 -16q59 0 95.5 26.5t36.5 71.5q0 57 -35 82t-105 29l37 141q-172 45 -285 164q-186 197 -186 553z" />
<glyph unicode="&#xc8;" horiz-adv-x="1290" d="M68 0v115l188 45v1114l-188 45v115h1087v-420h-121l-82 262h-362v-475l381 35v-203l-381 31v-506h366l140 284h121l-62 -442h-1087zM389 1698q33 70 89 124t106 70l292 -262l-80 -98z" />
<glyph unicode="&#xc9;" horiz-adv-x="1290" d="M68 0v115l188 45v1114l-188 45v115h1087v-420h-121l-82 262h-362v-475l381 35v-203l-381 31v-506h366l140 284h121l-62 -442h-1087zM573 1632l304 262q53 -16 110 -74.5t84 -119.5l-418 -166z" />
<glyph unicode="&#xca;" horiz-adv-x="1290" d="M68 0v115l188 45v1114l-188 45v115h1087v-420h-121l-82 262h-362v-475l381 35v-203l-381 31v-506h366l140 284h121l-62 -442h-1087zM379 1614l256 248h223l258 -248l-139 -49l-232 129l-229 -129z" />
<glyph unicode="&#xcb;" horiz-adv-x="1290" d="M68 0v115l188 45v1114l-188 45v115h1087v-420h-121l-82 262h-362v-475l381 35v-203l-381 31v-506h366l140 284h121l-62 -442h-1087zM317 1724q0 68 47 114t115 46q72 0 118 -46t46 -114q0 -72 -46 -118.5t-118 -46.5q-68 0 -115 46.5t-47 118.5zM768 1724q0 68 47 114 t114 46q72 0 118 -46t46 -114q0 -72 -46 -118.5t-118 -46.5q-68 0 -114.5 46.5t-46.5 118.5z" />
<glyph unicode="&#xcc;" horiz-adv-x="845" d="M68 0v115l188 45v1114l-188 45v115h710v-115l-188 -45v-1114l188 -45v-115h-710zM131 1698q33 70 89 124t106 70l292 -262l-80 -98z" />
<glyph unicode="&#xcd;" horiz-adv-x="845" d="M68 0v115l188 45v1114l-188 45v115h710v-115l-188 -45v-1114l188 -45v-115h-710zM254 1632l304 262q53 -16 110 -74.5t84 -119.5l-418 -166z" />
<glyph unicode="&#xce;" horiz-adv-x="845" d="M60 1614l256 248h223l258 -248l-139 -49l-232 129l-229 -129zM68 0v115l188 45v1114l-188 45v115h710v-115l-188 -45v-1114l188 -45v-115h-710z" />
<glyph unicode="&#xcf;" horiz-adv-x="845" d="M41 1724q0 68 47 114t115 46q72 0 118 -46t46 -114q0 -72 -46 -118.5t-118 -46.5q-68 0 -115 46.5t-47 118.5zM68 0v115l188 45v1114l-188 45v115h710v-115l-188 -45v-1114l188 -45v-115h-710zM492 1724q0 68 47 114t114 46q72 0 118 -46t46 -114q0 -72 -46 -118.5 t-118 -46.5q-68 0 -114.5 46.5t-46.5 118.5z" />
<glyph unicode="&#xd0;" horiz-adv-x="1538" d="M68 0v115l188 45v481h-188v158h188v475l-188 45v115h614q373 0 570.5 -199t197.5 -518t-197.5 -518t-570.5 -199h-614zM590 158h61q231 0 345 149.5t114 409.5t-114.5 409.5t-344.5 149.5h-61v-477h334v-158h-334v-483z" />
<glyph unicode="&#xd1;" horiz-adv-x="1705" d="M68 0v115l188 45v1114l-188 45v115h352l878 -963v803l-188 45v115h547v-115l-189 -45v-1274h-198l-850 930v-770l188 -45v-115h-540zM434 1683q63 82 139 127.5t154 45.5q66 0 153 -55.5t146 -55.5q82 0 195 90l76 -80q-37 -70 -120 -132t-184 -62q-66 0 -151.5 55 t-144.5 55q-47 0 -95.5 -25.5t-93.5 -50.5z" />
<glyph unicode="&#xd2;" d="M86 717q0 332 183.5 539.5t523.5 207.5q336 0 521 -204.5t185 -542.5q0 -336 -185.5 -542t-520.5 -206q-336 0 -521.5 204t-185.5 544zM430 717q0 -289 91.5 -447.5t271.5 -158.5q178 0 270 158.5t92 447.5t-93 447.5t-269 158.5q-178 0 -270.5 -158.5t-92.5 -447.5z M455 1698q33 70 89 124t106 70l292 -262l-80 -98z" />
<glyph unicode="&#xd3;" d="M86 717q0 332 183.5 539.5t523.5 207.5q336 0 521 -204.5t185 -542.5q0 -336 -185.5 -542t-520.5 -206q-336 0 -521.5 204t-185.5 544zM430 717q0 -289 91.5 -447.5t271.5 -158.5q178 0 270 158.5t92 447.5t-93 447.5t-269 158.5q-178 0 -270.5 -158.5t-92.5 -447.5z M700 1632l304 262q53 -16 110 -74.5t84 -119.5l-418 -166z" />
<glyph unicode="&#xd4;" d="M86 717q0 332 183.5 539.5t523.5 207.5q336 0 521 -204.5t185 -542.5q0 -336 -185.5 -542t-520.5 -206q-336 0 -521.5 204t-185.5 544zM424 1614l256 248h223l258 -248l-139 -49l-232 129l-229 -129zM430 717q0 -289 91.5 -447.5t271.5 -158.5q178 0 270 158.5t92 447.5 t-93 447.5t-269 158.5q-178 0 -270.5 -158.5t-92.5 -447.5z" />
<glyph unicode="&#xd5;" d="M86 717q0 332 183.5 539.5t523.5 207.5q336 0 521 -204.5t185 -542.5q0 -336 -185.5 -542t-520.5 -206q-336 0 -521.5 204t-185.5 544zM340 1683q63 82 139 127.5t154 45.5q66 0 153 -55.5t146 -55.5q82 0 195 90l76 -80q-37 -70 -120 -132t-184 -62q-66 0 -151.5 55 t-144.5 55q-47 0 -95.5 -25.5t-93.5 -50.5zM430 717q0 -289 91.5 -447.5t271.5 -158.5q178 0 270 158.5t92 447.5t-93 447.5t-269 158.5q-178 0 -270.5 -158.5t-92.5 -447.5z" />
<glyph unicode="&#xd6;" d="M86 717q0 332 183.5 539.5t523.5 207.5q336 0 521 -204.5t185 -542.5q0 -336 -185.5 -542t-520.5 -206q-336 0 -521.5 204t-185.5 544zM403 1724q0 68 47 114t115 46q72 0 118 -46t46 -114q0 -72 -46 -118.5t-118 -46.5q-68 0 -115 46.5t-47 118.5zM430 717 q0 -289 91.5 -447.5t271.5 -158.5q178 0 270 158.5t92 447.5t-93 447.5t-269 158.5q-178 0 -270.5 -158.5t-92.5 -447.5zM854 1724q0 68 47 114t114 46q72 0 118 -46t46 -114q0 -72 -46 -118.5t-118 -46.5q-68 0 -114.5 46.5t-46.5 118.5z" />
<glyph unicode="&#xd7;" horiz-adv-x="1116" d="M102 1061l125 125l330 -330l330 330l125 -125l-330 -330l330 -332l-123 -123l-330 330l-330 -327l-125 124l328 328z" />
<glyph unicode="&#xd8;" d="M86 717q0 332 183.5 539.5t523.5 207.5q150 0 268 -41l47 90h145l-75 -143q76 -45 135 -110q186 -205 186 -543q0 -336 -185.5 -542t-520.5 -206q-182 0 -320 60l-57 -111h-150l92 176q-47 35 -88 78q-184 205 -184 545zM430 717q0 -231 57 -379l488 926q-76 59 -182 59 q-178 0 -270.5 -158.5t-92.5 -447.5zM567 205q87 -94 226 -94q178 0 270 158.5t92 447.5q0 281 -90 438z" />
<glyph unicode="&#xd9;" horiz-adv-x="1574" d="M10 1319v115h711v-115l-189 -45v-737q0 -393 326 -394q160 0 257 99.5t97 294.5v737l-188 45v115h545v-115l-189 -45v-737q0 -274 -164.5 -421t-416.5 -147q-262 0 -431 146.5t-169 421.5v737zM586 1698q33 70 89 124t106 70l292 -262l-80 -98z" />
<glyph unicode="&#xda;" horiz-adv-x="1574" d="M10 1319v115h711v-115l-189 -45v-737q0 -393 326 -394q160 0 257 99.5t97 294.5v737l-188 45v115h545v-115l-189 -45v-737q0 -274 -164.5 -421t-416.5 -147q-262 0 -431 146.5t-169 421.5v737zM708 1632l304 262q53 -16 110 -74.5t84 -119.5l-418 -166z" />
<glyph unicode="&#xdb;" horiz-adv-x="1574" d="M10 1319v115h711v-115l-189 -45v-737q0 -393 326 -394q160 0 257 99.5t97 294.5v737l-188 45v115h545v-115l-189 -45v-737q0 -274 -164.5 -421t-416.5 -147q-262 0 -431 146.5t-169 421.5v737zM514 1614l256 248h223l258 -248l-139 -49l-232 129l-229 -129z" />
<glyph unicode="&#xdc;" horiz-adv-x="1574" d="M10 1319v115h711v-115l-189 -45v-737q0 -393 326 -394q160 0 257 99.5t97 294.5v737l-188 45v115h545v-115l-189 -45v-737q0 -274 -164.5 -421t-416.5 -147q-262 0 -431 146.5t-169 421.5v737zM494 1724q0 68 47 114t115 46q72 0 118 -46t46 -114q0 -72 -46 -118.5 t-118 -46.5q-68 0 -115 46.5t-47 118.5zM945 1724q0 68 47 114t114 46q72 0 118 -46t46 -114q0 -72 -46 -118.5t-118 -46.5q-68 0 -114.5 46.5t-46.5 118.5z" />
<glyph unicode="&#xdd;" horiz-adv-x="1435" d="M-18 1319v115h671v-115l-133 -27l293 -430l262 416l-151 41v115h522v-115l-189 -45l-368 -586v-528l188 -45v-115h-710v115l188 45v530l-408 588zM628 1632l304 262q53 -16 110 -74.5t84 -119.5l-418 -166z" />
<glyph unicode="&#xde;" horiz-adv-x="1323" d="M68 0v115l188 45v1114l-188 45v115h710v-115l-188 -45v-146h119q272 0 420.5 -102t148.5 -309q0 -209 -148.5 -312.5t-420.5 -103.5h-119v-141l188 -45v-115h-710zM590 444h26q322 0 322 273q0 143 -83 202.5t-239 59.5h-26v-535z" />
<glyph unicode="&#xdf;" horiz-adv-x="1456" d="M31 0v109l174 41v952q0 217 141 335.5t383 118.5q252 0 382 -115.5t130 -338.5v-148h-231q-201 0 -201 -108q0 -57 63.5 -108.5t219.5 -108.5q178 -68 252.5 -147t74.5 -206q0 -145 -132 -226t-341 -81q-154 0 -307 47v293h115l86 -203q23 -4 34 -4q113 0 189 35t76 101 q0 29 -13.5 51t-46 41.5t-60.5 31t-167 64.5q-276 115 -277 338q0 131 97.5 215t255.5 104v50q0 158 -49.5 224t-149.5 66q-209 0 -209 -321v-1102h-489z" />
<glyph unicode="&#xe0;" horiz-adv-x="1171" d="M61 254q0 178 146.5 271t474.5 93v62q0 61 -1 89t-9 66.5t-23.5 55t-46.5 30t-76 13.5l-260 -225q-139 80 -139 247l61 27q39 16 152 44t219 28q440 0 440 -353v-548h160v-88q-10 -10 -28.5 -26.5t-80 -43.5t-126.5 -27q-156 0 -232 105q-137 -104 -299 -105 q-141 0 -236.5 72t-95.5 213zM252 1464q94 86 242 107l208 -354l-125 -62zM391 272q0 -59 40 -94t97 -35q92 0 154 68v281q-115 0 -203 -61t-88 -159z" />
<glyph unicode="&#xe1;" horiz-adv-x="1171" d="M61 254q0 178 146.5 271t474.5 93v62q0 61 -1 89t-9 66.5t-23.5 55t-46.5 30t-76 13.5l-260 -225q-139 80 -139 247l61 27q39 16 152 44t219 28q440 0 440 -353v-548h160v-88q-10 -10 -28.5 -26.5t-80 -43.5t-126.5 -27q-156 0 -232 105q-137 -104 -299 -105 q-141 0 -236.5 72t-95.5 213zM391 272q0 -59 40 -94t97 -35q92 0 154 68v281q-115 0 -203 -61t-88 -159zM512 1210l207 361q147 -25 241 -107l-325 -309z" />
<glyph unicode="&#xe2;" horiz-adv-x="1171" d="M61 254q0 178 146.5 271t474.5 93v62q0 61 -1 89t-9 66.5t-23.5 55t-46.5 30t-76 13.5l-260 -225q-139 80 -139 247l61 27q39 16 152 44t219 28q440 0 440 -353v-548h160v-88q-10 -10 -28.5 -26.5t-80 -43.5t-126.5 -27q-156 0 -232 105q-137 -104 -299 -105 q-141 0 -236.5 72t-95.5 213zM242 1200l235 369h223l240 -369l-139 -49l-211 256l-209 -256zM391 272q0 -59 40 -94t97 -35q92 0 154 68v281q-115 0 -203 -61t-88 -159z" />
<glyph unicode="&#xe3;" horiz-adv-x="1171" d="M61 254q0 178 146.5 271t474.5 93v62q0 61 -1 89t-9 66.5t-23.5 55t-46.5 30t-76 13.5l-260 -225q-139 80 -139 247l61 27q39 16 152 44t219 28q440 0 440 -353v-548h160v-88q-10 -10 -28.5 -26.5t-80 -43.5t-126.5 -27q-156 0 -232 105q-137 -104 -299 -105 q-141 0 -236.5 72t-95.5 213zM160 1358q63 82 139 127t154 45q66 0 153 -55.5t146 -55.5q82 0 195 90l75 -80q-37 -70 -119.5 -132t-183.5 -62q-66 0 -151.5 55t-145.5 55q-47 0 -95 -25.5t-93 -49.5zM391 272q0 -59 40 -94t97 -35q92 0 154 68v281q-115 0 -203 -61 t-88 -159z" />
<glyph unicode="&#xe4;" horiz-adv-x="1171" d="M61 254q0 178 146.5 271t474.5 93v62q0 61 -1 89t-9 66.5t-23.5 55t-46.5 30t-76 13.5l-260 -225q-139 80 -139 247l61 27q39 16 152 44t219 28q440 0 440 -353v-548h160v-88q-10 -10 -28.5 -26.5t-80 -43.5t-126.5 -27q-156 0 -232 105q-137 -104 -299 -105 q-141 0 -236.5 72t-95.5 213zM222 1411q0 68 47 114t114 46q72 0 118 -46t46 -114q0 -72 -46 -119t-118 -47q-68 0 -114.5 47t-46.5 119zM391 272q0 -59 40 -94t97 -35q92 0 154 68v281q-115 0 -203 -61t-88 -159zM631 1411q0 68 47 114t115 46q72 0 118 -46t46 -114 q0 -72 -46 -119t-118 -47q-68 0 -115 47t-47 119z" />
<glyph unicode="&#xe5;" horiz-adv-x="1171" d="M61 254q0 178 146.5 271t474.5 93v62q0 61 -1 89t-9 66.5t-23.5 55t-46.5 30t-76 13.5l-260 -225q-139 80 -139 247l61 27q39 16 152 44t219 28q440 0 440 -353v-548h160v-88q-10 -10 -28.5 -26.5t-80 -43.5t-126.5 -27q-156 0 -232 105q-137 -104 -299 -105 q-141 0 -236.5 72t-95.5 213zM346 1405q0 49 19.5 94t52 78t78 52.5t94.5 19.5t94 -19.5t77.5 -52.5t52 -78t19.5 -94q0 -51 -19.5 -95t-52 -78t-76.5 -53.5t-95 -19.5t-95.5 19.5t-77 53.5t-52 78t-19.5 95zM391 272q0 -59 40 -94t97 -35q92 0 154 68v281q-115 0 -203 -61 t-88 -159zM502 1405q0 -35 26.5 -61.5t61.5 -26.5t61.5 26.5t26.5 61.5q0 33 -27 60.5t-61 27.5q-35 0 -61.5 -26.5t-26.5 -61.5z" />
<glyph unicode="&#xe6;" horiz-adv-x="1724" d="M63 254q0 178 146.5 271t474.5 93v62q0 61 -1 89t-9 66.5t-23.5 55t-46.5 30t-76 13.5l-260 -225q-141 82 -141 247l61 27q39 16 153 44t220 28q221 0 328 -133q133 133 328 133q162 0 266 -82t144 -203t40 -276h-663q12 -162 104 -266.5t238 -104.5q109 0 235 47 l31 -117q-190 -84 -359 -84q-119 0 -241.5 48.5t-192.5 160.5q-80 -94 -191.5 -151.5t-232.5 -57.5q-141 0 -236.5 72t-95.5 213zM393 272q0 -59 40 -94t97 -35q92 0 154 68v281q-115 0 -203 -61t-88 -159zM1004 610l339 27q0 59 -3 99t-15 88t-42 73t-77 25 q-86 0 -144 -96.5t-58 -215.5z" />
<glyph unicode="&#xe7;" horiz-adv-x="1007" d="M70 516q0 238 156.5 388.5t369.5 150.5q178 0 350 -86q-6 -170 -149 -250l-176 203h-13q-86 -25 -151.5 -126.5t-65.5 -283.5q-2 -205 92 -307q88 -84 230 -84q59 0 115.5 10t115.5 29l25 -121q-166 -70 -340 -70q-49 0 -97 6l-10 -45q111 0 178.5 -52t67.5 -136 q0 -111 -89 -172.5t-243 -61.5q-45 0 -157 23v135q82 -16 102 -16q59 0 95 26.5t36 71.5q0 57 -35 82t-104 29l39 149q-96 35 -179 109q-164 147 -163 399z" />
<glyph unicode="&#xe8;" horiz-adv-x="1116" d="M72 524q0 242 136 386.5t370 144.5q238 0 359.5 -162t121.5 -399h-672q14 -152 108.5 -261.5t241.5 -109.5q111 0 238 47l43 -117q-190 -84 -373 -84q-264 0 -418.5 154.5t-154.5 400.5zM240 1464q94 86 242 107l208 -354l-125 -62zM387 621l346 22q0 49 -6 91t-35 102 q-51 86 -121 86q-82 0 -135 -84q-31 -51 -41 -112.5t-8 -104.5z" />
<glyph unicode="&#xe9;" horiz-adv-x="1116" d="M72 524q0 242 136 386.5t370 144.5q238 0 359.5 -162t121.5 -399h-672q14 -152 108.5 -261.5t241.5 -109.5q111 0 238 47l43 -117q-190 -84 -373 -84q-264 0 -418.5 154.5t-154.5 400.5zM387 621l346 22q0 49 -6 91t-35 102q-51 86 -121 86q-82 0 -135 -84 q-31 -51 -41 -112.5t-8 -104.5zM500 1210l207 361q147 -25 241 -107l-325 -309z" />
<glyph unicode="&#xea;" horiz-adv-x="1116" d="M72 524q0 242 136 386.5t370 144.5q238 0 359.5 -162t121.5 -399h-672q14 -152 108.5 -261.5t241.5 -109.5q111 0 238 47l43 -117q-190 -84 -373 -84q-264 0 -418.5 154.5t-154.5 400.5zM230 1200l235 369h223l240 -369l-139 -49l-211 256l-209 -256zM387 621l346 22 q0 49 -6 91t-35 102q-51 86 -121 86q-82 0 -135 -84q-31 -51 -41 -112.5t-8 -104.5z" />
<glyph unicode="&#xeb;" horiz-adv-x="1116" d="M72 524q0 242 136 386.5t370 144.5q238 0 359.5 -162t121.5 -399h-672q14 -152 108.5 -261.5t241.5 -109.5q111 0 238 47l43 -117q-190 -84 -373 -84q-264 0 -418.5 154.5t-154.5 400.5zM209 1411q0 68 47 114t114 46q72 0 118 -46t46 -114q0 -72 -46 -119t-118 -47 q-68 0 -114.5 47t-46.5 119zM387 621l346 22q0 49 -6 91t-35 102q-51 86 -121 86q-82 0 -135 -84q-31 -51 -41 -112.5t-8 -104.5zM618 1411q0 68 47 114t115 46q72 0 118 -46t46 -114q0 -72 -46 -119t-118 -47q-68 0 -115 47t-47 119z" />
<glyph unicode="&#xec;" horiz-adv-x="759" d="M61 0v109l175 41v688h-175v108l328 78h166v-874l174 -41v-109h-668zM68 1464q94 86 242 107l208 -354l-125 -62z" />
<glyph unicode="&#xed;" horiz-adv-x="759" d="M61 0v109l175 41v688h-175v108l328 78h166v-874l174 -41v-109h-668zM295 1210l207 361q147 -25 241 -107l-325 -309z" />
<glyph unicode="&#xee;" horiz-adv-x="759" d="M5 1200l235 369h223l240 -369l-139 -49l-211 256l-209 -256zM61 0v109l175 41v688h-175v108l328 78h166v-874l174 -41v-109h-668z" />
<glyph unicode="&#xef;" horiz-adv-x="759" d="M11 1411q0 68 47 114t114 46q72 0 118 -46t46 -114q0 -72 -46 -119t-118 -47q-68 0 -114.5 47t-46.5 119zM61 0v109l175 41v688h-175v108l328 78h166v-874l174 -41v-109h-668zM420 1411q0 68 47 114t115 46q72 0 118 -46t46 -114q0 -72 -46 -119t-118 -47q-68 0 -115 47 t-47 119z" />
<glyph unicode="&#xf0;" horiz-adv-x="1300" d="M76 492q0 211 133 349t344 138q68 0 147.5 -26.5t122.5 -61.5q-49 211 -186 336l-270 -166v160l147 90q-90 47 -209 65v174q217 -16 408 -118l237 145v-160l-110 -67q348 -264 348 -715q0 -305 -150.5 -486.5t-443.5 -181.5q-260 0 -389 138.5t-129 386.5zM403 483 q0 -164 55.5 -273.5t155.5 -109.5q229 0 230 461q0 18 -10 172q-78 82 -170 82q-127 0 -194 -75t-67 -257z" />
<glyph unicode="&#xf1;" horiz-adv-x="1394" d="M61 0v109l175 41v688h-175v108l328 78h162v-100q125 131 309 131q80 0 144.5 -23.5t108.5 -66.5t68.5 -102.5t24.5 -129.5v-583l174 -41v-109h-622v109l133 41v526q0 63 -7 102t-23.5 60.5t-44.5 28.5t-68 7q-78 0 -197 -90v-634l133 -41v-109h-623zM299 1358 q63 82 139 127t154 45q66 0 153 -55.5t146 -55.5q82 0 195 90l75 -80q-37 -70 -119.5 -132t-183.5 -62q-66 0 -151.5 55t-145.5 55q-47 0 -95 -25.5t-93 -49.5z" />
<glyph unicode="&#xf2;" horiz-adv-x="1239" d="M68 514q0 119 43 218t116.5 171t175 112t218.5 40t217 -40t174.5 -112t116.5 -171t42 -218q0 -117 -42 -217t-116.5 -173t-174.5 -114t-217 -41t-218.5 41t-175 113t-116.5 172t-43 219zM285 1464q94 86 242 107l208 -354l-125 -62zM397 514q0 -193 56.5 -302.5 t167.5 -109.5t167 110t56 302q0 190 -56.5 299t-166.5 109q-111 0 -167.5 -109t-56.5 -299z" />
<glyph unicode="&#xf3;" horiz-adv-x="1239" d="M68 514q0 119 43 218t116.5 171t175 112t218.5 40t217 -40t174.5 -112t116.5 -171t42 -218q0 -117 -42 -217t-116.5 -173t-174.5 -114t-217 -41t-218.5 41t-175 113t-116.5 172t-43 219zM397 514q0 -193 56.5 -302.5t167.5 -109.5t167 110t56 302q0 190 -56.5 299 t-166.5 109q-111 0 -167.5 -109t-56.5 -299zM545 1210l207 361q147 -25 241 -107l-325 -309z" />
<glyph unicode="&#xf4;" horiz-adv-x="1239" d="M68 514q0 119 43 218t116.5 171t175 112t218.5 40t217 -40t174.5 -112t116.5 -171t42 -218q0 -117 -42 -217t-116.5 -173t-174.5 -114t-217 -41t-218.5 41t-175 113t-116.5 172t-43 219zM275 1200l235 369h223l240 -369l-139 -49l-211 256l-209 -256zM397 514 q0 -193 56.5 -302.5t167.5 -109.5t167 110t56 302q0 190 -56.5 299t-166.5 109q-111 0 -167.5 -109t-56.5 -299z" />
<glyph unicode="&#xf5;" horiz-adv-x="1239" d="M68 514q0 119 43 218t116.5 171t175 112t218.5 40t217 -40t174.5 -112t116.5 -171t42 -218q0 -117 -42 -217t-116.5 -173t-174.5 -114t-217 -41t-218.5 41t-175 113t-116.5 172t-43 219zM192 1358q63 82 139 127t154 45q66 0 153 -55.5t146 -55.5q82 0 195 90l75 -80 q-37 -70 -119.5 -132t-183.5 -62q-66 0 -151.5 55t-145.5 55q-47 0 -95 -25.5t-93 -49.5zM397 514q0 -193 56.5 -302.5t167.5 -109.5t167 110t56 302q0 190 -56.5 299t-166.5 109q-111 0 -167.5 -109t-56.5 -299z" />
<glyph unicode="&#xf6;" horiz-adv-x="1239" d="M68 514q0 119 43 218t116.5 171t175 112t218.5 40t217 -40t174.5 -112t116.5 -171t42 -218q0 -117 -42 -217t-116.5 -173t-174.5 -114t-217 -41t-218.5 41t-175 113t-116.5 172t-43 219zM275 1411q0 68 47 114t114 46q72 0 118 -46t46 -114q0 -72 -46 -119t-118 -47 q-68 0 -114.5 47t-46.5 119zM397 514q0 -193 56.5 -302.5t167.5 -109.5t167 110t56 302q0 190 -56.5 299t-166.5 109q-111 0 -167.5 -109t-56.5 -299zM684 1411q0 68 47 114t115 46q72 0 118 -46t46 -114q0 -72 -46 -119t-118 -47q-68 0 -115 47t-47 119z" />
<glyph unicode="&#xf7;" horiz-adv-x="1112" d="M96 641v176h920v-176h-920zM420 383q0 57 41 97t96 40q57 0 97 -40t40 -97q0 -55 -40 -97t-97 -42q-55 0 -96 42t-41 97zM420 1077q0 57 41 98.5t96 41.5q57 0 97 -41t40 -99q0 -55 -40 -97t-97 -42q-55 0 -96 42t-41 97z" />
<glyph unicode="&#xf8;" horiz-adv-x="1239" d="M68 514q0 119 43 218t116.5 171t175 112t218.5 40q115 0 215 -39l82 149h131l-111 -202q39 -27 74 -60q76 -72 117.5 -171t41.5 -218q0 -117 -42 -217t-116.5 -173t-174.5 -114t-217 -41q-111 0 -207 35l-82 -149h-133l110 202q-45 29 -82 66q-74 72 -116.5 172 t-42.5 219zM397 514q0 -143 31 -240l324 590q-51 57 -131 58q-111 0 -167.5 -109t-56.5 -299zM494 152q51 -50 127 -50q111 0 167 110t56 302q0 133 -29 225z" />
<glyph unicode="&#xf9;" horiz-adv-x="1366" d="M18 915v109h490v-707q0 -104 25.5 -144t103.5 -40q59 0 122.5 31t102.5 82v628l-133 41v109h451v-870h159v-88q-45 -31 -72.5 -44.5t-61.5 -26.5t-69.5 -19.5t-66.5 -6.5q-147 0 -207 133q-145 -133 -356 -133q-313 0 -313 322v583zM316 1464q94 86 242 107l208 -354 l-125 -62z" />
<glyph unicode="&#xfa;" horiz-adv-x="1366" d="M18 915v109h490v-707q0 -104 25.5 -144t103.5 -40q59 0 122.5 31t102.5 82v628l-133 41v109h451v-870h159v-88q-45 -31 -72.5 -44.5t-61.5 -26.5t-69.5 -19.5t-66.5 -6.5q-147 0 -207 133q-145 -133 -356 -133q-313 0 -313 322v583zM576 1210l207 361q147 -25 241 -107 l-325 -309z" />
<glyph unicode="&#xfb;" horiz-adv-x="1366" d="M18 915v109h490v-707q0 -104 25.5 -144t103.5 -40q59 0 122.5 31t102.5 82v628l-133 41v109h451v-870h159v-88q-45 -31 -72.5 -44.5t-61.5 -26.5t-69.5 -19.5t-66.5 -6.5q-147 0 -207 133q-145 -133 -356 -133q-313 0 -313 322v583zM306 1200l235 369h223l240 -369 l-139 -49l-211 256l-209 -256z" />
<glyph unicode="&#xfc;" horiz-adv-x="1366" d="M18 915v109h490v-707q0 -104 25.5 -144t103.5 -40q59 0 122.5 31t102.5 82v628l-133 41v109h451v-870h159v-88q-45 -31 -72.5 -44.5t-61.5 -26.5t-69.5 -19.5t-66.5 -6.5q-147 0 -207 133q-145 -133 -356 -133q-313 0 -313 322v583zM285 1411q0 68 47 114t114 46 q72 0 118 -46t46 -114q0 -72 -46 -119t-118 -47q-68 0 -114.5 47t-46.5 119zM694 1411q0 68 47 114t115 46q72 0 118 -46t46 -114q0 -72 -46 -119t-118 -47q-68 0 -115 47t-47 119z" />
<glyph unicode="&#xfd;" horiz-adv-x="1255" d="M-10 915v109h633v-109l-136 -24l265 -526l192 512l-156 38v109h476v-109l-170 -47l-572 -1480h-37q-61 0 -115.5 26.5t-76.5 65.5l297 473l-447 919zM592 1210l207 361q147 -25 241 -107l-325 -309z" />
<glyph unicode="&#xfe;" horiz-adv-x="1214" d="M-29 -444l174 41v1857h-174v109l328 77h168v-657q104 72 248 72q184 0 305 -128t121 -378q0 -281 -158 -430.5t-414 -149.5q-61 0 -102 8v-380l215 -41v-109h-711v109zM467 111q33 -8 84 -9q250 0 250 439q0 340 -193 340q-70 0 -141 -33v-737z" />
<glyph unicode="&#xff;" horiz-adv-x="1255" d="M-10 915v109h633v-109l-136 -24l265 -526l192 512l-156 38v109h476v-109l-170 -47l-572 -1480h-37q-61 0 -115.5 26.5t-76.5 65.5l297 473l-447 919zM302 1411q0 68 47 114t114 46q72 0 118 -46t46 -114q0 -72 -46 -119t-118 -47q-68 0 -114.5 47t-46.5 119zM711 1411 q0 68 47 114t115 46q72 0 118 -46t46 -114q0 -72 -46 -119t-118 -47q-68 0 -115 47t-47 119z" />
<glyph unicode="&#x152;" horiz-adv-x="2230" d="M86 717q0 332 181.5 539.5t504.5 207.5q123 0 235.5 -53t188.5 -143v166h899v-420h-115l-77 262h-420v-481l428 41v-203l-428 37v-512h418l141 284h115l-62 -442h-899v164q-162 -195 -424 -195q-176 0 -311 58.5t-215 162t-120 236.5t-40 291zM430 717q0 -268 95.5 -437 t267.5 -169q186 0 305 166.5t119 418.5q0 283 -115 455t-309 172q-178 0 -270.5 -167t-92.5 -439z" />
<glyph unicode="&#x153;" horiz-adv-x="1878" d="M70 512q0 119 40 218t111.5 172t169.5 113t215 40q250 0 398 -195q133 195 376 195q113 0 195 -43t136 -119t80 -178.5t26 -220.5h-629q27 -371 321 -371q106 0 236 47l31 -117q-193 -84 -359 -84q-266 0 -407 203q-145 -203 -404 -203q-117 0 -215 40t-169.5 113 t-111.5 172t-40 218zM395 512q0 -410 211 -410q207 0 207 410t-207 410q-211 0 -211 -410zM1188 614l332 35q8 119 -29 196t-111 77q-167 -1 -192 -308z" />
<glyph unicode="&#x2c6;" horiz-adv-x="651" d="M-18 1200l235 369h223l240 -369l-139 -49l-211 256l-209 -256z" />
<glyph unicode="&#x2dc;" horiz-adv-x="999" d="M49 1354q63 82 139 127t154 45q66 0 153 -55.5t146 -55.5q82 0 195 90l75 -80q-37 -70 -119.5 -132t-183.5 -62q-66 0 -151.5 55t-145.5 55q-47 0 -95 -25.5t-93 -49.5z" />
<glyph unicode="&#x2000;" horiz-adv-x="954" />
<glyph unicode="&#x2001;" horiz-adv-x="1909" />
<glyph unicode="&#x2002;" horiz-adv-x="954" />
<glyph unicode="&#x2003;" horiz-adv-x="1909" />
<glyph unicode="&#x2004;" horiz-adv-x="636" />
<glyph unicode="&#x2005;" horiz-adv-x="477" />
<glyph unicode="&#x2006;" horiz-adv-x="318" />
<glyph unicode="&#x2007;" horiz-adv-x="318" />
<glyph unicode="&#x2008;" horiz-adv-x="238" />
<glyph unicode="&#x2009;" horiz-adv-x="381" />
<glyph unicode="&#x200a;" horiz-adv-x="106" />
<glyph unicode="&#x2010;" horiz-adv-x="686" d="M119 463v196h448v-196h-448z" />
<glyph unicode="&#x2011;" horiz-adv-x="686" d="M119 463v196h448v-196h-448z" />
<glyph unicode="&#x2012;" horiz-adv-x="686" d="M119 463v196h448v-196h-448z" />
<glyph unicode="&#x2013;" horiz-adv-x="1261" d="M109 473v172h1044v-172h-1044z" />
<glyph unicode="&#x2014;" horiz-adv-x="2285" d="M109 473v170h2068v-170h-2068z" />
<glyph unicode="&#x2018;" horiz-adv-x="534" d="M73 1077q0 119 99.5 250t208.5 200l96 -86q-121 -125 -191 -266l166 -104q0 -84 -56 -139.5t-132 -55.5q-92 0 -141.5 52.5t-49.5 148.5z" />
<glyph unicode="&#x2019;" horiz-adv-x="532" d="M76 945q121 125 191 266l-166 104q0 84 56 139.5t132 55.5q92 0 141.5 -52.5t49.5 -148.5q0 -119 -99.5 -250t-208.5 -200z" />
<glyph unicode="&#x201a;" horiz-adv-x="542" d="M51 -276q121 125 191 266l-166 104q0 84 56 139.5t132 55.5q92 0 141.5 -52.5t49.5 -148.5q0 -119 -99.5 -250t-208.5 -200z" />
<glyph unicode="&#x201c;" horiz-adv-x="954" d="M75 1081q0 119 99.5 250t208.5 200l96 -86q-121 -125 -191 -266l166 -104q0 -84 -56 -139.5t-132 -55.5q-92 0 -141.5 52.5t-49.5 148.5zM495 1081q0 119 99.5 250t208.5 200l96 -86q-121 -125 -191 -266l166 -104q0 -84 -56 -139.5t-132 -55.5q-92 0 -141.5 52.5 t-49.5 148.5z" />
<glyph unicode="&#x201d;" horiz-adv-x="952" d="M76 945q121 125 191 266l-166 104q0 84 56 139.5t132 55.5q92 0 141.5 -52.5t49.5 -148.5q0 -119 -99.5 -250t-208.5 -200zM495 945q121 125 191 266l-166 104q0 84 56 139.5t132 55.5q92 0 141.5 -52.5t49.5 -148.5q0 -119 -99.5 -250t-208.5 -200z" />
<glyph unicode="&#x201e;" horiz-adv-x="960" d="M51 -276q121 125 191 266l-166 104q0 84 56 139.5t132 55.5q92 0 141.5 -52.5t49.5 -148.5q0 -119 -99.5 -250t-208.5 -200zM471 -276q121 125 191 266l-166 104q0 84 56 139.5t132 55.5q92 0 141.5 -52.5t49.5 -148.5q0 -119 -99.5 -250t-208.5 -200z" />
<glyph unicode="&#x2022;" horiz-adv-x="888" d="M113 735q0 131 98 229.5t238 98.5q133 0 230 -96.5t97 -231.5q0 -131 -97 -233.5t-230 -102.5q-139 0 -237.5 102.5t-98.5 233.5z" />
<glyph unicode="&#x202f;" horiz-adv-x="381" />
<glyph unicode="&#x2039;" horiz-adv-x="645" d="M86 520v66l334 377l112 -41l-145 -369l145 -369l-112 -41z" />
<glyph unicode="&#x203a;" horiz-adv-x="645" d="M113 184l145 369l-145 369l112 41l334 -377v-66l-334 -377z" />
<glyph unicode="&#x205f;" horiz-adv-x="477" />
<glyph unicode="&#x20ac;" horiz-adv-x="1468" d="M88 481v117l129 6q-4 74 -4 113v55h-125v117l139 8q47 276 235.5 421.5t504.5 145.5q195 0 366 -80v-378h-116l-89 288q-68 12 -141 13q-186 0 -288.5 -94.5t-133.5 -297.5l516 31l-59 -174h-469v-55q0 -63 2 -94l422 24l-57 -166h-351q68 -354 383 -354q72 0 142 12 l149 307h115l-55 -376q-170 -100 -383 -101q-276 0 -452.5 131t-234.5 381h-145z" />
<glyph unicode="&#x25fc;" horiz-adv-x="1024" d="M0 0v1024h1024v-1024h-1024z" />
</font>
</defs>
</svg>
