<?xml version="1.0" standalone="no"?>
<!DOCTYPE svg PUBLIC "-//W3C//DTD SVG 1.1//EN" "http://www.w3.org/Graphics/SVG/1.1/DTD/svg11.dtd" >
<svg xmlns="http://www.w3.org/2000/svg">
<metadata></metadata>
<defs>
<font id="square_721_extendedbold" horiz-adv-x="2000" >
<font-face units-per-em="2048" ascent="1638" descent="-410" />
<missing-glyph horiz-adv-x="999" />
<glyph horiz-adv-x="2048" />
<glyph horiz-adv-x="2048" />
<glyph unicode="&#xd;" horiz-adv-x="2048" />
<glyph unicode=" "  horiz-adv-x="999" />
<glyph unicode="&#x09;" horiz-adv-x="999" />
<glyph unicode="&#xa0;" horiz-adv-x="999" />
<glyph unicode="!" horiz-adv-x="999" d="M289 0v422h422v-422h-422zM289 1116v373h422v-373l-21 -512h-387z" />
<glyph unicode="&#x22;" horiz-adv-x="712" d="M76 877v561h219v-561h-219zM416 877v561h223v-561h-223z" />
<glyph unicode="#" horiz-adv-x="1574" d="M23 381l86 231h270l82 230h-283l86 229h279l141 395h250l-139 -395h235l141 395h250l-139 -395h270l-86 -229h-268l-80 -230h277l-84 -231h-275l-141 -393h-250l139 393h-235l-141 -393h-250l139 393h-274zM625 610h245l82 232h-245z" />
<glyph unicode="$" d="M117 479v21h399q-2 -16 -2 -45q0 -80 37 -104.5t137 -24.5h199v290l-330 31q-124 11 -200 33t-129.5 67.5t-75 117.5t-21.5 186q0 129 29.5 213t96.5 133t162 68.5t240 19.5h228v168h215v-168h252q469 0 469 -412h-393v8q0 56 -40.5 76.5t-136.5 20.5h-151v-269l325 -28 q224 -20 328.5 -123t104.5 -301q0 -213 -88 -314q-41 -48 -91 -77.5t-117 -43.5t-129.5 -18t-160.5 -4h-172v-209h-215v209h-176q-206 0 -324 26t-182 99q-88 101 -88 354zM508 1061q0 -99 131 -111l248 -22v248h-189q-101 0 -145.5 -24t-44.5 -91zM1102 326h217 q149 0 149 129q0 67 -44 92t-152 35l-170 16v-272z" />
<glyph unicode="%" horiz-adv-x="2635" d="M133 909v271q0 170 67 248.5t220 78.5h409q149 0 216 -78t67 -249v-271q0 -164 -68.5 -241.5t-218.5 -77.5h-395q-158 0 -227.5 72t-69.5 247zM389 981q0 -98 35 -132t121 -34h151q88 0 124 36t36 130v129q0 101 -36 137.5t-124 36.5h-151q-90 0 -123 -39t-33 -135v-129z M975 -18l498 1525h190l-496 -1525h-192zM1524 301v268q0 170 66.5 249t219.5 79h410q149 0 216 -78.5t67 -249.5v-268q0 -164 -68.5 -241.5t-218.5 -77.5h-395q-158 0 -227.5 72t-69.5 247zM1780 371q0 -97 34.5 -130.5t120.5 -33.5h152q88 0 124 35.5t36 128.5v129 q0 101 -36 137.5t-124 36.5h-152q-90 0 -122.5 -39t-32.5 -135v-129z" />
<glyph unicode="&#x26;" horiz-adv-x="2134" d="M143 371v192q0 139 76.5 211t231.5 80q-75 44 -105.5 92t-30.5 123v166q0 48 6.5 85.5t23 66t35.5 48.5t53 33.5t66.5 21.5t84.5 12.5t98 5.5t117 1h428q105 0 178.5 -4.5t141.5 -16.5t110 -34t74.5 -57t46.5 -85.5t14 -119.5v-184h-381q0 7 1 20t1 19q0 86 -40.5 117.5 t-145.5 31.5h-383q-58 0 -88.5 -23t-30.5 -65q0 -59 57 -90l760 -397q17 66 17 114q0 25 -7 72h375v-244q0 -49 -24 -133l272 -151l-129 -285l-256 137q-40 -49 -89 -79.5t-115 -45t-127.5 -18.5t-160.5 -4h-516q-344 0 -491.5 85t-147.5 302zM551 453q0 -87 49.5 -117.5 t181.5 -30.5h650l-687 365q-35 18 -67 18q-59 0 -93 -36.5t-34 -100.5v-98z" />
<glyph unicode="'" horiz-adv-x="370" d="M76 877v561h219v-561h-219z" />
<glyph unicode="(" horiz-adv-x="978" d="M186 434v668q0 207 109.5 306t339.5 99h229v-368q-55 6 -96 6q-90 0 -125 -35.5t-35 -124.5v-502q0 -81 34.5 -111t127.5 -30q36 0 94 6v-368h-209q-242 0 -355.5 110t-113.5 344z" />
<glyph unicode=")" horiz-adv-x="978" d="M131 -20v368q59 -6 92 -6q93 0 127.5 30t34.5 111v502q0 88 -34.5 124t-123.5 36q-41 0 -96 -6v368h227q230 0 339.5 -99t109.5 -306v-668q0 -234 -112.5 -344t-354.5 -110h-209z" />
<glyph unicode="*" horiz-adv-x="1492" d="M274 928v229l299 -18v-193zM412 692l166 250l163 -96l-131 -266zM412 1395l198 112l131 -266l-163 -96zM750 846l165 96l164 -250l-196 -112zM750 1241l133 266l196 -112l-164 -250zM920 946v193l297 18v-229z" />
<glyph unicode="+" horiz-adv-x="1705" d="M254 496v231h481v494h238v-494h479v-231h-479v-496h-238v496h-481z" />
<glyph unicode="," horiz-adv-x="999" d="M219 -123h33q77 0 110 24t33 83v16h-110v420h432v-469q0 -170 -85.5 -245t-279.5 -75q-51 0 -133 7v239z" />
<glyph unicode="-" horiz-adv-x="1009" d="M160 344v381h674v-381h-674z" />
<glyph unicode="." horiz-adv-x="999" d="M289 0v422h422v-422h-422z" />
<glyph unicode="/" horiz-adv-x="745" d="M-168 -190l791 1697h227l-791 -1697h-227z" />
<glyph unicode="0" d="M150 528v406q0 179 30.5 291.5t104.5 177.5q71 63 182.5 83.5t302.5 20.5h459q194 0 304 -20t181 -84q135 -121 135 -451v-415q0 -330 -135 -451q-72 -64 -182.5 -84t-302.5 -20h-457q-192 0 -301 19.5t-184 84.5q-73 63 -105 170.5t-32 271.5zM596 629q0 -93 14 -150 t50.5 -91t90.5 -46t142 -12h215q90 0 144.5 12.5t90 47t49 92t13.5 151.5v225q0 96 -13 153t-49.5 91t-90 45.5t-144.5 11.5h-215q-91 0 -144 -11.5t-89.5 -46.5t-50 -94.5t-13.5 -158.5v-219z" />
<glyph unicode="1" d="M287 1085l651 404h504v-1489h-436v1120l-504 -346z" />
<glyph unicode="2" d="M145 1049q0 137 31 224.5t105 140t182 73t276 20.5h604q267 0 389.5 -84.5t122.5 -271.5v-246q0 -142 -93 -232.5t-263 -103.5l-797 -67q-70 -6 -101.5 -44t-31.5 -112v-8h1301v-338h-1723v524q0 122 97.5 205t265.5 96l700 58q116 10 165.5 33t49.5 77v76q0 98 -202 98 h-389q-142 0 -201.5 -42.5t-59.5 -155.5v-25h-423q-5 92 -5 105z" />
<glyph unicode="3" d="M125 438q0 31 4 101h420q-2 -18 -2 -52q0 -100 43.5 -131.5t165.5 -31.5h536q74 0 108 27.5t34 88.5q0 73 -41 104t-133 31h-447v340h463q57 0 88 30.5t31 88.5q0 74 -42.5 102.5t-142.5 28.5h-479q-96 0 -132 -33t-36 -128v-19h-420q-4 66 -4 96q0 232 130.5 329 t426.5 97h617q280 0 396 -69.5t116 -243.5v-174q0 -131 -49 -188.5t-185 -81.5q150 -22 211.5 -76t61.5 -170v-187q0 -172 -121 -253.5t-373 -81.5h-635q-185 0 -294 16t-179 65q-72 50 -104.5 141.5t-32.5 233.5z" />
<glyph unicode="4" d="M100 301v541l1039 647h518v-846h229v-342h-229v-301h-420v301h-1137zM465 643h772v485z" />
<glyph unicode="5" d="M156 385q0 49 2 76h415v-17q0 -71 55 -98t185 -27h451q100 0 143 32t43 110v90q0 63 -54 90t-167 27h-494q-62 0 -95 -16.5t-46 -59.5h-385v897h1608v-338h-1219v-240q54 55 139 75t224 20h409q262 0 387 -87.5t125 -277.5v-250q0 -224 -138.5 -316.5t-445.5 -92.5h-526 q-136 0 -232.5 11.5t-172 38.5t-120.5 73.5t-68 115t-23 164.5z" />
<glyph unicode="6" d="M160 451v583q0 114 25.5 194t77 135t141 86.5t205.5 44.5t282 13h401q275 0 403 -87.5t128 -280.5q0 -55 -4 -84h-398q-7 69 -55.5 98t-148.5 29h-396q-123 0 -176 -41.5t-53 -141.5v-165q46 62 130.5 87t227.5 25h328q301 0 436 -73t135 -257v-297q0 -171 -112 -254 t-340 -83h-670q-295 0 -431 111.5t-136 357.5zM588 463q0 -80 45.5 -110.5t154.5 -30.5h429q104 0 152 35t48 112q0 78 -46.5 108.5t-153.5 30.5h-429q-105 0 -152.5 -34t-47.5 -111z" />
<glyph unicode="7" d="M168 1114v375h1677v-350l-940 -1139h-524l915 1114h-1128z" />
<glyph unicode="8" d="M143 395q0 169 55 251.5t195 111.5q-130 19 -188 105t-58 255q0 120 25.5 195.5t87.5 118.5t150.5 59t230.5 16h729q142 0 230.5 -16t150.5 -59t87.5 -118.5t25.5 -195.5q0 -169 -57.5 -255t-186.5 -105q140 -29 195 -111.5t55 -251.5q0 -76 -10.5 -133.5t-30.5 -101.5 t-55 -74.5t-78.5 -51t-107.5 -32t-135 -16t-167 -4.5h-561q-183 0 -288 15.5t-173 65.5q-64 46 -92.5 126.5t-28.5 205.5zM575 463q0 -80 46 -110.5t155 -30.5h459q104 0 153.5 35t49.5 112q0 78 -47.5 109.5t-155.5 31.5h-459q-105 0 -153 -34t-48 -113zM582 1055 q0 -73 46.5 -102t153.5 -29h449q104 0 152.5 32t48.5 103q0 73 -47 101t-154 28h-449q-104 0 -152 -31t-48 -102z" />
<glyph unicode="9" d="M141 356q0 24 4 78h410q7 -68 56.5 -97.5t152.5 -29.5h428q124 0 176.5 39.5t52.5 140.5v166q-46 -62 -130.5 -87t-227.5 -25h-324q-302 0 -436.5 73t-134.5 258v295q0 340 453 340h665q295 0 432 -112.5t137 -358.5v-583q0 -95 -17 -166t-56.5 -124t-97 -87 t-144.5 -55.5t-192 -30t-248 -8.5h-412q-285 0 -416 88.5t-131 285.5zM596 1020q0 -79 47.5 -110t155.5 -31h426q105 0 152.5 34t47.5 113q0 80 -45.5 110.5t-154.5 30.5h-426q-104 0 -153.5 -35t-49.5 -112z" />
<glyph unicode=":" horiz-adv-x="999" d="M285 0v422h432v-422h-432zM285 631v422h432v-422h-432z" />
<glyph unicode=";" horiz-adv-x="999" d="M219 -123h33q77 0 110 24t33 83v16h-110v420h432v-469q0 -170 -85.5 -245t-279.5 -75q-51 0 -133 7v239zM285 631v422h432v-422h-432z" />
<glyph unicode="&#x3c;" horiz-adv-x="1705" d="M264 494v233l1178 487v-253l-854 -351l854 -348v-254z" />
<glyph unicode="=" horiz-adv-x="1705" d="M254 272v230h1198v-230h-1198zM254 719v231h1198v-231h-1198z" />
<glyph unicode="&#x3e;" horiz-adv-x="1705" d="M264 8v254l854 348l-854 351v253l1178 -487v-233z" />
<glyph unicode="?" horiz-adv-x="1650" d="M84 1110q0 92 22.5 158.5t67.5 112.5t120.5 73t173 39t232.5 12h328q284 0 407.5 -73t123.5 -248v-223q0 -121 -68.5 -199.5t-190.5 -97.5l-251 -39q-64 -11 -87.5 -30.5t-23.5 -70.5v-16h-381q-4 66 -4 94q0 132 46 202.5t149 90.5l309 57q66 12 95.5 40.5t29.5 82.5 q0 76 -58.5 104.5t-195.5 28.5h-226q-134 0 -183.5 -44t-49.5 -171v-28h-375q-10 66 -10 145zM543 0v391h411v-391h-411z" />
<glyph unicode="@" horiz-adv-x="2048" d="M82 520q0 342 209 598q148 182 359 277.5t468 95.5q173 0 323 -47t257 -131q270 -212 270 -549q0 -167 -65.5 -307t-190.5 -240q-142 -115 -330 -115q-212 0 -221 160q-57 -83 -127.5 -120.5t-167.5 -37.5q-163 0 -247 87.5t-84 257.5q0 161 66 291.5t178 203t247 72.5 q152 0 229 -123l52 92h206l-153 -610q-4 -24 -4 -33q0 -59 63 -59q89 0 168.5 65.5t127.5 176.5t48 237q0 237 -178.5 389t-468.5 152q-296 0 -504 -146q-155 -110 -239 -274.5t-84 -356.5q0 -302 203 -481.5t544 -179.5q336 0 596 186l97 -135q-309 -233 -693 -233 q-389 0 -643 194q-311 241 -311 643zM778 444q0 -84 35 -129t98 -45q83 0 147 58.5t89 158.5l51 209q-9 76 -50.5 116t-109.5 40q-102 0 -181 -121.5t-79 -286.5z" />
<glyph unicode="A" horiz-adv-x="2195" d="M4 0l813 1489h580l798 -1489h-499l-144 248h-907l-145 -248h-496zM817 606h572l-289 527z" />
<glyph unicode="B" horiz-adv-x="2152" d="M150 0v1489h1341q251 0 373.5 -102.5t122.5 -313.5q0 -120 -53.5 -196t-166.5 -119q141 -23 206 -109t65 -246q0 -214 -114 -308.5t-363 -94.5h-1411zM604 338h840q60 0 92.5 35.5t32.5 101.5q0 60 -34 95.5t-91 35.5h-840v-268zM604 909h799q57 0 87 31.5t30 91.5 q0 55 -32 89t-85 34h-799v-246z" />
<glyph unicode="C" horiz-adv-x="2150" d="M141 528v406q0 168 37.5 277.5t124.5 176t215.5 93t325.5 26.5h508q219 0 343.5 -18.5t200.5 -77.5q138 -106 138 -375q0 -55 -2 -84h-457v15q0 88 -58 128t-182 40h-364q-79 0 -130.5 -4t-95.5 -16t-68.5 -31t-42.5 -53t-24 -79t-6 -110v-207q0 -88 19 -142.5 t65.5 -85.5t112 -42t170.5 -11h264q81 0 134 4.5t98 16.5t69.5 35t37.5 59t13 90v16h461q4 -78 4 -108q0 -140 -35.5 -233.5t-113.5 -151.5q-79 -59 -208 -79.5t-343 -20.5h-508q-204 0 -323 20.5t-208 89.5q-92 72 -132 176.5t-40 259.5z" />
<glyph unicode="D" horiz-adv-x="2226" d="M154 0v1489h1306q336 0 493.5 -118t157.5 -382v-512q0 -248 -124 -362.5t-394 -114.5h-1439zM608 362h770q145 0 212 59t67 185v262q0 131 -82.5 192.5t-253.5 61.5h-713v-760z" />
<glyph unicode="E" horiz-adv-x="1904" d="M150 0v1489h1626v-363h-1172v-225h1104v-313h-1104v-228h1190v-360h-1644z" />
<glyph unicode="F" horiz-adv-x="1800" d="M150 0v1489h1626v-363h-1172v-266h1104v-360h-1104v-500h-454z" />
<glyph unicode="G" horiz-adv-x="2154" d="M125 528v406q0 168 37 277.5t124.5 176t215.5 93t325 26.5h508q219 0 345 -18.5t202 -77.5q137 -106 137 -375q0 -55 -2 -84h-456v4q0 41 -8 70t-28.5 49t-44.5 32t-67 18t-85.5 8t-108.5 2h-265q-78 0 -129.5 -4t-95.5 -16t-68 -31t-41.5 -53t-23.5 -78.5t-6 -110.5 v-207q0 -88 19 -142.5t65.5 -85.5t111.5 -42t170 -11h263q187 0 265.5 33t78.5 125q0 13 -4 45h-535v301h1008v-489q0 -90 -27.5 -156t-80.5 -110.5t-139 -71t-194.5 -38t-255.5 -11.5h-506q-204 0 -323.5 20.5t-208.5 89.5q-92 72 -132 176.5t-40 259.5z" />
<glyph unicode="H" horiz-adv-x="2150" d="M154 0v1489h454v-547h932v547h457v-1489h-457v582h-932v-582h-454z" />
<glyph unicode="I" horiz-adv-x="794" d="M170 0v1489h455v-1489h-455z" />
<glyph unicode="J" horiz-adv-x="1697" d="M45 449v196h426q0 -9 -1 -27t-1 -26q0 -137 45.5 -187.5t177.5 -50.5h205q118 0 155.5 46t37.5 165v924h454v-1069q0 -95 -32 -179t-87 -137q-72 -69 -184 -94.5t-293 -25.5h-317q-137 0 -232 14t-165.5 45.5t-110.5 86.5t-59 132t-19 187z" />
<glyph unicode="K" horiz-adv-x="2101" d="M160 0v1489h454v-553h191l596 553h604l-805 -735l911 -754h-632l-674 563h-191v-563h-454z" />
<glyph unicode="L" horiz-adv-x="1654" d="M182 0v1489h455v-1129h991v-360h-1446z" />
<glyph unicode="M" horiz-adv-x="2711" d="M154 0v1489h671l531 -930l540 930h662v-1489h-440v1061l-615 -1061h-297l-610 1061v-1061h-442z" />
<glyph unicode="N" horiz-adv-x="2310" d="M154 0v1489h673l887 -1092v1092h453v-1489h-666l-893 1083v-1083h-454z" />
<glyph unicode="O" horiz-adv-x="2252" d="M119 528v406q0 179 36.5 290.5t125.5 178.5q85 63 217.5 83.5t359.5 20.5h535q228 0 362 -20.5t217 -83.5q84 -64 122 -173.5t38 -277.5v-415q0 -169 -37.5 -277.5t-122.5 -173.5q-85 -64 -217.5 -84t-361.5 -20h-533q-229 0 -360 19.5t-219 84.5q-88 66 -125 171 t-37 271zM582 635q0 -89 21 -143.5t72.5 -85.5t122 -41.5t185.5 -10.5h289q92 0 153 6.5t111.5 24t78 50t42 82t14.5 122.5v211q0 73 -14.5 122.5t-42 82t-78 50t-111.5 24t-153 6.5h-291q-79 0 -132.5 -4t-101.5 -16t-76.5 -32t-50 -53t-30 -78.5t-8.5 -109.5v-207z" />
<glyph unicode="P" horiz-adv-x="1996" d="M156 0v1489h1142q277 0 396 -62q117 -61 166 -179.5t49 -317.5q0 -302 -101 -430.5t-346 -128.5h-850v-371h-456zM612 741h670q93 0 128.5 46t35.5 157q0 90 -38.5 132t-125.5 42h-670v-377z" />
<glyph unicode="Q" horiz-adv-x="2252" d="M127 524v406q0 179 36.5 289.5t125.5 177.5q84 63 217.5 83.5t359.5 20.5h535q228 0 361 -20.5t218 -83.5q87 -64 123.5 -172t36.5 -277v-330q0 -144 -18 -210l176 -107l-156 -293l-162 103q-69 -81 -198 -105t-381 -24h-533q-227 0 -359.5 20t-219.5 84 q-89 65 -125.5 168.5t-36.5 269.5zM590 631q0 -142 70.5 -210.5t220.5 -68.5h452q192 0 250 27q-29 9 -131 70l-338 200l162 256l293 -172q77 -46 133 -90q0 35 -1 79.5t-1 53.5v72q0 61 -9 105t-31 75.5t-51.5 51t-77 31t-101 15.5t-130.5 4h-311q-78 0 -132.5 -4t-102 -16 t-76.5 -32t-50 -53t-29.5 -78.5t-8.5 -108.5v-207z" />
<glyph unicode="R" horiz-adv-x="2103" d="M160 0v1489h1196q175 0 286.5 -21.5t186.5 -77.5t106 -149t31 -240q0 -188 -55.5 -284t-192.5 -129q236 -56 236 -283v-305h-455v227q0 92 -44 123t-161 31h-678v-381h-456zM616 754h723q93 0 128.5 44t35.5 152q0 87 -38.5 127.5t-125.5 40.5h-723v-364z" />
<glyph unicode="S" horiz-adv-x="2097" d="M127 377q0 27 6 119h449v-27q0 -89 44.5 -116t168.5 -27h571q83 0 119.5 28t36.5 95q0 77 -49 101.5t-170 27.5l-715 22q-134 4 -218 25t-139.5 72.5t-77.5 134t-22 212.5q0 124 24.5 208.5t80.5 140.5q75 72 190 93t322 21h694q256 0 370.5 -92.5t114.5 -306.5 q0 -24 -4 -82h-438v6q0 148 -150 148h-524q-117 0 -166 -22t-49 -95q0 -67 40.5 -93.5t137.5 -29.5l748 -18q257 -6 361 -114.5t104 -369.5q0 -147 -36 -235t-132 -150q-65 -42 -173.5 -56.5t-287.5 -14.5h-606q-145 0 -243 10t-175.5 35t-120.5 70.5t-64.5 113t-21.5 166.5 z" />
<glyph unicode="T" horiz-adv-x="1798" d="M49 1124v365h1700v-365h-623v-1124h-454v1124h-623z" />
<glyph unicode="U" horiz-adv-x="2150" d="M150 465v1024h454v-883q0 -67 12 -111t35.5 -73t69.5 -44t103 -20.5t147 -5.5h258q92 0 149 10t98 38t57.5 77.5t16.5 128.5v883h455v-1024q0 -138 -36 -231t-115.5 -149t-194.5 -79.5t-285 -23.5h-508q-163 0 -278 14.5t-201.5 47.5t-137 89.5t-75 137t-24.5 194.5z" />
<glyph unicode="V" horiz-adv-x="2144" d="M20 1489h496l559 -1069l594 1069h483l-794 -1489h-551z" />
<glyph unicode="W" horiz-adv-x="2680" d="M18 1489h453l307 -1059l381 1059h418l360 -1059l328 1059h453l-498 -1489h-512l-344 1026l-350 -1026h-520z" />
<glyph unicode="X" horiz-adv-x="2170" d="M8 0l733 756l-678 733h568l463 -522l467 522h548l-657 -733l715 -756h-586l-487 522l-494 -522h-592z" />
<glyph unicode="Y" horiz-adv-x="2103" d="M-6 1489h559l489 -592l512 592h539l-823 -954v-535h-455v535z" />
<glyph unicode="Z" horiz-adv-x="1900" d="M78 0v365l1061 763h-1022v361h1687v-361l-1054 -763h1079v-365h-1751z" />
<glyph unicode="[" horiz-adv-x="958" d="M188 0v1487h652v-348h-240v-789h240v-350h-652z" />
<glyph unicode="\" horiz-adv-x="745" d="M-106 1507h227l790 -1697h-227z" />
<glyph unicode="]" horiz-adv-x="958" d="M162 0v350h239v789h-239v348h651v-1487h-651z" />
<glyph unicode="^" horiz-adv-x="2048" d="M414 899l465 563h288l465 -563h-264l-344 342l-346 -342h-264z" />
<glyph unicode="_" horiz-adv-x="1024" d="M0 -244h1024v-239h-1024v239z" />
<glyph unicode="`" horiz-adv-x="1024" d="M63 1460h398l268 -284h-192z" />
<glyph unicode="a" horiz-adv-x="1548" d="M68 338q0 105 28 172t95 106t162.5 53.5t246.5 14.5q340 0 465 -90v113q0 56 -37.5 85t-109.5 29h-310q-57 0 -83.5 -19.5t-26.5 -60.5h-381v13q0 170 126.5 241.5t407.5 71.5h371q214 0 318 -85t104 -263v-719h-379v127q-59 -74 -180 -107.5t-312 -33.5 q-284 0 -394.5 74.5t-110.5 277.5zM453 346q0 -60 42 -80t146 -20h231q100 0 144.5 23.5t44.5 84.5q0 60 -42.5 80.5t-146.5 20.5h-231q-100 0 -144 -24t-44 -85z" />
<glyph unicode="b" horiz-adv-x="1658" d="M147 0v1489h379v-631q17 58 52.5 96t96 60t137.5 30.5t189 8.5q299 0 424 -84.5t125 -286.5v-348q0 -195 -127 -273.5t-428 -78.5q-238 0 -347.5 45t-121.5 161v-188h-379zM520 449q0 -97 55.5 -137t184.5 -40h172q128 0 183.5 39.5t55.5 139.5v131q0 97 -56 138.5 t-183 41.5h-172q-135 0 -187.5 -40.5t-52.5 -146.5v-126z" />
<glyph unicode="c" horiz-adv-x="1597" d="M109 373v286q0 153 47 240t156 127.5t300 40.5h359q261 0 383.5 -86t122.5 -274q0 -32 -7 -86h-358v6q0 84 -49.5 119.5t-159.5 35.5h-186q-130 0 -179 -41t-49 -151v-135q0 -100 52.5 -142.5t175.5 -42.5h166q133 0 182 33t49 139h377q2 -23 2 -65q0 -215 -119 -303 t-397 -88h-365q-265 0 -384 89t-119 298z" />
<glyph unicode="d" horiz-adv-x="1658" d="M109 334v348q0 203 124.5 287t423.5 84q112 0 189 -8.5t138 -30.5t96.5 -60t52.5 -96v631h378v-1489h-378v188q-12 -116 -121.5 -161t-347.5 -45q-300 0 -427.5 78.5t-127.5 273.5zM487 451q0 -100 56 -139.5t184 -39.5h172q129 0 184.5 40t55.5 137v126 q0 106 -52.5 146.5t-187.5 40.5h-172q-127 0 -183.5 -41.5t-56.5 -138.5v-131z" />
<glyph unicode="e" horiz-adv-x="1548" d="M109 373v286q0 197 125.5 302.5t361.5 105.5h354q238 0 363 -105t125 -303v-225h-951q0 -5 -1 -14.5t-1 -13.5q0 -91 53 -130.5t173 -39.5h159q45 0 70 1.5t52.5 7.5t42 18t26.5 33.5t18 53.5h357v-16q0 -188 -115 -268t-371 -80h-352q-240 0 -364.5 100t-124.5 287z M487 666h584v4q0 77 -49 107t-164 30h-156q-115 0 -165 -30.5t-50 -106.5v-4z" />
<glyph unicode="f" horiz-adv-x="948" d="M35 766v287h184v34q0 225 106 313.5t361 88.5h242v-262q-74 4 -101 4q-122 0 -175.5 -33t-53.5 -111q0 -22 2 -34h348v-287h-348v-766h-381v766h-184z" />
<glyph unicode="g" horiz-adv-x="1652" d="M125 -29h379q4 -50 48.5 -66t149.5 -16h216q117 0 169 52.5t52 171.5q0 15 -4 65q-34 -58 -128.5 -80t-269.5 -22q-136 0 -230 8.5t-170.5 30.5t-120 61t-66.5 98.5t-23 143.5v289q0 192 128.5 276t410.5 84q199 0 313 -41t156 -133v160h378v-1049q0 -172 -132.5 -266 t-379.5 -94h-350q-85 0 -147 3t-120 11.5t-97 23t-72 37.5t-51.5 56t-28.5 77.5t-10 102.5v16zM500 512q0 -91 53.5 -127.5t179.5 -36.5h168q126 0 180 36t54 130v121q0 90 -55 128t-179 38h-168q-132 0 -182.5 -37t-50.5 -135v-117z" />
<glyph unicode="h" horiz-adv-x="1652" d="M147 0v1489h379v-604q69 106 176.5 142t296.5 36q514 0 514 -383v-680h-378v530q0 68 -11 108t-44.5 69t-92 40t-156.5 11q-160 0 -232.5 -56.5t-72.5 -183.5v-518h-379z" />
<glyph unicode="i" horiz-adv-x="696" d="M160 0v1053h379v-1053h-379zM160 1180v309h379v-309h-379z" />
<glyph unicode="j" horiz-adv-x="700" d="M27 -80q6 -1 17 -2.5t20 -2.5t16 -1q49 0 70.5 27.5t21.5 87.5v1024h379v-1112q0 -170 -80 -233.5t-289 -63.5q-63 0 -155 10v266zM172 1180v309h379v-309h-379z" />
<glyph unicode="k" horiz-adv-x="1525" d="M156 0v1489h381v-776h90l327 340h498l-504 -492l574 -561h-480l-415 420h-90v-420h-381z" />
<glyph unicode="l" horiz-adv-x="696" d="M160 0v1489h379v-1489h-379z" />
<glyph unicode="m" horiz-adv-x="2492" d="M147 0v1047h379v-162q62 102 157 140t257 38q200 0 312.5 -57t148.5 -183q55 128 158.5 184t275.5 56q263 0 391.5 -94t128.5 -289v-680h-379v530q0 67 -9.5 106.5t-37.5 69t-80 41t-137 11.5q-141 0 -202.5 -56t-61.5 -184v-518h-379v530q0 67 -9.5 106.5t-38.5 69 t-81.5 41t-140.5 11.5q-143 0 -208 -56.5t-65 -183.5v-518h-379z" />
<glyph unicode="n" horiz-adv-x="1650" d="M147 0v1047h379v-162q69 106 176.5 142t296.5 36q514 0 514 -383v-680h-378v530q0 68 -11 108t-44.5 69t-92 40t-156.5 11q-165 0 -235 -57.5t-70 -192.5v-508h-379z" />
<glyph unicode="o" horiz-adv-x="1646" d="M109 373v286q0 223 117 315.5t407 92.5h381q280 0 402 -92t122 -303v-293q0 -217 -121.5 -305t-402.5 -88h-379q-277 0 -401.5 88t-124.5 299zM487 455q0 -101 58 -143t190 -42h178q132 0 189 41.5t57 145.5v139q0 102 -57 144t-189 42h-178q-139 0 -193.5 -41.5 t-54.5 -150.5v-135z" />
<glyph unicode="p" horiz-adv-x="1658" d="M147 -356v1409h379v-193q12 116 122 161.5t347 45.5q301 0 428 -78.5t127 -273.5v-348q0 -193 -131 -279t-418 -86q-114 0 -189.5 7.5t-137 28t-96.5 57.5t-52 95v-546h-379zM520 473q0 -105 52 -144.5t188 -39.5h172q128 0 183.5 40.5t55.5 137.5v131q0 100 -55.5 139 t-183.5 39h-172q-129 0 -184.5 -39.5t-55.5 -136.5v-127z" />
<glyph unicode="q" horiz-adv-x="1658" d="M109 367v348q0 195 127.5 273.5t427.5 78.5q237 0 347 -45.5t122 -161.5v193h378v-1409h-378v546q-17 -58 -52 -95t-97 -57.5t-137.5 -28t-189.5 -7.5q-287 0 -417.5 86t-130.5 279zM487 467q0 -97 56 -137.5t184 -40.5h172q136 0 188 39.5t52 144.5v127 q0 97 -55.5 136.5t-184.5 39.5h-172q-128 0 -184 -39t-56 -139v-131z" />
<glyph unicode="r" horiz-adv-x="1343" d="M160 0v1053h379v-197q58 115 148 164t237 49q219 0 311 -92t92 -313q0 -31 -4 -105h-334v16q0 92 -52 136.5t-159 44.5q-113 0 -176 -52t-63 -143v-561h-379z" />
<glyph unicode="s" horiz-adv-x="1593" d="M92 334h402v-4q0 -50 50 -72t156 -22h277q81 0 116 18t35 63q0 79 -155 82l-375 7q-135 2 -223.5 17t-154 50.5t-95 97.5t-29.5 156q0 187 121.5 263.5t392.5 76.5h430q206 0 305.5 -76t100.5 -235h-379q-27 61 -188 61h-265q-72 0 -104.5 -14.5t-32.5 -52.5 q0 -42 39 -55t139 -15l463 -6q202 -3 296.5 -83t94.5 -251q0 -200 -109 -277t-364 -77h-385q-124 0 -209 8.5t-155 30.5t-110 61.5t-62 100t-23 147.5z" />
<glyph unicode="t" horiz-adv-x="1345" d="M43 778v275h213v252h379v-252h592v-275h-592v-358q0 -81 32.5 -115.5t114.5 -34.5q91 0 127.5 33.5t36.5 118.5q0 15 -4 61h336q4 -33 4 -92q0 -217 -125.5 -311t-408.5 -94q-269 0 -380.5 81t-111.5 283v428h-213z" />
<glyph unicode="u" horiz-adv-x="1650" d="M135 379v674h379v-537q0 -65 10.5 -104t41.5 -68.5t87 -41t148 -11.5q180 0 251.5 53t71.5 195v514h379v-1053h-379v162q-69 -106 -176 -141t-297 -35q-264 0 -390 95.5t-126 297.5z" />
<glyph unicode="v" horiz-adv-x="1499" d="M12 1053h426l316 -738l327 738h420l-506 -1053h-477z" />
<glyph unicode="w" horiz-adv-x="2244" d="M16 1053h418l248 -746l274 746h340l265 -746l266 746h403l-409 -1053h-492l-207 584l-219 -584h-487z" />
<glyph unicode="x" horiz-adv-x="1497" d="M23 0l426 553l-412 500h502l202 -275l201 275h488l-390 -488l459 -565h-493l-258 348l-246 -348h-479z" />
<glyph unicode="y" horiz-adv-x="1452" d="M23 1053h417l293 -684l303 684h414l-526 -1135q-77 -170 -174 -227q-82 -47 -246 -47q-88 0 -172 8v250q46 -6 82 -6q91 0 141.5 37t69.5 118h-142z" />
<glyph unicode="z" horiz-adv-x="1296" d="M55 0v266l637 498h-600v289h1133v-291l-602 -475h622v-287h-1190z" />
<glyph unicode="{" horiz-adv-x="1024" d="M152 410v241q6 0 18 -1t18 -1q119 0 168.5 56t49.5 188v254q0 120 19.5 184t86.5 99q93 49 301 49q12 0 38.5 -1t41.5 -1v-242q-7 0 -21 1t-20 1q-102 0 -134 -37.5t-32 -144.5v-240q0 -135 -43.5 -197t-167.5 -88q125 -26 168 -86.5t43 -195.5v-242q0 -106 32 -143 t132 -37q7 0 21.5 1t21.5 1v-242q-15 0 -42 -1t-40 -1q-206 0 -299 49q-67 35 -86.5 98t-19.5 183v256q0 132 -49 187t-169 55q-5 0 -17.5 -1t-18.5 -1z" />
<glyph unicode="|" horiz-adv-x="1024" d="M393 -483v2048h240v-2048h-240z" />
<glyph unicode="}" horiz-adv-x="1024" d="M133 -172q9 0 23 -1t20 -1q101 0 132.5 37t31.5 143v242q0 134 43 195.5t168 86.5q-125 25 -168 87.5t-43 197.5v240q0 105 -31 143.5t-129 38.5q-7 0 -23 -1t-24 -1v242q15 0 41.5 1t38.5 1q206 0 301 -49q67 -35 87 -99t20 -184v-254q0 -133 49 -188.5t168 -55.5 q6 0 18 1t18 1v-241q-6 0 -18 1t-18 1q-119 0 -168 -55.5t-49 -186.5v-256q0 -120 -20 -184t-87 -99q-86 -47 -291 -47q-14 0 -44 1t-46 1v242z" />
<glyph unicode="~" horiz-adv-x="1705" d="M178 401v254q222 144 387 144q119 0 295 -58q12 -4 56.5 -19.5t63 -21t54 -15.5t65.5 -13.5t60 -3.5q163 0 371 151v-254q-199 -137 -377 -137q-90 0 -172 29q-5 2 -47 16.5t-50.5 17.5t-45 15t-49 15t-43.5 12t-48 11.5t-43.5 7t-48.5 6t-45 1.5q-88 0 -179.5 -39 t-203.5 -119z" />
<glyph unicode="&#xa1;" horiz-adv-x="999" d="M289 0v371l22 512h387l13 -512v-371h-422zM289 1067v422h422v-422h-422z" />
<glyph unicode="&#xa2;" d="M346 440v178q0 233 116.5 338t387.5 105h227l62 215h223l-64 -221q216 -11 316 -95.5t100 -257.5q0 -40 -6 -86h-358q0 140 -131 152l-138 -502h39q133 0 181.5 32.5t48.5 137.5h379q2 -23 2 -63q0 -215 -119.5 -303t-397.5 -88h-215l-69 -265h-232l74 267 q-129 16 -210 45.5t-130 85.5t-67.5 132t-18.5 193zM727 449q0 -161 129 -173l141 500h-41q-132 0 -180.5 -40t-48.5 -152v-135z" />
<glyph unicode="&#xa3;" d="M88 580v280h164v213q0 211 135.5 322.5t394.5 111.5h545q285 0 420 -116.5t135 -364.5v-6h-407v12q0 75 -37 105t-125 30h-486q-78 0 -110.5 -27.5t-32.5 -97.5v-182h641v-280h-641q-3 -151 -96 -240h1319v-340h-1792v344q66 0 101.5 26.5t35.5 71.5v138h-164z" />
<glyph unicode="&#xa4;" d="M66 520l47 146h176v157h-223l47 146h176q3 162 34 266.5t101 167.5q71 63 182.5 83.5t302.5 20.5h242q235 0 353 -14.5t192 -71.5q137 -106 137 -374v-37h-442q0 88 -58 128t-182 40h-119q-152 0 -215 -42t-78 -167h596l-47 -146h-553v-157h500l-47 -146h-449 q13 -123 77.5 -166t215.5 -43h131q124 0 182 40t58 128v15h442v-52q0 -268 -137 -374q-74 -57 -192 -71.5t-353 -14.5h-252q-192 0 -301 19.5t-184 84.5q-72 62 -104.5 168t-32.5 266h-223z" />
<glyph unicode="&#xa5;" horiz-adv-x="2029" d="M-23 1489h496l545 -660l561 660h469l-358 -416h321v-162h-461l-153 -176h614v-162h-754l-30 -38v-535h-426v535l-35 38h-746v162h607l-150 176h-457v162h316z" />
<glyph unicode="&#xa6;" horiz-adv-x="1024" d="M393 -350v758h240v-758h-240zM393 674v758h240v-758h-240z" />
<glyph unicode="&#xa7;" horiz-adv-x="1654" d="M162 735q0 98 55 160.5t156 77.5q-146 90 -146 256q0 157 107.5 217.5t343.5 60.5h385q177 0 253.5 -59t76.5 -203v-31h-306q-9 42 -35.5 60t-78.5 18h-299q-67 0 -96 -14t-29 -51t32 -49.5t130 -26.5l434 -64q178 -26 263 -96t85 -192q0 -206 -207 -230 q160 -109 160 -276q0 -91 -27 -151.5t-86 -95.5t-140 -49.5t-200 -14.5h-440q-180 0 -258 64t-78 218q0 22 4 72h305v-21q0 -53 26 -75.5t87 -22.5h381q90 0 90 72q0 35 -25 52t-84 26l-489 82q-191 32 -270.5 93t-79.5 193zM434 840q0 -56 37.5 -83.5t124.5 -41.5l575 -97 q58 43 58 93q0 49 -40 74.5t-136 43.5l-574 103q-45 -42 -45 -92z" />
<glyph unicode="&#xa8;" horiz-adv-x="1024" d="M109 1186v262h327v-262h-327zM588 1186v262h327v-262h-327z" />
<glyph unicode="&#xa9;" horiz-adv-x="1705" d="M106 737q0 148 57.5 285t164.5 246q214 217 524 217q313 0 532 -219q215 -215 215 -529t-213 -524q-110 -108 -248 -165.5t-286 -57.5t-283.5 57t-242.5 164t-163.5 242t-56.5 284zM242 737q0 -120 47 -231t135 -199q180 -180 430 -180q121 0 233.5 46.5t202.5 135.5 q174 171 174 428q0 256 -176 432q-181 181 -434 181q-254 0 -430 -179q-88 -90 -135 -201.5t-47 -232.5zM446 731q0 208 111.5 329.5t298.5 121.5q158 0 257.5 -80t107.5 -211h-213q-6 67 -47 104t-109 37q-81 0 -128.5 -76.5t-47.5 -216.5t47.5 -212t138.5 -72q66 0 106 40 t46 115h215q-6 -143 -107.5 -230t-263.5 -87q-190 0 -301 117.5t-111 320.5z" />
<glyph unicode="&#xaa;" horiz-adv-x="1161" d="M51 987q0 144 88 194t312 50q248 0 348 -64v78q0 82 -111 82h-231q-84 0 -84 -57h-285v10q0 119 95 169t306 50h277q161 0 239 -60t78 -184v-503h-284v88q-83 -99 -369 -99q-212 0 -295.5 52.5t-83.5 193.5zM340 993q0 -41 32 -55t109 -14h174q75 0 108.5 16t33.5 59 q0 42 -32 56t-110 14h-174q-75 0 -108 -16.5t-33 -59.5z" />
<glyph unicode="&#xab;" horiz-adv-x="1189" d="M80 530l235 322h312l-236 -322l236 -313h-312zM563 530l234 322h311l-234 -322l234 -313h-311z" />
<glyph unicode="&#xac;" horiz-adv-x="1705" d="M254 639v227h1198v-501h-229v274h-969z" />
<glyph unicode="&#xad;" horiz-adv-x="1009" d="M160 344v381h674v-381h-674z" />
<glyph unicode="&#xae;" horiz-adv-x="1705" d="M106 737q0 150 59 289.5t169 247.5q214 211 518 211q156 0 294 -57.5t245 -167.5q102 -103 155 -238t53 -285q0 -155 -57 -291t-164 -239q-110 -106 -245.5 -161.5t-280.5 -55.5q-151 0 -287 58.5t-243 168.5q-105 108 -160.5 241t-55.5 279zM244 737q0 -247 174 -424 q88 -91 199.5 -138.5t234.5 -47.5q121 0 232 45t200 131q180 174 180 434q0 253 -172 428q-182 185 -438 185q-251 0 -426 -172q-90 -90 -137 -203.5t-47 -237.5zM537 344v819h329q176 0 265.5 -60.5t89.5 -176.5q0 -80 -45.5 -138t-128.5 -83l182 -361h-248l-154 326h-65 v-326h-225zM762 803h80q147 0 147 106q0 59 -38.5 86t-121.5 27h-67v-219z" />
<glyph unicode="&#xaf;" horiz-adv-x="1024" d="M109 1235v164h806v-164h-806z" />
<glyph unicode="&#xb0;" horiz-adv-x="673" d="M27 1155q0 131 90.5 221t220.5 90q128 0 219.5 -90.5t91.5 -220.5q0 -128 -91.5 -219.5t-221.5 -91.5q-129 0 -219 90.5t-90 220.5zM172 1157q0 -69 48 -117.5t118 -48.5q68 0 116 49t48 117t-47.5 116t-116.5 48q-68 0 -117 -48t-49 -116z" />
<glyph unicode="&#xb1;" horiz-adv-x="1705" d="M254 -18v231h1198v-231h-1198zM254 690v232h481v319h238v-319h479v-232h-479v-319h-238v319h-481z" />
<glyph unicode="&#xb2;" horiz-adv-x="1320" d="M96 1225q0 160 86.5 218t304.5 58h400q175 0 256.5 -51.5t81.5 -163.5v-147q0 -85 -61.5 -139.5t-174.5 -61.5l-526 -41q-88 -6 -88 -94v-4h860v-203h-1137v315q0 72 64 122t174 59l463 34q75 5 108 19t33 47v45q0 59 -133 59h-256q-95 0 -133.5 -25t-38.5 -93v-15h-281 q0 10 -1 31.5t-1 30.5z" />
<glyph unicode="&#xb3;" horiz-adv-x="1320" d="M82 858q0 22 4 62h276q-2 -12 -2 -31q0 -60 29.5 -79t110.5 -19h352q50 0 72 16t22 53q0 44 -27 63t-88 19h-294v203h305q78 0 78 72q0 43 -27.5 60t-93.5 17h-316q-64 0 -87 -19t-23 -77v-10h-279q0 9 -1 28.5t-1 28.5q0 139 86 197.5t281 58.5h407q185 0 261.5 -42 t76.5 -146v-105q0 -79 -31.5 -113.5t-121.5 -47.5q98 -14 139 -47t41 -101v-113q0 -103 -80 -151.5t-246 -48.5h-420q-122 0 -194 9.5t-119 39.5q-90 56 -90 223z" />
<glyph unicode="&#xb4;" horiz-adv-x="1024" d="M295 1176l268 284h398l-474 -284h-192z" />
<glyph unicode="&#xb5;" horiz-adv-x="1314" d="M-45 -428l238 1518h358l-80 -529q-12 -82 -12 -143q0 -170 143 -170q89 0 139 70t74 219l88 553h357l-175 -1090h-321l18 125q-40 -74 -89.5 -107.5t-119.5 -33.5q-123 0 -184 120l-82 -532h-352z" />
<glyph unicode="&#xb6;" horiz-adv-x="1024" d="M29 1130q0 156 105 252.5t284 96.5h579v-123h-106v-1356h-174v1356h-152v-1356h-174v784q-166 6 -264 101.5t-98 244.5z" />
<glyph unicode="&#xb7;" horiz-adv-x="999" d="M270 750q0 95 67 161t163 66q95 0 162 -66.5t67 -160.5q0 -97 -67 -164.5t-162 -67.5t-162.5 67.5t-67.5 164.5z" />
<glyph unicode="&#xb8;" horiz-adv-x="1024" d="M242 -324h333q39 0 39 41q0 23 -9.5 32t-33.5 9h-135q-32 0 -42.5 17.5t-10.5 58.5v166h129v-109h168q66 0 92.5 -34t26.5 -115v-53q0 -83 -26.5 -116.5t-94.5 -33.5h-436v137z" />
<glyph unicode="&#xb9;" horiz-adv-x="1320" d="M190 1247l431 242h331v-893h-288v672l-332 -207z" />
<glyph unicode="&#xba;" horiz-adv-x="1234" d="M82 1012v200q0 157 87.5 222t305.5 65h285q210 0 301.5 -64.5t91.5 -211.5v-207q0 -151 -91.5 -213t-301.5 -62h-283q-208 0 -301.5 61.5t-93.5 209.5zM367 1069q0 -71 43 -100t141 -29h135q98 0 141 29.5t43 101.5v98q0 71 -43 100t-141 29h-135q-104 0 -144 -28.5 t-40 -104.5v-96z" />
<glyph unicode="&#xbb;" horiz-adv-x="1189" d="M80 217l235 313l-235 322h311l236 -322l-236 -313h-311zM563 217l234 313l-234 322h311l234 -322l-234 -313h-311z" />
<glyph unicode="&#xbc;" horiz-adv-x="2863" d="M180 1264l412 225h317v-834h-274v627l-318 -192zM918 -18l829 1525h195l-830 -1525h-194zM1665 168v303l653 363h328v-474h143v-192h-143v-168h-264v168h-717zM1894 360h488v273z" />
<glyph unicode="&#xbd;" horiz-adv-x="2863" d="M180 1264l412 225h317v-834h-274v627l-318 -192zM918 -18l829 1525h195l-830 -1525h-194zM1694 0v293q0 69 61.5 116t167.5 54l440 31q74 6 105 19t31 44v41q0 55 -127 55h-246q-89 0 -126.5 -23.5t-37.5 -86.5v-15h-266q-2 20 -2 60q0 149 81.5 202.5t290.5 53.5h381 q168 0 246 -47.5t78 -151.5v-137q0 -79 -59 -130.5t-166 -58.5l-502 -38q-44 -3 -64 -23.5t-20 -62.5v-7h819v-188h-1085z" />
<glyph unicode="&#xbe;" horiz-adv-x="2863" d="M78 901q0 19 4 55h264q-2 -10 -2 -28q0 -56 27.5 -74t103.5 -18h340q46 0 67 15.5t21 49.5q0 41 -25.5 58.5t-84.5 17.5h-281v190h291q37 0 56.5 18t19.5 50q0 41 -26.5 57.5t-90.5 16.5h-301q-61 0 -84 -19t-23 -73v-11h-264q-2 18 -2 56q0 129 81.5 183t268.5 54h389 q176 0 249 -39t73 -137v-96q0 -73 -30 -106t-115 -46q93 -12 131.5 -42.5t38.5 -94.5v-104q0 -97 -76.5 -143t-235.5 -46h-399q-116 0 -184.5 9t-112.5 36q-88 54 -88 211zM920 -18l829 1525h195l-830 -1525h-194zM1667 168v303l653 363h328v-474h143v-192h-143v-168h-264 v168h-717zM1896 360h488v273z" />
<glyph unicode="&#xbf;" horiz-adv-x="1650" d="M92 301v223q0 121 68 198.5t190 96.5l252 39q65 9 88 29.5t23 70.5v17h381q4 -66 4 -94q0 -132 -46 -201.5t-149 -89.5l-307 -58q-67 -12 -96 -40t-29 -82q0 -76 58 -105t194 -29h225q134 0 184 44.5t50 171.5v28h374q11 -73 11 -145q0 -115 -34 -191t-111 -122.5 t-190 -65.5t-282 -19h-327q-284 0 -407.5 74t-123.5 250zM696 1094v391h412v-391h-412z" />
<glyph unicode="&#xc0;" horiz-adv-x="2195" d="M4 0l813 1489h580l798 -1489h-499l-144 248h-907l-145 -248h-496zM649 1901h398l268 -285h-193zM817 606h572l-289 527z" />
<glyph unicode="&#xc1;" horiz-adv-x="2195" d="M4 0l813 1489h580l798 -1489h-499l-144 248h-907l-145 -248h-496zM817 606h572l-289 527zM881 1616l268 285h397l-473 -285h-192z" />
<glyph unicode="&#xc2;" horiz-adv-x="2195" d="M4 0l813 1489h580l798 -1489h-499l-144 248h-907l-145 -248h-496zM670 1616l268 285h319l269 -285h-193l-235 149l-236 -149h-192zM817 606h572l-289 527z" />
<glyph unicode="&#xc3;" horiz-adv-x="2195" d="M4 0l813 1489h580l798 -1489h-499l-144 248h-907l-145 -248h-496zM664 1626q64 234 276 234q34 0 94 -11l172 -32q40 -7 72 -7q92 0 117 76h137q-26 -114 -101.5 -175.5t-185.5 -61.5q-43 0 -82 8l-184 37q-18 4 -53 4q-100 0 -125 -72h-137zM817 606h572l-289 527z" />
<glyph unicode="&#xc4;" horiz-adv-x="2195" d="M4 0l813 1489h580l798 -1489h-499l-144 248h-907l-145 -248h-496zM694 1626v262h328v-262h-328zM817 606h572l-289 527zM1174 1626v262h327v-262h-327z" />
<glyph unicode="&#xc5;" horiz-adv-x="2195" d="M4 0l813 1481h580l798 -1481h-499l-144 248h-907l-145 -248h-496zM760 1761q0 100 90 155.5t258 55.5q169 0 258.5 -54.5t89.5 -156.5t-89.5 -156.5t-258.5 -54.5q-167 0 -257.5 56t-90.5 155zM817 606h572l-289 551zM969 1761q0 -110 139 -110t139 110q0 111 -139 111 t-139 -111z" />
<glyph unicode="&#xc6;" horiz-adv-x="2697" d="M-66 0l965 1489h1655v-363h-866v-225h839v-313h-839v-228h866v-360h-1288v289h-635l-193 -289h-504zM831 588h435v581h-74z" />
<glyph unicode="&#xc7;" horiz-adv-x="2150" d="M141 528v406q0 168 37.5 277.5t124.5 176t215.5 93t325.5 26.5h508q219 0 343.5 -18.5t200.5 -77.5q138 -106 138 -375q0 -55 -2 -84h-457v15q0 88 -58 128t-182 40h-364q-79 0 -130.5 -4t-95.5 -16t-68.5 -31t-42.5 -53t-24 -79t-6 -110v-207q0 -88 19 -142.5 t65.5 -85.5t112 -42t170.5 -11h264q81 0 134 4.5t98 16.5t69.5 35t37.5 59t13 90v16h461q4 -78 4 -108q0 -140 -35.5 -233.5t-113.5 -151.5q-79 -59 -208 -79.5t-343 -20.5h-508q-204 0 -323 20.5t-208 89.5q-92 72 -132 176.5t-40 259.5zM817 -324h334q39 0 39 41 q0 23 -9.5 32t-33.5 9h-135q-32 0 -43 17.5t-11 58.5v166h129v-109h168q66 0 92.5 -34t26.5 -115v-53q0 -83 -26.5 -116.5t-94.5 -33.5h-436v137z" />
<glyph unicode="&#xc8;" horiz-adv-x="1904" d="M150 0v1489h1626v-363h-1172v-225h1104v-313h-1104v-228h1190v-360h-1644zM516 1901h397l269 -285h-193z" />
<glyph unicode="&#xc9;" horiz-adv-x="1904" d="M150 0v1489h1626v-363h-1172v-225h1104v-313h-1104v-228h1190v-360h-1644zM748 1616l268 285h397l-473 -285h-192z" />
<glyph unicode="&#xca;" horiz-adv-x="1904" d="M150 0v1489h1626v-363h-1172v-225h1104v-313h-1104v-228h1190v-360h-1644zM537 1616l268 285h319l269 -285h-193l-235 149l-236 -149h-192z" />
<glyph unicode="&#xcb;" horiz-adv-x="1904" d="M150 0v1489h1626v-363h-1172v-225h1104v-313h-1104v-228h1190v-360h-1644zM561 1626v262h328v-262h-328zM1040 1626v262h328v-262h-328z" />
<glyph unicode="&#xcc;" horiz-adv-x="794" d="M-51 1901h397l268 -285h-192zM170 0v1489h455v-1489h-455z" />
<glyph unicode="&#xcd;" horiz-adv-x="794" d="M170 0v1489h455v-1489h-455zM180 1616l269 285h397l-473 -285h-193z" />
<glyph unicode="&#xce;" horiz-adv-x="794" d="M-31 1616l269 285h319l268 -285h-192l-236 149l-235 -149h-193zM170 0v1489h455v-1489h-455z" />
<glyph unicode="&#xcf;" horiz-adv-x="794" d="M-6 1626v262h328v-262h-328zM170 0v1489h455v-1489h-455zM473 1626v262h328v-262h-328z" />
<glyph unicode="&#xd0;" horiz-adv-x="2267" d="M0 627v237h190v625h1307q336 0 493.5 -118t157.5 -382v-512q0 -248 -124 -362.5t-394 -114.5h-1440v627h-190zM645 362h770q144 0 210.5 59t66.5 185v262q0 131 -82.5 192.5t-253.5 61.5h-711v-258h492v-237h-492v-265z" />
<glyph unicode="&#xd1;" horiz-adv-x="2310" d="M154 0v1489h673l887 -1092v1092h453v-1489h-666l-893 1083v-1083h-454zM791 1626q65 234 276 234q33 0 94 -11l172 -32q40 -7 72 -7q92 0 117 76h137q-26 -114 -101.5 -175.5t-185.5 -61.5q-43 0 -82 8l-184 37q-18 4 -53 4q-100 0 -125 -72h-137z" />
<glyph unicode="&#xd2;" horiz-adv-x="2252" d="M119 528v406q0 179 36.5 290.5t125.5 178.5q85 63 217.5 83.5t359.5 20.5h535q228 0 362 -20.5t217 -83.5q84 -64 122 -173.5t38 -277.5v-415q0 -169 -37.5 -277.5t-122.5 -173.5q-85 -64 -217.5 -84t-361.5 -20h-533q-229 0 -360 19.5t-219 84.5q-88 66 -125 171 t-37 271zM582 635q0 -89 21 -143.5t72.5 -85.5t122 -41.5t185.5 -10.5h289q92 0 153 6.5t111.5 24t78 50t42 82t14.5 122.5v211q0 73 -14.5 122.5t-42 82t-78 50t-111.5 24t-153 6.5h-291q-79 0 -132.5 -4t-101.5 -16t-76.5 -32t-50 -53t-30 -78.5t-8.5 -109.5v-207z M678 1901h397l268 -285h-192z" />
<glyph unicode="&#xd3;" horiz-adv-x="2252" d="M119 528v406q0 179 36.5 290.5t125.5 178.5q85 63 217.5 83.5t359.5 20.5h535q228 0 362 -20.5t217 -83.5q84 -64 122 -173.5t38 -277.5v-415q0 -169 -37.5 -277.5t-122.5 -173.5q-85 -64 -217.5 -84t-361.5 -20h-533q-229 0 -360 19.5t-219 84.5q-88 66 -125 171 t-37 271zM582 635q0 -89 21 -143.5t72.5 -85.5t122 -41.5t185.5 -10.5h289q92 0 153 6.5t111.5 24t78 50t42 82t14.5 122.5v211q0 73 -14.5 122.5t-42 82t-78 50t-111.5 24t-153 6.5h-291q-79 0 -132.5 -4t-101.5 -16t-76.5 -32t-50 -53t-30 -78.5t-8.5 -109.5v-207z M909 1616l269 285h397l-473 -285h-193z" />
<glyph unicode="&#xd4;" horiz-adv-x="2252" d="M119 528v406q0 179 36.5 290.5t125.5 178.5q85 63 217.5 83.5t359.5 20.5h535q228 0 362 -20.5t217 -83.5q84 -64 122 -173.5t38 -277.5v-415q0 -169 -37.5 -277.5t-122.5 -173.5q-85 -64 -217.5 -84t-361.5 -20h-533q-229 0 -360 19.5t-219 84.5q-88 66 -125 171 t-37 271zM582 635q0 -89 21 -143.5t72.5 -85.5t122 -41.5t185.5 -10.5h289q92 0 153 6.5t111.5 24t78 50t42 82t14.5 122.5v211q0 73 -14.5 122.5t-42 82t-78 50t-111.5 24t-153 6.5h-291q-79 0 -132.5 -4t-101.5 -16t-76.5 -32t-50 -53t-30 -78.5t-8.5 -109.5v-207z M698 1616l269 285h319l268 -285h-192l-236 149l-235 -149h-193z" />
<glyph unicode="&#xd5;" horiz-adv-x="2252" d="M119 528v406q0 179 36.5 290.5t125.5 178.5q85 63 217.5 83.5t359.5 20.5h535q228 0 362 -20.5t217 -83.5q84 -64 122 -173.5t38 -277.5v-415q0 -169 -37.5 -277.5t-122.5 -173.5q-85 -64 -217.5 -84t-361.5 -20h-533q-229 0 -360 19.5t-219 84.5q-88 66 -125 171 t-37 271zM582 635q0 -89 21 -143.5t72.5 -85.5t122 -41.5t185.5 -10.5h289q92 0 153 6.5t111.5 24t78 50t42 82t14.5 122.5v211q0 73 -14.5 122.5t-42 82t-78 50t-111.5 24t-153 6.5h-291q-79 0 -132.5 -4t-101.5 -16t-76.5 -32t-50 -53t-30 -78.5t-8.5 -109.5v-207z M692 1626q64 234 277 234q33 0 94 -11l172 -32q40 -7 72 -7q91 0 116 76h138q-26 -114 -101.5 -175.5t-185.5 -61.5q-43 0 -82 8l-184 37q-18 4 -54 4q-100 0 -125 -72h-137z" />
<glyph unicode="&#xd6;" horiz-adv-x="2252" d="M119 528v406q0 179 36.5 290.5t125.5 178.5q85 63 217.5 83.5t359.5 20.5h535q228 0 362 -20.5t217 -83.5q84 -64 122 -173.5t38 -277.5v-415q0 -169 -37.5 -277.5t-122.5 -173.5q-85 -64 -217.5 -84t-361.5 -20h-533q-229 0 -360 19.5t-219 84.5q-88 66 -125 171 t-37 271zM582 635q0 -89 21 -143.5t72.5 -85.5t122 -41.5t185.5 -10.5h289q92 0 153 6.5t111.5 24t78 50t42 82t14.5 122.5v211q0 73 -14.5 122.5t-42 82t-78 50t-111.5 24t-153 6.5h-291q-79 0 -132.5 -4t-101.5 -16t-76.5 -32t-50 -53t-30 -78.5t-8.5 -109.5v-207z M723 1626v262h328v-262h-328zM1202 1626v262h328v-262h-328z" />
<glyph unicode="&#xd7;" horiz-adv-x="1705" d="M268 170l441 440l-441 443l162 161l440 -440l441 440l162 -161l-441 -443l441 -440l-162 -162l-441 441l-440 -441z" />
<glyph unicode="&#xd8;" horiz-adv-x="2252" d="M47 84l143 113q-63 155 -63 331v404q0 179 36.5 290.5t125.5 178.5q84 64 217 85t360 21h535q300 0 446 -41l187 150l125 -168l-125 -96q108 -128 108 -402v-413q0 -168 -38.5 -277t-123.5 -174q-85 -64 -217.5 -84t-361.5 -20h-533q-383 0 -512 67l-184 -145zM578 629 q0 -76 12 -125l831 637q-35 4 -133 4h-297q-97 0 -160 -7t-115.5 -25.5t-80.5 -53t-42.5 -87t-14.5 -130.5v-213zM752 360q58 -16 186 -16h344q95 0 157.5 6.5t114.5 24.5t80 51t43 84.5t15 126.5v217q0 144 -47 197z" />
<glyph unicode="&#xd9;" horiz-adv-x="2150" d="M150 465v1024h454v-883q0 -67 12 -111t35.5 -73t69.5 -44t103 -20.5t147 -5.5h258q92 0 149 10t98 38t57.5 77.5t16.5 128.5v883h455v-1024q0 -138 -36 -231t-115.5 -149t-194.5 -79.5t-285 -23.5h-508q-163 0 -278 14.5t-201.5 47.5t-137 89.5t-75 137t-24.5 194.5z M627 1901h397l268 -285h-192z" />
<glyph unicode="&#xda;" horiz-adv-x="2150" d="M150 465v1024h454v-883q0 -67 12 -111t35.5 -73t69.5 -44t103 -20.5t147 -5.5h258q92 0 149 10t98 38t57.5 77.5t16.5 128.5v883h455v-1024q0 -138 -36 -231t-115.5 -149t-194.5 -79.5t-285 -23.5h-508q-163 0 -278 14.5t-201.5 47.5t-137 89.5t-75 137t-24.5 194.5z M858 1616l268 285h398l-473 -285h-193z" />
<glyph unicode="&#xdb;" horiz-adv-x="2150" d="M150 465v1024h454v-883q0 -67 12 -111t35.5 -73t69.5 -44t103 -20.5t147 -5.5h258q92 0 149 10t98 38t57.5 77.5t16.5 128.5v883h455v-1024q0 -138 -36 -231t-115.5 -149t-194.5 -79.5t-285 -23.5h-508q-163 0 -278 14.5t-201.5 47.5t-137 89.5t-75 137t-24.5 194.5z M647 1616l268 285h320l268 -285h-192l-236 149l-235 -149h-193z" />
<glyph unicode="&#xdc;" horiz-adv-x="2150" d="M150 465v1024h454v-883q0 -67 12 -111t35.5 -73t69.5 -44t103 -20.5t147 -5.5h258q92 0 149 10t98 38t57.5 77.5t16.5 128.5v883h455v-1024q0 -138 -36 -231t-115.5 -149t-194.5 -79.5t-285 -23.5h-508q-163 0 -278 14.5t-201.5 47.5t-137 89.5t-75 137t-24.5 194.5z M672 1626v262h327v-262h-327zM1151 1626v262h328v-262h-328z" />
<glyph unicode="&#xdd;" horiz-adv-x="2103" d="M-6 1489h559l489 -592l512 592h539l-823 -954v-535h-455v535zM836 1616l268 285h397l-473 -285h-192z" />
<glyph unicode="&#xde;" horiz-adv-x="1996" d="M156 0v1489h456v-176h686q277 0 396 -62q117 -61 166 -179.5t49 -317.5q0 -302 -101 -430.5t-346 -128.5h-850v-195h-456zM612 565h670q91 0 127.5 44.5t36.5 148.5q0 96 -37 140t-127 44h-670v-377z" />
<glyph unicode="&#xdf;" horiz-adv-x="1650" d="M147 0v1055q0 247 125.5 346.5t409.5 99.5h326q244 0 352 -91.5t108 -297.5q0 -102 -37 -164.5t-124 -103.5q243 -64 243 -283v-190q0 -215 -116.5 -301t-376.5 -86q-148 0 -318 16v297q114 -18 197 -18q112 0 173.5 40t61.5 105v135q0 59 -56.5 90t-166.5 31h-207v258 h187q84 0 123 32.5t39 102.5q0 144 -148 144h-186q-72 0 -111 -7t-68 -30.5t-39 -66.5t-10 -118v-995h-381z" />
<glyph unicode="&#xe0;" horiz-adv-x="1548" d="M68 338q0 105 28 172t95 106t162.5 53.5t246.5 14.5q340 0 465 -90v113q0 56 -37.5 85t-109.5 29h-310q-57 0 -83.5 -19.5t-26.5 -60.5h-381v13q0 170 126.5 241.5t407.5 71.5h371q214 0 318 -85t104 -263v-719h-379v127q-59 -74 -180 -107.5t-312 -33.5 q-284 0 -394.5 74.5t-110.5 277.5zM326 1460h397l268 -284h-192zM453 346q0 -60 42 -80t146 -20h231q100 0 144.5 23.5t44.5 84.5q0 60 -42.5 80.5t-146.5 20.5h-231q-100 0 -144 -24t-44 -85z" />
<glyph unicode="&#xe1;" horiz-adv-x="1548" d="M68 338q0 105 28 172t95 106t162.5 53.5t246.5 14.5q340 0 465 -90v113q0 56 -37.5 85t-109.5 29h-310q-57 0 -83.5 -19.5t-26.5 -60.5h-381v13q0 170 126.5 241.5t407.5 71.5h371q214 0 318 -85t104 -263v-719h-379v127q-59 -74 -180 -107.5t-312 -33.5 q-284 0 -394.5 74.5t-110.5 277.5zM453 346q0 -60 42 -80t146 -20h231q100 0 144.5 23.5t44.5 84.5q0 60 -42.5 80.5t-146.5 20.5h-231q-100 0 -144 -24t-44 -85zM557 1176l268 284h398l-473 -284h-193z" />
<glyph unicode="&#xe2;" horiz-adv-x="1548" d="M68 338q0 105 28 172t95 106t162.5 53.5t246.5 14.5q340 0 465 -90v113q0 56 -37.5 85t-109.5 29h-310q-57 0 -83.5 -19.5t-26.5 -60.5h-381v13q0 170 126.5 241.5t407.5 71.5h371q214 0 318 -85t104 -263v-719h-379v127q-59 -74 -180 -107.5t-312 -33.5 q-284 0 -394.5 74.5t-110.5 277.5zM346 1176l268 284h320l268 -284h-192l-236 149l-235 -149h-193zM453 346q0 -60 42 -80t146 -20h231q100 0 144.5 23.5t44.5 84.5q0 60 -42.5 80.5t-146.5 20.5h-231q-100 0 -144 -24t-44 -85z" />
<glyph unicode="&#xe3;" horiz-adv-x="1548" d="M68 338q0 105 28 172t95 106t162.5 53.5t246.5 14.5q340 0 465 -90v113q0 56 -37.5 85t-109.5 29h-310q-57 0 -83.5 -19.5t-26.5 -60.5h-381v13q0 170 126.5 241.5t407.5 71.5h371q214 0 318 -85t104 -263v-719h-379v127q-59 -74 -180 -107.5t-312 -33.5 q-284 0 -394.5 74.5t-110.5 277.5zM340 1186q64 233 276 233q40 0 95 -10l172 -33q34 -6 71 -6q92 0 117 76h137q-26 -115 -101 -176.5t-185 -61.5q-38 0 -82 9l-185 36q-18 4 -53 4q-101 0 -125 -71h-137zM453 346q0 -60 42 -80t146 -20h231q100 0 144.5 23.5t44.5 84.5 q0 60 -42.5 80.5t-146.5 20.5h-231q-100 0 -144 -24t-44 -85z" />
<glyph unicode="&#xe4;" horiz-adv-x="1548" d="M68 338q0 105 28 172t95 106t162.5 53.5t246.5 14.5q340 0 465 -90v113q0 56 -37.5 85t-109.5 29h-310q-57 0 -83.5 -19.5t-26.5 -60.5h-381v13q0 170 126.5 241.5t407.5 71.5h371q214 0 318 -85t104 -263v-719h-379v127q-59 -74 -180 -107.5t-312 -33.5 q-284 0 -394.5 74.5t-110.5 277.5zM371 1186v262h327v-262h-327zM453 346q0 -60 42 -80t146 -20h231q100 0 144.5 23.5t44.5 84.5q0 60 -42.5 80.5t-146.5 20.5h-231q-100 0 -144 -24t-44 -85zM850 1186v262h328v-262h-328z" />
<glyph unicode="&#xe5;" horiz-adv-x="1548" d="M68 338q0 105 28 172t95 106t162.5 53.5t246.5 14.5q340 0 465 -90v113q0 56 -37.5 85t-109.5 29h-310q-57 0 -83.5 -19.5t-26.5 -60.5h-381v13q0 170 126.5 241.5t407.5 71.5h371q214 0 318 -85t104 -263v-719h-379v127q-59 -74 -180 -107.5t-312 -33.5 q-284 0 -394.5 74.5t-110.5 277.5zM453 346q0 -60 42 -80t146 -20h231q100 0 144.5 23.5t44.5 84.5q0 60 -42.5 80.5t-146.5 20.5h-231q-100 0 -144 -24t-44 -85zM471 1341q0 96 84 147.5t242 51.5q159 0 242 -51.5t83 -147.5t-83 -147t-242 -51q-158 0 -242 51.5t-84 146.5 zM664 1341q0 -106 133 -106t133 106q0 55 -32.5 81t-100.5 26t-100.5 -26t-32.5 -81z" />
<glyph unicode="&#xe6;" horiz-adv-x="2449" d="M88 338q0 83 18.5 141.5t55 98.5t99.5 62.5t144.5 32t198.5 9.5q163 0 275.5 -21t191.5 -71v117q0 54 -39.5 84t-111.5 30h-308q-105 0 -108 -80h-369v13q0 170 123 241.5t395 71.5h258q126 0 215 -42t131 -118q36 84 122 121t233 37h321q217 0 331 -104t114 -302v-225 h-942q0 -5 -1 -14.5t-1 -13.5q0 -93 51.5 -133t169.5 -40h157q105 0 148.5 21.5t56.5 95.5h361v-12q0 -190 -105 -271t-340 -81h-319q-267 0 -365 139q-17 -26 -38.5 -46t-51 -35t-57 -25.5t-70 -17t-76.5 -10.5t-90 -6t-97.5 -2.5t-111.5 -0.5q-285 0 -403 38 q-166 53 -166 318zM473 344q0 -60 42.5 -80t146.5 -20h231q100 0 144 24.5t44 85.5q0 60 -42 80.5t-146 20.5h-231q-100 0 -144.5 -25t-44.5 -86zM1436 668h583v4q0 76 -50 106.5t-165 30.5h-153q-115 0 -165 -30.5t-50 -106.5v-4z" />
<glyph unicode="&#xe7;" horiz-adv-x="1597" d="M109 373v286q0 153 47 240t156 127.5t300 40.5h359q261 0 383.5 -86t122.5 -274q0 -32 -7 -86h-358v6q0 84 -49.5 119.5t-159.5 35.5h-186q-130 0 -179 -41t-49 -151v-135q0 -100 52.5 -142.5t175.5 -42.5h166q133 0 182 33t49 139h377q2 -23 2 -65q0 -215 -119 -303 t-397 -88h-365q-265 0 -384 89t-119 298zM528 -324h334q39 0 39 41q0 23 -9.5 32t-33.5 9h-135q-32 0 -42.5 17.5t-10.5 58.5v166h129v-109h168q66 0 92 -34t26 -115v-53q0 -83 -26 -116.5t-94 -33.5h-437v137z" />
<glyph unicode="&#xe8;" horiz-adv-x="1548" d="M109 373v286q0 197 125.5 302.5t361.5 105.5h354q238 0 363 -105t125 -303v-225h-951q0 -5 -1 -14.5t-1 -13.5q0 -91 53 -130.5t173 -39.5h159q45 0 70 1.5t52.5 7.5t42 18t26.5 33.5t18 53.5h357v-16q0 -188 -115 -268t-371 -80h-352q-240 0 -364.5 100t-124.5 287z M332 1460h397l268 -284h-192zM487 666h584v4q0 77 -49 107t-164 30h-156q-115 0 -165 -30.5t-50 -106.5v-4z" />
<glyph unicode="&#xe9;" horiz-adv-x="1548" d="M109 373v286q0 197 125.5 302.5t361.5 105.5h354q238 0 363 -105t125 -303v-225h-951q0 -5 -1 -14.5t-1 -13.5q0 -91 53 -130.5t173 -39.5h159q45 0 70 1.5t52.5 7.5t42 18t26.5 33.5t18 53.5h357v-16q0 -188 -115 -268t-371 -80h-352q-240 0 -364.5 100t-124.5 287z M487 666h584v4q0 77 -49 107t-164 30h-156q-115 0 -165 -30.5t-50 -106.5v-4zM563 1176l268 284h398l-473 -284h-193z" />
<glyph unicode="&#xea;" horiz-adv-x="1548" d="M109 373v286q0 197 125.5 302.5t361.5 105.5h354q238 0 363 -105t125 -303v-225h-951q0 -5 -1 -14.5t-1 -13.5q0 -91 53 -130.5t173 -39.5h159q45 0 70 1.5t52.5 7.5t42 18t26.5 33.5t18 53.5h357v-16q0 -188 -115 -268t-371 -80h-352q-240 0 -364.5 100t-124.5 287z M352 1176l269 284h319l268 -284h-192l-236 149l-235 -149h-193zM487 666h584v4q0 77 -49 107t-164 30h-156q-115 0 -165 -30.5t-50 -106.5v-4z" />
<glyph unicode="&#xeb;" horiz-adv-x="1548" d="M109 373v286q0 197 125.5 302.5t361.5 105.5h354q238 0 363 -105t125 -303v-225h-951q0 -5 -1 -14.5t-1 -13.5q0 -91 53 -130.5t173 -39.5h159q45 0 70 1.5t52.5 7.5t42 18t26.5 33.5t18 53.5h357v-16q0 -188 -115 -268t-371 -80h-352q-240 0 -364.5 100t-124.5 287z M377 1186v262h328v-262h-328zM487 666h584v4q0 77 -49 107t-164 30h-156q-115 0 -165 -30.5t-50 -106.5v-4zM856 1186v262h328v-262h-328z" />
<glyph unicode="&#xec;" horiz-adv-x="696" d="M-100 1460h397l268 -284h-192zM160 0v1053h379v-1053h-379z" />
<glyph unicode="&#xed;" horiz-adv-x="696" d="M131 1176l268 284h398l-473 -284h-193zM160 0v1053h379v-1053h-379z" />
<glyph unicode="&#xee;" horiz-adv-x="696" d="M-80 1176l268 284h320l268 -284h-192l-236 149l-235 -149h-193zM160 0v1053h379v-1053h-379z" />
<glyph unicode="&#xef;" horiz-adv-x="696" d="M-55 1186v262h327v-262h-327zM160 0v1053h379v-1053h-379zM424 1186v262h328v-262h-328z" />
<glyph unicode="&#xf0;" horiz-adv-x="1646" d="M109 356v277q0 215 117 303t407 88h164q151 0 270 -88l-248 256l-463 -66l-24 177l338 45l-138 143h410l88 -90l369 53l26 -180l-235 -33l162 -156q105 -101 145.5 -198.5t40.5 -265.5v-256q0 -210 -121.5 -294.5t-402.5 -84.5h-379q-278 0 -402 83.5t-124 286.5z M487 440q0 -93 57.5 -130.5t190.5 -37.5h178q131 0 188.5 37t57.5 133v127q0 94 -57.5 133t-188.5 39h-178q-139 0 -193.5 -37.5t-54.5 -138.5v-125z" />
<glyph unicode="&#xf1;" horiz-adv-x="1650" d="M147 0v1047h379v-162q69 106 176.5 142t296.5 36q514 0 514 -383v-680h-378v530q0 68 -11 108t-44.5 69t-92 40t-156.5 11q-165 0 -235 -57.5t-70 -192.5v-508h-379zM412 1186q64 233 276 233q39 0 94 -10l172 -33q34 -6 72 -6q92 0 117 76h137q-26 -114 -101.5 -176 t-185.5 -62q-39 0 -82 9l-184 36q-18 4 -53 4q-101 0 -125 -71h-137z" />
<glyph unicode="&#xf2;" horiz-adv-x="1646" d="M109 373v286q0 223 117 315.5t407 92.5h381q280 0 402 -92t122 -303v-293q0 -217 -121.5 -305t-402.5 -88h-379q-277 0 -401.5 88t-124.5 299zM375 1460h397l268 -284h-192zM487 455q0 -101 58 -143t190 -42h178q132 0 189 41.5t57 145.5v139q0 102 -57 144t-189 42h-178 q-139 0 -193.5 -41.5t-54.5 -150.5v-135z" />
<glyph unicode="&#xf3;" horiz-adv-x="1646" d="M109 373v286q0 223 117 315.5t407 92.5h381q280 0 402 -92t122 -303v-293q0 -217 -121.5 -305t-402.5 -88h-379q-277 0 -401.5 88t-124.5 299zM487 455q0 -101 58 -143t190 -42h178q132 0 189 41.5t57 145.5v139q0 102 -57 144t-189 42h-178q-139 0 -193.5 -41.5 t-54.5 -150.5v-135zM606 1176l268 284h398l-473 -284h-193z" />
<glyph unicode="&#xf4;" horiz-adv-x="1646" d="M109 373v286q0 223 117 315.5t407 92.5h381q280 0 402 -92t122 -303v-293q0 -217 -121.5 -305t-402.5 -88h-379q-277 0 -401.5 88t-124.5 299zM395 1176l269 284h319l268 -284h-192l-236 149l-235 -149h-193zM487 455q0 -101 58 -143t190 -42h178q132 0 189 41.5 t57 145.5v139q0 102 -57 144t-189 42h-178q-139 0 -193.5 -41.5t-54.5 -150.5v-135z" />
<glyph unicode="&#xf5;" horiz-adv-x="1646" d="M109 373v286q0 223 117 315.5t407 92.5h381q280 0 402 -92t122 -303v-293q0 -217 -121.5 -305t-402.5 -88h-379q-277 0 -401.5 88t-124.5 299zM389 1186q64 233 277 233q39 0 94 -10l172 -33q34 -6 72 -6q91 0 116 76h137q-26 -115 -101 -176.5t-185 -61.5q-39 0 -82 9 l-184 36q-18 4 -54 4q-101 0 -125 -71h-137zM487 455q0 -101 58 -143t190 -42h178q132 0 189 41.5t57 145.5v139q0 102 -57 144t-189 42h-178q-139 0 -193.5 -41.5t-54.5 -150.5v-135z" />
<glyph unicode="&#xf6;" horiz-adv-x="1646" d="M109 373v286q0 223 117 315.5t407 92.5h381q280 0 402 -92t122 -303v-293q0 -217 -121.5 -305t-402.5 -88h-379q-277 0 -401.5 88t-124.5 299zM420 1186v262h328v-262h-328zM487 455q0 -101 58 -143t190 -42h178q132 0 189 41.5t57 145.5v139q0 102 -57 144t-189 42h-178 q-139 0 -193.5 -41.5t-54.5 -150.5v-135zM899 1186v262h328v-262h-328z" />
<glyph unicode="&#xf7;" horiz-adv-x="1705" d="M254 496v231h1198v-231h-1198zM688 205q0 69 49 117.5t117 48.5t116 -48.5t48 -117.5q0 -67 -47.5 -115.5t-116.5 -48.5q-68 0 -117 48t-49 116zM688 1016q0 69 49 117.5t117 48.5q66 0 115 -49t49 -117q0 -67 -48 -115.5t-118 -48.5q-69 0 -116.5 48t-47.5 116z" />
<glyph unicode="&#xf8;" horiz-adv-x="1646" d="M2 102l139 99q-26 93 -26 170v288q0 150 51 237.5t165 128t310 40.5h379q221 0 321 -47l158 106l103 -151l-109 -74q53 -70 53 -227v-293q0 -217 -122.5 -305t-403.5 -88h-379q-264 0 -379 69l-153 -106zM485 434l512 350q-66 4 -69 4h-187q-144 0 -200 -43t-56 -157 v-154zM590 281q59 -19 147 -19h185q137 0 196.5 42.5t59.5 150.5v145q0 31 -11 76z" />
<glyph unicode="&#xf9;" horiz-adv-x="1650" d="M135 379v674h379v-537q0 -65 10.5 -104t41.5 -68.5t87 -41t148 -11.5q180 0 251.5 53t71.5 195v514h379v-1053h-379v162q-69 -106 -176 -141t-297 -35q-264 0 -390 95.5t-126 297.5zM367 1460h397l268 -284h-192z" />
<glyph unicode="&#xfa;" horiz-adv-x="1650" d="M135 379v674h379v-537q0 -65 10.5 -104t41.5 -68.5t87 -41t148 -11.5q180 0 251.5 53t71.5 195v514h379v-1053h-379v162q-69 -106 -176 -141t-297 -35q-264 0 -390 95.5t-126 297.5zM598 1176l268 284h398l-473 -284h-193z" />
<glyph unicode="&#xfb;" horiz-adv-x="1650" d="M135 379v674h379v-537q0 -65 10.5 -104t41.5 -68.5t87 -41t148 -11.5q180 0 251.5 53t71.5 195v514h379v-1053h-379v162q-69 -106 -176 -141t-297 -35q-264 0 -390 95.5t-126 297.5zM387 1176l268 284h320l268 -284h-192l-236 149l-235 -149h-193z" />
<glyph unicode="&#xfc;" horiz-adv-x="1650" d="M135 379v674h379v-537q0 -65 10.5 -104t41.5 -68.5t87 -41t148 -11.5q180 0 251.5 53t71.5 195v514h379v-1053h-379v162q-69 -106 -176 -141t-297 -35q-264 0 -390 95.5t-126 297.5zM412 1186v262h327v-262h-327zM891 1186v262h328v-262h-328z" />
<glyph unicode="&#xfd;" horiz-adv-x="1452" d="M23 1053h417l293 -684l303 684h414l-526 -1135q-77 -170 -174 -227q-82 -47 -246 -47q-88 0 -172 8v250q46 -6 82 -6q91 0 141.5 37t69.5 118h-142zM510 1176l268 284h398l-474 -284h-192z" />
<glyph unicode="&#xfe;" horiz-adv-x="1658" d="M147 -356v1845h379v-629q12 116 122 161.5t347 45.5q301 0 428 -78.5t127 -273.5v-348q0 -193 -131 -279t-418 -86q-114 0 -189.5 7.5t-137 28t-96.5 57.5t-52 95v-546h-379zM520 473q0 -105 52 -144.5t188 -39.5h172q128 0 183.5 40.5t55.5 137.5v131q0 99 -55.5 138.5 t-183.5 39.5h-172q-129 0 -184.5 -39.5t-55.5 -136.5v-127z" />
<glyph unicode="&#xff;" horiz-adv-x="1452" d="M23 1053h417l293 -684l303 684h414l-526 -1135q-77 -170 -174 -227q-82 -47 -246 -47q-88 0 -172 8v250q46 -6 82 -6q91 0 141.5 37t69.5 118h-142zM324 1186v262h327v-262h-327zM803 1186v262h327v-262h-327z" />
<glyph unicode="&#x152;" horiz-adv-x="2693" d="M70 524v406q0 179 34 290.5t117 176.5q80 63 205 83.5t338 20.5h291q141 0 224 -44t136 -154v184h1217v-361h-838v-225h811v-313h-811v-228h838v-360h-1217v166q-64 -110 -144 -147t-216 -37h-289q-214 0 -337 20t-206 84q-84 64 -118.5 168.5t-34.5 269.5zM500 631 q0 -87 16 -141t56.5 -85t97 -42t147.5 -11h242q93 0 149.5 11t95.5 43t54.5 87t15.5 144v211q0 89 -15 143.5t-54.5 86t-95.5 42t-150 10.5h-242q-95 0 -151.5 -11t-96 -43t-54.5 -88.5t-15 -149.5v-207z" />
<glyph unicode="&#x153;" horiz-adv-x="2549" d="M102 371v286q0 222 105.5 314t367.5 92h343q170 0 265.5 -25.5t149.5 -99.5q60 68 148 97.5t215 29.5h329q222 0 337.5 -103.5t115.5 -302.5v-225h-946q0 -5 -1 -14.5t-1 -13.5q0 -93 52.5 -133t170.5 -40h158q105 0 148.5 21.5t56.5 95.5h360v-16q0 -187 -107 -267.5 t-344 -80.5h-327q-166 0 -252 37t-113 127q-54 -100 -146.5 -132t-268.5 -32h-343q-251 0 -362 87t-111 298zM479 465q0 -95 57.5 -132.5t190.5 -37.5h178q132 0 189 38t57 136v131q0 95 -57.5 134.5t-188.5 39.5h-178q-140 0 -194 -38.5t-54 -141.5v-129zM1526 674h583v4 q0 77 -49 107t-164 30h-155q-115 0 -165 -30.5t-50 -106.5v-4z" />
<glyph unicode="&#x178;" horiz-adv-x="2103" d="M-6 1489h559l489 -592l512 592h539l-823 -954v-535h-455v535zM649 1626v262h328v-262h-328zM1128 1626v262h328v-262h-328z" />
<glyph unicode="&#x2c6;" horiz-adv-x="1024" d="M84 1176l268 284h320l268 -284h-192l-236 149l-236 -149h-192z" />
<glyph unicode="&#x2dc;" horiz-adv-x="1024" d="M78 1186q64 233 276 233q40 0 95 -10l172 -33q35 -6 71 -6q92 0 117 76h137q-26 -114 -101.5 -176t-185.5 -62q-37 0 -81 9l-185 36q-18 4 -53 4q-101 0 -125 -71h-137z" />
<glyph unicode="&#x2000;" horiz-adv-x="986" />
<glyph unicode="&#x2001;" horiz-adv-x="1972" />
<glyph unicode="&#x2002;" horiz-adv-x="986" />
<glyph unicode="&#x2003;" horiz-adv-x="1972" />
<glyph unicode="&#x2004;" horiz-adv-x="657" />
<glyph unicode="&#x2005;" horiz-adv-x="493" />
<glyph unicode="&#x2006;" horiz-adv-x="328" />
<glyph unicode="&#x2007;" horiz-adv-x="328" />
<glyph unicode="&#x2008;" horiz-adv-x="246" />
<glyph unicode="&#x2009;" horiz-adv-x="394" />
<glyph unicode="&#x200a;" horiz-adv-x="109" />
<glyph unicode="&#x2010;" horiz-adv-x="1009" d="M160 344v381h674v-381h-674z" />
<glyph unicode="&#x2011;" horiz-adv-x="1009" d="M160 344v381h674v-381h-674z" />
<glyph unicode="&#x2012;" horiz-adv-x="1009" d="M160 344v381h674v-381h-674z" />
<glyph unicode="&#x2013;" horiz-adv-x="1024" d="M0 410v249h1024v-249h-1024z" />
<glyph unicode="&#x2014;" horiz-adv-x="2048" d="M0 410v249h2048v-249h-2048z" />
<glyph unicode="&#x2018;" horiz-adv-x="999" d="M285 690v498q0 169 84 243t276 74q61 0 135 -6v-227h-28q-75 0 -110.5 -22.5t-35.5 -71.5v-93h111v-395h-432z" />
<glyph unicode="&#x2019;" horiz-adv-x="999" d="M219 678v229h31q75 0 110 21.5t35 70.5v95h-110v395h432v-498q0 -170 -85.5 -244.5t-279.5 -74.5q-62 0 -133 6z" />
<glyph unicode="&#x201a;" horiz-adv-x="999" d="M219 -162h31q74 0 109.5 22.5t35.5 71.5v93h-110v395h432v-498q0 -170 -85.5 -244.5t-279.5 -74.5q-62 0 -133 6v229z" />
<glyph unicode="&#x201c;" horiz-adv-x="1605" d="M285 690v496q0 170 85 244.5t277 74.5q63 0 133 -6v-229h-30q-75 0 -110.5 -21.5t-35.5 -70.5v-93h111v-395h-430zM889 690v496q0 170 85 244.5t277 74.5q63 0 133 -6v-229h-30q-75 0 -110.5 -21.5t-35.5 -70.5v-93h111v-395h-430z" />
<glyph unicode="&#x201d;" horiz-adv-x="1605" d="M219 678v229h31q75 0 110 21.5t35 70.5v95h-110v395h430v-498q0 -170 -85.5 -244.5t-277.5 -74.5q-62 0 -133 6zM823 678v229h31q74 0 108.5 21.5t34.5 70.5v95h-108v395h430v-498q0 -170 -85.5 -244.5t-277.5 -74.5q-62 0 -133 6z" />
<glyph unicode="&#x201e;" horiz-adv-x="1605" d="M219 -162h31q74 0 109.5 22.5t35.5 71.5v93h-110v395h430v-498q0 -170 -85.5 -244.5t-277.5 -74.5q-62 0 -133 6v229zM823 -162h29q75 0 110 22.5t35 71.5v93h-108v395h430v-498q0 -170 -85.5 -244.5t-277.5 -74.5q-62 0 -133 6v229z" />
<glyph unicode="&#x2022;" horiz-adv-x="1208" d="M307 762q0 123 87 209t210 86q122 0 208.5 -86t86.5 -209q0 -122 -87 -209.5t-210 -87.5t-209 87t-86 210z" />
<glyph unicode="&#x2026;" horiz-adv-x="2048" d="M131 0v422h422v-422h-422zM813 0v422h422v-422h-422zM1497 0v422h422v-422h-422z" />
<glyph unicode="&#x202f;" horiz-adv-x="394" />
<glyph unicode="&#x2039;" horiz-adv-x="708" d="M82 530l233 322h312l-236 -322l236 -313h-312z" />
<glyph unicode="&#x203a;" horiz-adv-x="708" d="M80 217l235 313l-235 322h311l236 -322l-236 -313h-311z" />
<glyph unicode="&#x205f;" horiz-adv-x="493" />
<glyph unicode="&#x20ac;" d="M66 520l47 146h176v157h-223l47 146h176q3 162 34 266.5t101 167.5q71 63 182.5 83.5t302.5 20.5h242q235 0 353 -14.5t192 -71.5q137 -106 137 -374v-37h-442q0 88 -58 128t-182 40h-119q-152 0 -215 -42t-78 -167h596l-47 -146h-553v-157h500l-47 -146h-449 q13 -123 77.5 -166t215.5 -43h131q124 0 182 40t58 128v15h442v-52q0 -268 -137 -374q-74 -57 -192 -71.5t-353 -14.5h-252q-192 0 -301 19.5t-184 84.5q-72 62 -104.5 168t-32.5 266h-223z" />
<glyph unicode="&#x2122;" horiz-adv-x="1705" d="M188 1337v127h502v-127h-164v-424h-174v424h-164zM797 913v551h223l113 -303l114 303h221v-551h-155v390l-146 -390h-65l-150 390v-390h-155z" />
<glyph unicode="&#x25fc;" horiz-adv-x="1054" d="M0 0v1055h1055v-1055h-1055z" />
<glyph unicode="&#xfb01;" horiz-adv-x="1564" d="M35 766v287h184v34q0 222 106 310t361 88h236v-262q-70 4 -95 4q-120 0 -174.5 -33.5t-54.5 -110.5q0 -20 2 -30h322v-287h-322v-766h-381v766h-184zM1049 0v1053h378v-1053h-378zM1049 1180v309h378v-309h-378z" />
<glyph unicode="&#xfb02;" horiz-adv-x="1564" d="M35 766v287h184v34q0 222 106 310t361 88h236v-262q-70 4 -95 4q-120 0 -174.5 -33.5t-54.5 -110.5q0 -20 2 -30h322v-287h-322v-766h-381v766h-184zM1049 0v1489h378v-1489h-378z" />
</font>
</defs>
</svg>
