<?xml version="1.0" standalone="no"?>
<!DOCTYPE svg PUBLIC "-//W3C//DTD SVG 1.1//EN" "http://www.w3.org/Graphics/SVG/1.1/DTD/svg11.dtd" >
<svg xmlns="http://www.w3.org/2000/svg">
<metadata></metadata>
<defs>
<font id="russo_oneregular" horiz-adv-x="1290" >
<font-face units-per-em="2048" ascent="1638" descent="-410" />
<missing-glyph horiz-adv-x="614" />
<glyph horiz-adv-x="0" />
<glyph unicode="&#xd;" horiz-adv-x="614" />
<glyph unicode=" "  horiz-adv-x="614" />
<glyph unicode="&#x09;" horiz-adv-x="614" />
<glyph unicode="&#xa0;" horiz-adv-x="614" />
<glyph unicode="!" horiz-adv-x="573" d="M102 0v307h369v-307h-369zM102 860v574h369v-574l-41 -430h-287z" />
<glyph unicode="&#x22;" horiz-adv-x="819" d="M61 1249v185h308v-185l-41 -327h-226zM451 1249v185h307v-185l-41 -327h-225z" />
<glyph unicode="#" horiz-adv-x="1495" d="M20 307v266h246l62 287h-226v266h283l66 308h327l-65 -308h245l66 308h328l-66 -308h189v-266h-246l-62 -287h226v-266h-283l-66 -307h-327l65 307h-245l-66 -307h-328l66 307h-189zM594 573h246l61 287h-246z" />
<glyph unicode="$" horiz-adv-x="1288" d="M61 983v41q0 215 97.5 312.5t312.5 97.5h41l-20 184h307l-21 -184h328v-287h-553q-123 0 -123 -123v-41q0 -123 123 -123h285q201 0 295 -94t94 -295v-102q0 -201 -93.5 -295t-293.5 -94h-58l17 -185h-307l20 195q-238 12 -432 30v277q475 -31 676 -31q47 0 74.5 28 t27.5 75v204h-387q-215 0 -312.5 97.5t-97.5 312.5z" />
<glyph unicode="%" horiz-adv-x="1761" d="M41 952v246q0 123 66.5 189.5t189.5 66.5h184q123 0 189.5 -66.5t66.5 -189.5v-246q0 -123 -66.5 -189.5t-189.5 -66.5h-184q-123 0 -189.5 66.5t-66.5 189.5zM287 952q0 -72 71 -71h62q72 0 72 71v246q0 72 -72 72h-62q-72 0 -71 -72v-246zM307 0l819 1434h308 l-799 -1434h-328zM1024 236v245q0 123 66.5 189.5t189.5 66.5h184q123 0 189.5 -66.5t66.5 -189.5v-245q0 -123 -66.5 -189.5t-189.5 -66.5h-184q-123 0 -189.5 66.5t-66.5 189.5zM1270 236q0 -72 71 -72h62q72 0 72 72v245q0 72 -72 72h-62q-72 0 -71 -72v-245z" />
<glyph unicode="&#x26;" horiz-adv-x="1474" d="M61 369q0 156 78 258q61 82 168 110q-92 31 -148.5 108t-56.5 199v21q0 186 94.5 277.5t295.5 91.5h655v-287h-553q-123 0 -123 -123v-61q0 -123 123 -123h328l30 164h338v-164h164v-287h-164v-533q-465 -41 -839 -40q-201 0 -295.5 94t-94.5 295zM430 369 q0 -47 27.5 -75t74.5 -28q225 0 390 10v277h-369q-123 0 -123 -123v-61z" />
<glyph unicode="'" horiz-adv-x="430" d="M61 1249v185h308v-185l-41 -327h-226z" />
<glyph unicode="(" horiz-adv-x="665" d="M61 604q0 317 117 596t334 479l174 -143q-256 -391 -256 -932t256 -932l-174 -143q-217 201 -334 479.5t-117 595.5z" />
<glyph unicode=")" horiz-adv-x="665" d="M-20 -328q256 391 256 932t-256 932l174 143q217 -201 333.5 -479t116.5 -596q0 -317 -116.5 -595.5t-333.5 -479.5z" />
<glyph unicode="*" horiz-adv-x="1013" d="M20 819l246 144l-246 143l123 205l236 -133v256h256v-256l235 133l123 -205l-245 -143l245 -144l-123 -205l-235 134v-256h-256v256l-236 -134z" />
<glyph unicode="+" horiz-adv-x="1105" d="M61 573v287h349v348h286v-348h348v-287h-348v-348h-286v348h-349z" />
<glyph unicode="," horiz-adv-x="491" d="M61 0v307h369v-287l-143 -225h-185l82 205h-123z" />
<glyph unicode="-" horiz-adv-x="962" d="M61 573v287h840v-287h-840z" />
<glyph unicode="." horiz-adv-x="491" d="M61 0v307h369v-307h-369z" />
<glyph unicode="/" horiz-adv-x="962" d="M0 0l614 1434h349l-594 -1434h-369z" />
<glyph unicode="0" horiz-adv-x="1372" d="M82 389v655q0 215 97 312.5t313 97.5h389q215 0 312 -97t97 -313v-655q0 -215 -97 -312t-312 -97h-389q-215 0 -312.5 97t-97.5 312zM451 389q0 -123 122 -123h226q123 0 123 123v655q0 123 -123 123h-226q-123 0 -122 -123v-655z" />
<glyph unicode="1" horiz-adv-x="829" d="M0 1270l379 164h328v-1434h-369v1116l-236 -82z" />
<glyph unicode="2" horiz-adv-x="1208" d="M41 0v389l737 533v102q0 123 -123 123h-573v287h655q215 0 312.5 -97.5t97.5 -312.5v-41q0 -174 -148 -301q-45 -39 -98 -78l-440 -317h686v-287h-1106z" />
<glyph unicode="3" horiz-adv-x="1249" d="M41 20v277q453 -31 676 -31q47 0 74.5 28t27.5 75v82q0 123 -123 122h-430v287h389q123 0 123 123v41q0 123 -123 123h-594v287h697q201 0 295 -91.5t94 -277.5q0 -123 -56.5 -200t-148.5 -107q166 -45 225 -221q20 -63 21 -148v-20q0 -201 -94 -295t-295 -94 q-342 0 -758 40z" />
<glyph unicode="4" horiz-adv-x="1331" d="M41 287v286l491 861h410l-491 -861h348v308h368v-308h144v-286h-144v-287h-368v287h-758z" />
<glyph unicode="5" horiz-adv-x="1228" d="M41 20v277q453 -31 676 -31q47 0 74.5 28t27.5 75v102q0 123 -123 123h-594v840h983v-287h-614v-266h328q201 0 295 -91.5t94 -277.5v-143q0 -201 -94 -295t-295 -94q-342 0 -758 40z" />
<glyph unicode="6" d="M82 348v717q0 201 94 295t295 94q281 0 676 -41v-276q-113 6 -191.5 11t-129 8t-99.5 7q-82 4 -152 4q-125 0 -124 -102v-184q199 41 348 41h143q139 0 223 -84t84 -224v-266q0 -186 -94 -277t-295 -91h-389q-201 0 -295 91t-94 277zM451 389q0 -123 122 -123h185 q123 0 123 123v174q0 31 -20.5 51.5t-51.5 20.5h-113q-78 0 -142.5 -8.5t-102.5 -12.5v-225z" />
<glyph unicode="7" horiz-adv-x="1146" d="M20 1147v287h1106v-287l-471 -1147h-409l491 1147h-717z" />
<glyph unicode="8" horiz-adv-x="1372" d="M61 369v20q0 156 78 258q61 82 168 111q-92 31 -148.5 107.5t-56.5 199.5v20q0 186 94.5 277.5t295.5 91.5h389q201 0 295 -91t94 -278v-20q0 -123 -56.5 -200t-148.5 -107q166 -45 225 -221q20 -63 21 -148v-20q0 -201 -94.5 -295t-294.5 -94h-471q-201 0 -295.5 94 t-94.5 295zM430 369q0 -47 27.5 -75t74.5 -28h308q47 0 74.5 28t27.5 75v82q0 123 -123 122h-266q-123 0 -123 -122v-82zM471 983q0 -123 123 -123h184q123 0 123 123v61q0 123 -123 123h-184q-123 0 -123 -123v-61z" />
<glyph unicode="9" d="M41 819v266q0 186 94 277.5t295 91.5h389q201 0 295 -91t94 -278v-716q0 -201 -94 -295t-295 -94q-281 0 -676 40v277q422 -31 594 -31q47 0 75 28t28 75v184q-199 -41 -348 -41h-144q-139 0 -223 84t-84 223zM410 870q0 -31 20.5 -51t50.5 -20h113q117 0 246 20v225 q0 123 -123 123h-185q-123 0 -122 -123v-174z" />
<glyph unicode=":" horiz-adv-x="491" d="M61 0v307h369v-307h-369zM61 778v307h369v-307h-369z" />
<glyph unicode=";" horiz-adv-x="491" d="M61 0v307h369v-287l-143 -225h-185l103 205h-144zM61 778v307h369v-307h-369z" />
<glyph unicode="&#x3c;" horiz-adv-x="1044" d="M41 410v266l922 409v-307l-584 -235l584 -236v-307z" />
<glyph unicode="=" horiz-adv-x="1003" d="M82 369v266h840v-266h-840zM82 799v266h840v-266h-840z" />
<glyph unicode="&#x3e;" horiz-adv-x="1044" d="M82 0v307l584 236l-584 235v307l922 -409v-266z" />
<glyph unicode="?" horiz-adv-x="1187" d="M20 1137v276q395 41 738 41q201 0 295 -94t94 -295v-92q0 -154 -62 -234q-61 -82 -215 -135l-204 -72v-102h-369v287l481 174v174q0 47 -27.5 74.5t-95.5 27.5q-123 0 -318.5 -12t-316.5 -18zM297 0v307h369v-307h-369z" />
<glyph unicode="@" horiz-adv-x="1576" d="M82 430v574q0 217 116.5 333.5t333.5 116.5h656q154 0 241 -87t87 -241v-757h-287l-21 102q-90 -63 -178 -93t-149 -30h-41q-139 0 -223.5 84t-84.5 223v72q0 139 84 223t224 84h348v62q0 39 -26.5 65.5t-65.5 26.5h-543q-61 0 -102 -41t-41 -103v-655q0 -61 41 -102 t102 -41q264 0 778 30v-256q-436 -41 -799 -40q-217 0 -333.5 116.5t-116.5 333.5zM881 696q0 -31 20.5 -51t50.5 -20h31q88 0 205 41v112h-236q-31 0 -51 -20.5t-20 -50.5v-11z" />
<glyph unicode="A" horiz-adv-x="1454" d="M-20 0l542 1434h410l543 -1434h-400l-92 256h-512l-92 -256h-399zM563 522h328l-164 482z" />
<glyph unicode="B" horiz-adv-x="1454" d="M123 0v1434h819q201 0 295 -91.5t94 -277.5q0 -123 -53 -200t-131 -107q166 -45 225 -221q20 -63 21 -148q0 -201 -94.5 -295t-294.5 -94h-881zM492 287h409q123 0 123 123v41q0 122 -121 122h-2h-409v-286zM492 860h348q123 0 123 123v41q0 123 -123 123h-348v-287z" />
<glyph unicode="C" horiz-adv-x="1269" d="M82 369v655q0 215 97 312.5t313 97.5h737v-287h-656q-123 0 -122 -123v-655q0 -47 27.5 -75t70.5 -28t94 1t106.5 3t112 4t145.5 8.5t222 14.5v-277q-446 -40 -744 -40h-14q-201 0 -295 94t-94 295z" />
<glyph unicode="D" horiz-adv-x="1474" d="M123 0v1434h799q231 0 351 -120t120 -351v-492q0 -231 -120 -351t-351 -120h-799zM492 287h348q184 0 184 184v492q0 184 -184 184h-348v-860z" />
<glyph unicode="E" horiz-adv-x="1300" d="M123 0v1434h1137v-287h-768v-277h604v-286h-604v-297h768v-287h-1137z" />
<glyph unicode="F" horiz-adv-x="1280" d="M123 0v1434h1137v-287h-768v-338h604v-287h-604v-522h-369z" />
<glyph unicode="G" horiz-adv-x="1433" d="M82 369v655q0 215 97 312.5t313 97.5h737v-287h-656q-123 0 -122 -123v-655q0 -47 27.5 -75t74.5 -28q236 0 430 10v297h-266v246h635v-788q-479 -51 -881 -51q-201 0 -295 94t-94 295z" />
<glyph unicode="H" horiz-adv-x="1495" d="M123 0v1434h369v-564h512v564h368v-1434h-368v584h-512v-584h-369z" />
<glyph unicode="I" horiz-adv-x="860" d="M61 0v287h185v860h-185v287h738v-287h-185v-860h185v-287h-738z" />
<glyph unicode="J" horiz-adv-x="942" d="M20 0v276q160 -10 328 -10q47 0 75 28t28 75v778h-267v287h635v-1065q0 -201 -94 -295t-289.5 -94t-415.5 20z" />
<glyph unicode="K" horiz-adv-x="1384" d="M123 0v1434h369v-564h184l319 564h389l-401 -707l399 -727h-389l-317 584h-184v-584h-369z" />
<glyph unicode="L" horiz-adv-x="1259" d="M123 0v1434h369v-1147h747v-287h-1116z" />
<glyph unicode="M" horiz-adv-x="1843" d="M123 0v1434h389l410 -758l409 758h389v-1434h-368v799l-287 -512h-287l-286 512v-799h-369z" />
<glyph unicode="N" horiz-adv-x="1495" d="M123 0v1434h389l492 -861v861h368v-1434h-389l-491 860v-860h-369z" />
<glyph unicode="O" horiz-adv-x="1495" d="M82 389v655q0 215 97 312.5t313 97.5h512q215 0 312 -97t97 -313v-655q0 -215 -97 -312t-312 -97h-512q-215 0 -312.5 97t-97.5 312zM451 389q0 -123 122 -123h349q123 0 122 123v655q0 123 -122 123h-349q-123 0 -122 -123v-655z" />
<glyph unicode="P" horiz-adv-x="1454" d="M123 0v1434h860q215 0 312.5 -97.5t97.5 -312.5v-205q0 -215 -97.5 -312t-312.5 -97h-491v-410h-369zM492 696h409q123 0 123 123v205q0 123 -123 123h-409v-451z" />
<glyph unicode="Q" horiz-adv-x="1495" d="M82 389v655q0 215 97 312.5t313 97.5h512q215 0 312 -97t97 -313v-655q0 -215 -97 -312t-312 -97h-103v-21q0 -31 20.5 -51.5t51.5 -20.5h153v-215q-143 -20 -274 -20t-215 84t-84 223v21h-61q-215 0 -312.5 97t-97.5 312zM451 389q0 -123 122 -123h349q123 0 122 123 v655q0 123 -122 123h-349q-123 0 -122 -123v-655z" />
<glyph unicode="R" horiz-adv-x="1474" d="M123 0v1434h860q215 0 312.5 -97.5t97.5 -312.5v-184q0 -170 -56.5 -264.5t-179.5 -124.5l256 -451h-399l-236 430h-286v-430h-369zM492 717h409q123 0 123 123v184q0 123 -123 123h-409v-430z" />
<glyph unicode="S" horiz-adv-x="1372" d="M61 963v61q0 215 97.5 312.5t312.5 97.5h719v-287h-637q-123 0 -123 -123v-41q0 -123 123 -123h369q201 0 295 -94t94 -295v-102q0 -201 -94.5 -295t-294.5 -94q-104 0 -222 4l-188 8q-209 10 -432 28v277q561 -31 760 -31q47 0 74.5 28t27.5 75v184h-471 q-215 0 -312.5 97.5t-97.5 312.5z" />
<glyph unicode="T" horiz-adv-x="1269" d="M20 1147v287h1229v-287h-430v-1147h-368v1147h-431z" />
<glyph unicode="U" horiz-adv-x="1536" d="M123 389v1045h369v-1045q0 -123 122 -123h308q123 0 122 123v1045h369v-1045q0 -215 -97 -312t-312 -97h-472q-215 0 -312 97t-97 312z" />
<glyph unicode="V" horiz-adv-x="1454" d="M-20 1434h399l348 -1004l348 1004h400l-543 -1434h-410z" />
<glyph unicode="W" horiz-adv-x="2007" d="M-20 1434h399l215 -922l246 922h327l246 -922l215 922h400l-390 -1434h-389l-245 891l-246 -891h-389z" />
<glyph unicode="X" horiz-adv-x="1351" d="M-20 0l471 717l-461 717h407l279 -451l276 451h410l-461 -717l471 -717h-409l-287 451l-287 -451h-409z" />
<glyph unicode="Y" horiz-adv-x="1372" d="M-41 1434h389l338 -697l338 697h389l-543 -1055v-379h-368v379z" />
<glyph unicode="Z" horiz-adv-x="1249" d="M41 0v287l717 860h-717v287h1167v-287l-716 -860h716v-287h-1167z" />
<glyph unicode="[" horiz-adv-x="737" d="M123 -430v2068h614v-286h-245v-1495h245v-287h-614z" />
<glyph unicode="\" horiz-adv-x="962" d="M0 1434h348l615 -1434h-369z" />
<glyph unicode="]" horiz-adv-x="737" d="M0 -143h246v1495h-246v286h614v-2068h-614v287z" />
<glyph unicode="^" horiz-adv-x="1044" d="M0 819l369 615h307l368 -615h-307l-215 369l-215 -369h-307z" />
<glyph unicode="_" horiz-adv-x="962" d="M61 -102h840v-287h-840v287z" />
<glyph unicode="`" horiz-adv-x="512" d="M0 1454h348l123 -348h-246z" />
<glyph unicode="a" horiz-adv-x="1218" d="M51 287v92q0 139 84 223t223 84h420v82q0 31 -20.5 51.5t-50.5 20.5q-133 0 -294 -12.5t-259 -18.5v256q375 41 675 41q139 0 223.5 -84t84.5 -223v-799h-318l-20 102q-96 -63 -197.5 -92.5t-171.5 -29.5h-72q-139 0 -223 83.5t-84 223.5zM410 338q0 -31 20.5 -51.5 t50.5 -20.5h51q109 0 246 41v123h-297q-31 0 -51 -20.5t-20 -51.5v-20z" />
<glyph unicode="b" horiz-adv-x="1269" d="M102 0v1434h359v-369q199 41 348 41h72q139 0 223 -84t84 -223v-471q0 -154 -87 -241t-241 -87h-758zM461 276h287q82 0 81 82v400q0 31 -20.5 51t-50.5 20h-51q-86 0 -148.5 -8t-97.5 -12v-533z" />
<glyph unicode="c" horiz-adv-x="1126" d="M82 287v471q0 154 87 240.5t241 86.5h655v-276h-543q-82 0 -82 -82v-399q0 -31 20.5 -51.5t51.5 -20.5q184 0 553 31v-267q-374 -40 -662 -40h-14q-139 0 -223 83.5t-84 223.5z" />
<glyph unicode="d" d="M82 287v471q0 154 87 240.5t241 86.5h419v349h359v-1434h-318l-20 102q-96 -63 -197.5 -92.5t-171.5 -29.5h-92q-139 0 -223 83.5t-84 223.5zM440 348q0 -31 20.5 -51.5t51.5 -20.5h72q109 0 245 41v492h-307q-82 0 -82 -82v-379z" />
<glyph unicode="e" horiz-adv-x="1228" d="M82 287v491q0 154 87 241t241 87h409q154 0 241 -87t87 -241v-379h-707v-82q0 -31 20.5 -51t51.5 -20q203 0 594 30v-256q-386 -40 -702 -40h-15q-139 0 -223 83.5t-84 223.5zM440 655h348v113q0 82 -81 82h-185q-82 0 -82 -82v-113z" />
<glyph unicode="f" horiz-adv-x="921" d="M41 727v277h143v143q0 139 84 223t224 84q125 0 264 -8t227 -12v-277q-59 4 -157.5 12.5t-170 8.5t-92 -20.5t-20.5 -51.5v-102h338v-277h-338v-727h-359v727h-143z" />
<glyph unicode="g" horiz-adv-x="1269" d="M82 348v410q0 154 87 240.5t241 86.5h757v-1146q0 -139 -84 -223.5t-223 -84.5q-322 0 -717 41v267q391 -31 594 -31q31 0 51.5 20.5t20.5 51.5v102q-199 -41 -348 -41h-72q-139 0 -223 84t-84 223zM440 389q0 -31 20.5 -51.5t51.5 -20.5h51q129 0 246 21v471h-287 q-82 0 -82 -82v-338z" />
<glyph unicode="h" d="M102 0v1434h359v-369q199 41 348 41h92q139 0 223 -84t84 -223v-799h-358v758q0 31 -20.5 51t-51.5 20h-71q-78 0 -142.5 -8t-103.5 -12v-809h-359z" />
<glyph unicode="i" horiz-adv-x="655" d="M41 768v276h512v-1044h-358v768h-154zM195 1167v287h358v-287h-358z" />
<glyph unicode="j" horiz-adv-x="614" d="M-184 -82h266q31 0 51.5 20.5t20.5 51.5v1054h358v-1105q0 -139 -84 -223.5t-223 -84.5q-190 0 -389 21v266zM154 1167v287h358v-287h-358z" />
<glyph unicode="k" horiz-adv-x="1228" d="M102 0v1434h359v-727h164l225 378h379l-307 -522l307 -563h-379l-236 430h-153v-430h-359z" />
<glyph unicode="l" horiz-adv-x="696" d="M102 287v1147h359v-1096q0 -31 20.5 -51.5t50.5 -20.5h123v-266q-137 -20 -261 -20t-208 83.5t-84 223.5z" />
<glyph unicode="m" horiz-adv-x="1894" d="M102 0v1085h318l20 -102q96 63 197.5 93t171.5 30h20q166 0 256 -123q94 63 204 93t196 30h20q139 0 223 -84t84 -223v-799h-358v737q0 31 -20.5 51.5t-51.5 20.5h-10q-92 0 -235 -41v-768h-359v737q0 31 -20.5 51.5t-50.5 20.5h-11q-92 0 -235 -41v-768h-359z" />
<glyph unicode="n" d="M102 0v1085h318l20 -102q96 63 197.5 93t171.5 30h92q139 0 223 -84t84 -223v-799h-358v737q0 31 -20.5 51.5t-51.5 20.5h-71q-109 0 -246 -41v-768h-359z" />
<glyph unicode="o" d="M82 307v471q0 154 87 241t241 87h471q154 0 240.5 -87t86.5 -241v-471q0 -154 -87 -240.5t-240 -86.5h-471q-154 0 -241 87t-87 240zM440 338q0 -82 82 -82h246q82 0 82 82v410q0 81 -80 81h-2h-246q-82 0 -82 -81v-410z" />
<glyph unicode="p" d="M102 -348v1433h318l20 -102q96 63 197.5 93t171.5 30h92q139 0 223 -84t84 -223v-471q0 -154 -87 -241t-240 -87h-420v-348h-359zM461 276h307q82 0 82 82v379q0 31 -20.5 51.5t-51.5 20.5h-71q-109 0 -246 -41v-492z" />
<glyph unicode="q" horiz-adv-x="1269" d="M82 287v471q0 154 87 240.5t241 86.5h757v-1433h-358v368q-194 -40 -341 -40h-7h-72q-139 0 -223 83.5t-84 223.5zM440 328q0 -31 20.5 -51.5t51.5 -20.5h51q129 0 246 20v533h-287q-82 0 -82 -82v-399z" />
<glyph unicode="r" horiz-adv-x="942" d="M102 0v1085h318l20 -133q176 154 369 154h92v-318h-174q-129 0 -266 -61v-727h-359z" />
<glyph unicode="s" horiz-adv-x="1187" d="M41 707v71q0 139 84 223t223 84h696v-266h-573q-31 0 -51.5 -20.5t-20.5 -50.5q0 -31 20.5 -51.5t51.5 -20.5h369q139 0 223 -84t84 -223v-82q0 -139 -84 -223t-223 -84q-362 0 -779 40v267q416 -31 656 -31q31 0 51 20.5t20 51.5v71h-440q-139 0 -223 84t-84 224z" />
<glyph unicode="t" horiz-adv-x="901" d="M41 809v276h123l41 246h317v-246h256v-276h-256v-471q0 -31 20.5 -51.5t51.5 -20.5h266v-266q-199 -20 -389 -20q-139 0 -223 83.5t-84 223.5v522h-123z" />
<glyph unicode="u" horiz-adv-x="1310" d="M102 287v798h359v-737q0 -31 20.5 -51.5t50.5 -20.5h72q109 0 246 41v768h358v-1085h-317l-21 102q-96 -63 -197.5 -92.5t-170.5 -29.5h-92q-139 0 -223.5 83.5t-84.5 223.5z" />
<glyph unicode="v" horiz-adv-x="1187" d="M-20 1085h378l236 -737l235 737h379l-409 -1085h-410z" />
<glyph unicode="w" horiz-adv-x="1802" d="M-20 1085h389l184 -655l184 655h328l184 -655l185 655h389l-338 -1085h-379l-205 655l-205 -655h-379z" />
<glyph unicode="x" horiz-adv-x="1126" d="M-20 0l337 543l-327 542h399l174 -327l174 327h400l-328 -542l338 -543h-399l-185 328l-184 -328h-399z" />
<glyph unicode="y" horiz-adv-x="1167" d="M-20 1085h378l256 -696l215 696h379l-409 -1126q-59 -162 -153.5 -245t-256.5 -83q-109 0 -266 21v266h184q78 0 101 43q10 18 10 42q0 33 -19 79z" />
<glyph unicode="z" horiz-adv-x="1095" d="M41 0v276l563 533h-563v276h1014v-276l-563 -533h563v-276h-1014z" />
<glyph unicode="{" horiz-adv-x="757" d="M20 461v287h93q31 0 51 20t20 51v512q0 139 84 223t224 84h266v-286h-133q-31 0 -51.5 -20.5t-20.5 -51.5v-420q0 -178 -184 -256q184 -78 184 -256v-420q0 -31 20.5 -51t51.5 -20h133v-287h-266q-139 0 -223.5 84t-84.5 223v512q0 31 -20.5 51.5t-50.5 20.5h-93z" />
<glyph unicode="|" horiz-adv-x="614" d="M123 -348v1782h369v-1782h-369z" />
<glyph unicode="}" horiz-adv-x="757" d="M0 -143h133q31 0 51.5 20.5t20.5 50.5v420q0 178 184 256q-184 78 -184 256v420q0 31 -20.5 51.5t-51.5 20.5h-133v286h266q139 0 223 -84t84 -223v-512q0 -31 20.5 -51t51.5 -20h92v-287h-92q-31 0 -51.5 -20.5t-20.5 -51.5v-512q0 -139 -83.5 -223t-223.5 -84h-266v287 z" />
<glyph unicode="~" horiz-adv-x="1026" d="M20 676q53 133 173 215q59 41 134.5 41t117.5 -19.5t76 -42t65.5 -42t79.5 -19.5q94 0 186 113l154 -164q-57 -137 -175 -217q-59 -39 -134.5 -39t-117.5 19.5t-76 42t-67 42t-78 19.5q-94 0 -184 -113z" />
<glyph unicode="&#xa1;" horiz-adv-x="573" d="M102 225l41 430h287l41 -430v-573h-369v573zM102 778v307h369v-307h-369z" />
<glyph unicode="&#xa2;" horiz-adv-x="1126" d="M82 287v471q0 154 87 240.5t241 86.5h82l-21 185h307l-20 -185h307v-276h-543q-82 0 -82 -82v-399q0 -31 20.5 -51.5t51.5 -20.5q184 0 553 31v-267q-133 -14 -307 -24l20 -180h-307l18 166q-27 -2 -51 -2h-49q-139 0 -223 83.5t-84 223.5z" />
<glyph unicode="&#xa3;" horiz-adv-x="1157" d="M31 604v277h143v266q0 139 84 223t223 84q137 0 294 -8t259 -12v-277q-72 4 -141 10q-150 10 -289 11q-31 0 -51.5 -20.5t-20.5 -51.5v-225h318v-277h-318v-112q0 -127 -61 -205h666v-287h-1096v246q133 0 133 112v246h-143z" />
<glyph unicode="&#xa4;" horiz-adv-x="1495" d="M20 225l21 215h123v82h-144l21 223h123v689h860q215 0 312.5 -97.5t97.5 -312.5v-82q0 -217 -96.5 -318.5t-313.5 -101.5h-492v-82h533v-215h-533v-225h-368v225h-144zM532 737h410q123 0 123 123v164q0 123 -123 123h-410v-410z" />
<glyph unicode="&#xa5;" horiz-adv-x="1372" d="M-41 1434h389l338 -697l338 697h389l-338 -656h113v-215h-225l-41 -82h266v-215h-318v-266h-368v266h-318v215h267l-41 82h-226v215h113z" />
<glyph unicode="&#xa6;" horiz-adv-x="614" d="M123 -348v758h369v-758h-369zM123 676v758h369v-758h-369z" />
<glyph unicode="&#xa7;" horiz-adv-x="1208" d="M61 461v133q0 78 31 141t92 94q-123 78 -123 215v82q0 139 84 223.5t224 84.5h655v-267h-522q-31 0 -51.5 -20.5t-20.5 -50.5v-41q0 -59 82 -72l328 -51q147 -23 227 -99.5t80 -207.5v-123q0 -78 -31 -141.5t-92 -94.5q123 -78 123 -215v-112q0 -139 -84 -223.5 t-223 -84.5q-354 0 -758 41v277q385 -31 625 -31q31 0 51 20.5t20 51.5v102l-409 62q-147 23 -227.5 99.5t-80.5 207.5zM430 502q0 -59 82 -72l195 -31q31 0 51 20.5t20 51.5v184l-276 41q-31 0 -51.5 -20.5t-20.5 -50.5v-123z" />
<glyph unicode="&#xa8;" horiz-adv-x="819" d="M0 1362v287h348v-287h-348zM471 1362v287h348v-287h-348z" />
<glyph unicode="&#xa9;" horiz-adv-x="1740" d="M41 430v574q0 217 116.5 333.5t334.5 116.5h757q217 0 334 -116.5t117 -333.5v-574q0 -217 -117 -333.5t-334 -116.5h-757q-217 0 -334 116.5t-117 333.5zM348 369q0 -61 41 -102.5t103 -41.5h757q61 0 102.5 41t41.5 103v696q0 61 -41 102t-103 41h-757 q-61 0 -102.5 -41t-41.5 -102v-696zM502 563v277q0 123 66.5 189.5t189.5 66.5h461v-205h-359q-72 0 -72 -72v-235q1 -62 62 -62q137 0 369 31v-205q-268 -31 -471 -31q-117 0 -181.5 64.5t-64.5 181.5z" />
<glyph unicode="&#xaa;" horiz-adv-x="747" d="M20 901v62q0 92 56.5 148t148.5 56h236v62q0 61 -62 61q-72 0 -162 -12t-145 -18v163q55 6 113 15q139 16 261 16t181.5 -57.5t59.5 -157.5v-522h-215l-21 61q-133 -82 -235 -82h-11q-92 0 -148.5 56.5t-56.5 148.5zM266 922q0 -51 51 -52h11q57 0 133 31v103h-144 q-51 0 -51 -52v-30z" />
<glyph unicode="&#xab;" horiz-adv-x="1251" d="M20 543l472 542l206 -182l-311 -360l311 -359l-206 -184zM532 543l472 542l206 -182l-311 -360l311 -359l-206 -184z" />
<glyph unicode="&#xac;" horiz-adv-x="1105" d="M82 635v287h942v-471h-287v184h-655z" />
<glyph unicode="&#xad;" horiz-adv-x="962" d="M61 573v287h840v-287h-840z" />
<glyph unicode="&#xae;" horiz-adv-x="1740" d="M41 430v574q0 217 116.5 333.5t334.5 116.5h757q217 0 334 -116.5t117 -333.5v-574q0 -217 -117 -333.5t-334 -116.5h-757q-217 0 -334 116.5t-117 333.5zM348 369q0 -61 41 -102.5t103 -41.5h757q61 0 102.5 41t41.5 103v696q0 61 -41 102t-103 41h-757 q-61 0 -102.5 -41t-41.5 -102v-696zM502 338v758h522q123 0 189.5 -66.5t66.5 -189.5v-21q0 -100 -40 -156.5t-93 -78.5l133 -246h-297l-113 205h-82v-205h-286zM788 727h134q72 0 71 72v41q0 72 -71 71h-134v-184z" />
<glyph unicode="&#xaf;" horiz-adv-x="614" d="M0 1362v246h614v-246h-614z" />
<glyph unicode="&#xb0;" horiz-adv-x="798" d="M41 952v246q0 123 66.5 189.5t189.5 66.5h205q123 0 189.5 -66.5t66.5 -189.5v-246q0 -123 -66.5 -189.5t-189.5 -66.5h-205q-123 0 -189.5 66.5t-66.5 189.5zM287 952q0 -72 71 -71h82q72 0 72 71v246q0 72 -72 72h-82q-72 0 -71 -72v-246z" />
<glyph unicode="&#xb1;" horiz-adv-x="1105" d="M61 614v287h349v307h286v-307h348v-287h-348v-225h318v-287h-922v287h318v225h-349z" />
<glyph unicode="&#xb2;" horiz-adv-x="706" d="M41 696v205l379 266v41q0 61 -62 62h-297v184h369q117 0 176.5 -57.5t59.5 -159.5v-20q0 -125 -113 -203l-195 -133h308v-185h-625z" />
<glyph unicode="&#xb3;" horiz-adv-x="716" d="M41 727v174q215 -31 328 -31q61 0 61 62q0 61 -61 61h-226v164h205q61 0 62 62q0 61 -62 61h-297v174h369q117 0 176 -54t59 -138q0 -123 -108 -160q49 -12 89 -56.5t40 -139.5t-59.5 -152.5t-176.5 -57.5q-199 0 -399 31z" />
<glyph unicode="&#xb4;" horiz-adv-x="532" d="M20 1300l123 349h369l-225 -349h-267z" />
<glyph unicode="&#xb6;" horiz-adv-x="1413" d="M41 860v246q0 154 87 241t241 87h1003v-287h-184v-1495h-318v1495h-122v-1495h-318v880h-61q-154 0 -241 87.5t-87 240.5z" />
<glyph unicode="&#xb7;" horiz-adv-x="614" d="M123 563v307h369v-307h-369z" />
<glyph unicode="&#xb8;" horiz-adv-x="450" d="M0 -276h205q72 0 71 51q0 51 -71 51h-154v215h174v-82h21q100 0 152.5 -49t52.5 -135t-52.5 -135.5t-152.5 -49.5h-246v134z" />
<glyph unicode="&#xb9;" horiz-adv-x="512" d="M20 1362l205 92h226v-758h-246v553l-123 -41z" />
<glyph unicode="&#xba;" horiz-adv-x="778" d="M41 952v246q0 123 66.5 189.5t189.5 66.5h184q123 0 189.5 -66.5t66.5 -189.5v-246q0 -123 -66.5 -189.5t-189.5 -66.5h-184q-123 0 -189.5 66.5t-66.5 189.5zM287 952q0 -72 71 -71h62q72 0 72 71v246q0 72 -72 72h-62q-72 0 -71 -72v-246z" />
<glyph unicode="&#xbb;" horiz-adv-x="1251" d="M41 184l311 359l-311 360l207 182l471 -542l-471 -543zM553 184l311 359l-311 360l207 182l471 -542l-471 -543z" />
<glyph unicode="&#xbc;" horiz-adv-x="1536" d="M20 1362l205 92h226v-758h-246v553l-123 -41zM143 0l820 1434h307l-799 -1434h-328zM799 133v184l235 420h256l-235 -420h143v134h225v-134h72v-184h-72v-153h-225v153h-399z" />
<glyph unicode="&#xbd;" horiz-adv-x="1607" d="M20 1362l205 92h226v-758h-246v553l-123 -41zM143 0l820 1434h307l-799 -1434h-328zM922 -20v204l378 267v41q0 61 -61 61h-297v184h369q117 0 176 -57t59 -160v-20q0 -125 -112 -203l-195 -133h307v-184h-624z" />
<glyph unicode="&#xbe;" horiz-adv-x="1679" d="M41 727v174q215 -31 328 -31q61 0 61 62q0 61 -61 61h-226v164h205q61 0 62 62q0 61 -62 61h-297v174h369q117 0 176 -54t59 -138q0 -123 -108 -160q49 -12 89 -56.5t40 -139.5t-59.5 -152.5t-176.5 -57.5q-199 0 -399 31zM287 0l819 1434h307l-799 -1434h-327zM942 133 v184l236 420h256l-236 -420h143v134h226v-134h71v-184h-71v-153h-226v153h-399z" />
<glyph unicode="&#xbf;" horiz-adv-x="1187" d="M41 20v93q0 154 61 233q63 84 215 135l205 72v102h369v-286l-481 -174v-175q0 -47 27.5 -74.5t74.5 -27.5q203 0 655 31v-277q-395 -41 -737 -41q-201 0 -295 94.5t-94 294.5zM522 778v307h369v-307h-369z" />
<glyph unicode="&#xc0;" horiz-adv-x="1454" d="M-20 0l542 1434h410l543 -1434h-400l-92 256h-512l-92 -256h-399zM0 0zM379 1843h348l123 -348h-246zM563 522h328l-164 482z" />
<glyph unicode="&#xc1;" horiz-adv-x="1454" d="M-20 0l542 1434h410l543 -1434h-400l-92 256h-512l-92 -256h-399zM0 0zM563 522h328l-164 482zM583 1497l123 349h369l-225 -349h-267z" />
<glyph unicode="&#xc2;" horiz-adv-x="1454" d="M-20 0l542 1434h410l543 -1434h-400l-92 256h-512l-92 -256h-399zM0 0zM338 1497l246 349h286l246 -349h-256l-133 164l-133 -164h-256zM563 522h328l-164 482z" />
<glyph unicode="&#xc3;" horiz-adv-x="1454" d="M-20 0l542 1434h410l543 -1434h-400l-92 256h-512l-92 -256h-399zM0 0zM369 1590q33 127 121 198q45 37 101.5 37t88 -16.5t59 -35t54 -34.5t57.5 -16q66 0 103 82l133 -82q-18 -66 -49 -115q-72 -121 -187 -121q-43 0 -74.5 16.5t-59.5 35t-54.5 35t-56.5 16.5 q-66 0 -103 -82zM563 522h328l-164 482z" />
<glyph unicode="&#xc4;" horiz-adv-x="1454" d="M-20 0l542 1434h410l543 -1434h-400l-92 256h-512l-92 -256h-399zM0 0zM317 1497v287h348v-287h-348zM563 522h328l-164 482zM788 1497v287h348v-287h-348z" />
<glyph unicode="&#xc5;" horiz-adv-x="1454" d="M-20 0l542 1434h410l543 -1434h-400l-92 256h-512l-92 -256h-399zM0 0zM461 1682v31q0 86 52 135t152 49h123q100 0 152.5 -49t52.5 -135v-31q0 -86 -52 -135.5t-153 -49.5h-123q-100 0 -152 49.5t-52 135.5zM563 522h328l-164 482zM635 1692q0 -61 61 -61h61q61 0 62 61 v10q0 61 -62 62h-61q-61 0 -61 -62v-10z" />
<glyph unicode="&#xc6;" horiz-adv-x="2037" d="M-20 0l542 1434h1475v-287h-686v-277h522v-286h-522v-297h686v-287h-1055v256h-471l-92 -256h-399zM563 522h379v625h-164z" />
<glyph unicode="&#xc7;" horiz-adv-x="1269" d="M82 0zM82 369v655q0 215 97 312.5t313 97.5h737v-287h-656q-123 0 -122 -123v-655q0 -47 27.5 -75t70.5 -28t94 1t106.5 3t112 4t145.5 8.5t222 14.5v-277q-457 -41 -758 -40q-201 0 -295 94t-94 295zM512 -276h205q72 0 71 51q0 51 -71 51h-154v215h174v-82h21 q100 0 152.5 -49t52.5 -135t-52.5 -135.5t-152.5 -49.5h-246v134z" />
<glyph unicode="&#xc8;" horiz-adv-x="1300" d="M123 0v1434h1137v-287h-768v-277h604v-286h-604v-297h768v-287h-1137zM123 0zM393 1845h348l123 -348h-246z" />
<glyph unicode="&#xc9;" horiz-adv-x="1300" d="M123 0v1434h1137v-287h-768v-277h604v-286h-604v-297h768v-287h-1137zM123 0zM546 1497l123 349h369l-225 -349h-267z" />
<glyph unicode="&#xca;" horiz-adv-x="1300" d="M123 0v1434h1137v-287h-768v-277h604v-286h-604v-297h768v-287h-1137zM123 0zM301 1497l246 349h286l246 -349h-256l-133 164l-133 -164h-256z" />
<glyph unicode="&#xcb;" horiz-adv-x="1300" d="M123 0v1434h1137v-287h-768v-277h604v-286h-604v-297h768v-287h-1137zM123 0zM281 1559v287h348v-287h-348zM752 1559v287h348v-287h-348z" />
<glyph unicode="&#xcc;" horiz-adv-x="860" d="M61 0v287h185v860h-185v287h738v-287h-185v-860h185v-287h-738zM61 0zM113 1843h348l123 -348h-246z" />
<glyph unicode="&#xcd;" horiz-adv-x="860" d="M61 0v287h185v860h-185v287h738v-287h-185v-860h185v-287h-738zM61 0zM286 1497l123 349h369l-225 -349h-267z" />
<glyph unicode="&#xce;" horiz-adv-x="860" d="M41 0zM41 1495l246 349h286l246 -349h-256l-133 164l-133 -164h-256zM61 0v287h185v860h-185v287h738v-287h-185v-860h185v-287h-738z" />
<glyph unicode="&#xcf;" horiz-adv-x="860" d="M20 0zM20 1559v287h348v-287h-348zM61 0v287h185v860h-185v287h738v-287h-185v-860h185v-287h-738zM491 1559v287h348v-287h-348z" />
<glyph unicode="&#xd0;" horiz-adv-x="1515" d="M41 584v276h123v574h799q231 0 351 -120t120 -351v-492q0 -231 -120 -351t-351 -120h-799v584h-123zM532 287h349q184 0 184 184v492q0 184 -184 184h-349v-287h246v-276h-246v-297z" />
<glyph unicode="&#xd1;" horiz-adv-x="1495" d="M123 0v1434h389l492 -861v861h368v-1434h-389l-491 860v-860h-369zM123 0zM389 1610q33 127 121 198q45 37 101.5 37t88 -16.5t59 -35t54 -34.5t57.5 -16q66 0 103 82l133 -82q-18 -66 -49 -115q-72 -121 -187 -121q-43 0 -74.5 16.5t-59.5 35t-54.5 35t-56.5 16.5 q-66 0 -103 -82z" />
<glyph unicode="&#xd2;" horiz-adv-x="1495" d="M82 0zM82 389v655q0 215 97 312.5t313 97.5h512q215 0 312 -97t97 -313v-655q0 -215 -97 -312t-312 -97h-512q-215 0 -312.5 97t-97.5 312zM430 1864h348l123 -348h-246zM451 389q0 -123 122 -123h349q123 0 122 123v655q0 123 -122 123h-349q-123 0 -122 -123v-655z" />
<glyph unicode="&#xd3;" horiz-adv-x="1495" d="M82 0zM82 389v655q0 215 97 312.5t313 97.5h512q215 0 312 -97t97 -313v-655q0 -215 -97 -312t-312 -97h-512q-215 0 -312.5 97t-97.5 312zM451 389q0 -123 122 -123h349q123 0 122 123v655q0 123 -122 123h-349q-123 0 -122 -123v-655zM604 1517l123 349h369l-225 -349 h-267z" />
<glyph unicode="&#xd4;" horiz-adv-x="1495" d="M82 0zM82 389v655q0 215 97 312.5t313 97.5h512q215 0 312 -97t97 -313v-655q0 -215 -97 -312t-312 -97h-512q-215 0 -312.5 97t-97.5 312zM358 1517l246 349h286l246 -349h-256l-133 164l-133 -164h-256zM451 389q0 -123 122 -123h349q123 0 122 123v655q0 123 -122 123 h-349q-123 0 -122 -123v-655z" />
<glyph unicode="&#xd5;" horiz-adv-x="1495" d="M82 0zM82 389v655q0 215 97 312.5t313 97.5h512q215 0 312 -97t97 -313v-655q0 -215 -97 -312t-312 -97h-512q-215 0 -312.5 97t-97.5 312zM389 1631q33 127 121 198q45 37 101.5 37t88 -16.5t59 -35t54 -34.5t57.5 -16q66 0 103 82l133 -82q-18 -66 -49 -115 q-72 -121 -187 -121q-43 0 -74.5 16.5t-59.5 35t-54.5 35t-56.5 16.5q-66 0 -103 -82zM451 389q0 -123 122 -123h349q123 0 122 123v655q0 123 -122 123h-349q-123 0 -122 -123v-655z" />
<glyph unicode="&#xd6;" horiz-adv-x="1495" d="M82 0zM82 389v655q0 215 97 312.5t313 97.5h512q215 0 312 -97t97 -313v-655q0 -215 -97 -312t-312 -97h-512q-215 0 -312.5 97t-97.5 312zM338 1559v287h348v-287h-348zM451 389q0 -123 122 -123h349q123 0 122 123v655q0 123 -122 123h-349q-123 0 -122 -123v-655z M809 1559v287h348v-287h-348z" />
<glyph unicode="&#xd7;" horiz-adv-x="1105" d="M82 451l266 266l-266 266l205 205l266 -266l266 266l205 -205l-266 -266l266 -266l-205 -205l-266 266l-266 -266z" />
<glyph unicode="&#xd8;" horiz-adv-x="1495" d="M51 102l64 70q-33 84 -33 217v655q0 215 97 312.5t313 97.5h512q147 0 243 -49l53 59l144 -133l-66 -71q35 -82 35 -216v-655q0 -215 -97 -312t-312 -97h-512q-150 0 -244 47l-53 -58zM451 537l555 606q-31 25 -84 24h-349q-123 0 -122 -123v-507zM487 289q29 -23 86 -23 h349q123 0 122 123v506z" />
<glyph unicode="&#xd9;" horiz-adv-x="1536" d="M123 0zM123 389v1045h369v-1045q0 -123 122 -123h308q123 0 122 123v1045h369v-1045q0 -215 -97 -312t-312 -97h-472q-215 0 -312 97t-97 312zM451 1825h348l123 -348h-246z" />
<glyph unicode="&#xda;" horiz-adv-x="1536" d="M123 0zM123 389v1045h369v-1045q0 -123 122 -123h308q123 0 122 123v1045h369v-1045q0 -215 -97 -312t-312 -97h-472q-215 0 -312 97t-97 312zM624 1476l123 349h369l-225 -349h-267z" />
<glyph unicode="&#xdb;" horiz-adv-x="1536" d="M123 0zM123 389v1045h369v-1045q0 -123 122 -123h308q123 0 122 123v1045h369v-1045q0 -215 -97 -312t-312 -97h-472q-215 0 -312 97t-97 312zM379 1497l246 349h286l246 -349h-256l-133 164l-133 -164h-256z" />
<glyph unicode="&#xdc;" horiz-adv-x="1536" d="M123 0zM123 389v1045h369v-1045q0 -123 122 -123h308q123 0 122 123v1045h369v-1045q0 -215 -97 -312t-312 -97h-472q-215 0 -312 97t-97 312zM358 1538v287h348v-287h-348zM829 1538v287h348v-287h-348z" />
<glyph unicode="&#xdd;" horiz-adv-x="1372" d="M-41 1434h389l338 -697l338 697h389l-543 -1055v-379h-368v379zM0 0zM522 1476l123 349h369l-225 -349h-267z" />
<glyph unicode="&#xde;" horiz-adv-x="1495" d="M123 -20v1474h369v-164h532q215 0 312.5 -97t97.5 -312v-328q0 -215 -97.5 -312.5t-312.5 -97.5h-532v-163h-369zM492 430h450q123 0 123 123v328q0 123 -123 123h-450v-574z" />
<glyph unicode="&#xdf;" horiz-adv-x="1269" d="M102 0v1126q0 154 87 241t241 87h307q154 0 241 -87t87 -241v-184q0 -113 -61 -174q100 -23 162.5 -91.5t62.5 -184.5v-205q0 -140 -84 -223.5t-218 -83.5t-272 20v256h144q31 0 51 20.5t20 51.5v184q0 82 -82 82h-184v276h21q82 0 82 82v144q0 82 -82 82h-82 q-82 0 -82 -82v-1096h-359z" />
<glyph unicode="&#xe0;" horiz-adv-x="1218" d="M51 0zM51 287v92q0 139 84 223t223 84h420v82q0 31 -20.5 51.5t-50.5 20.5q-133 0 -294 -12.5t-259 -18.5v256q375 41 675 41q139 0 223.5 -84t84.5 -223v-799h-318l-20 102q-96 -63 -197.5 -92.5t-171.5 -29.5h-72q-139 0 -223 83.5t-84 223.5zM311 1515h348l123 -348 h-246zM410 338q0 -31 20.5 -51.5t50.5 -20.5h51q109 0 246 41v123h-297q-31 0 -51 -20.5t-20 -51.5v-20z" />
<glyph unicode="&#xe1;" horiz-adv-x="1218" d="M51 0zM51 287v92q0 139 84 223t223 84h420v82q0 31 -20.5 51.5t-50.5 20.5q-133 0 -294 -12.5t-259 -18.5v256q375 41 675 41q139 0 223.5 -84t84.5 -223v-799h-318l-20 102q-96 -63 -197.5 -92.5t-171.5 -29.5h-72q-139 0 -223 83.5t-84 223.5zM410 338 q0 -31 20.5 -51.5t50.5 -20.5h51q109 0 246 41v123h-297q-31 0 -51 -20.5t-20 -51.5v-20zM448 1169l123 349h369l-225 -349h-267z" />
<glyph unicode="&#xe2;" horiz-adv-x="1218" d="M51 0zM51 287v92q0 139 84 223t223 84h420v82q0 31 -20.5 51.5t-50.5 20.5q-133 0 -294 -12.5t-259 -18.5v256q375 41 675 41q139 0 223.5 -84t84.5 -223v-799h-318l-20 102q-96 -63 -197.5 -92.5t-171.5 -29.5h-72q-139 0 -223 83.5t-84 223.5zM266 1169l246 349h286 l246 -349h-256l-133 164l-133 -164h-256zM410 338q0 -31 20.5 -51.5t50.5 -20.5h51q109 0 246 41v123h-297q-31 0 -51 -20.5t-20 -51.5v-20z" />
<glyph unicode="&#xe3;" horiz-adv-x="1218" d="M51 0zM51 287v92q0 139 84 223t223 84h420v82q0 31 -20.5 51.5t-50.5 20.5q-133 0 -294 -12.5t-259 -18.5v256q375 41 675 41q139 0 223.5 -84t84.5 -223v-799h-318l-20 102q-96 -63 -197.5 -92.5t-171.5 -29.5h-72q-139 0 -223 83.5t-84 223.5zM291 1272q33 127 121 198 q45 37 101.5 37t88 -16.5t59 -35t54 -34.5t57.5 -16q66 0 103 82l133 -82q-18 -66 -49 -115q-72 -121 -187 -121q-43 0 -74.5 16.5t-59.5 35t-54.5 35t-56.5 16.5q-66 0 -103 -82zM410 338q0 -31 20.5 -51.5t50.5 -20.5h51q109 0 246 41v123h-297q-31 0 -51 -20.5t-20 -51.5 v-20z" />
<glyph unicode="&#xe4;" horiz-adv-x="1218" d="M51 0zM51 287v92q0 139 84 223t223 84h420v82q0 31 -20.5 51.5t-50.5 20.5q-133 0 -294 -12.5t-259 -18.5v256q375 41 675 41q139 0 223.5 -84t84.5 -223v-799h-318l-20 102q-96 -63 -197.5 -92.5t-171.5 -29.5h-72q-139 0 -223 83.5t-84 223.5zM246 1210v287h348v-287 h-348zM410 338q0 -31 20.5 -51.5t50.5 -20.5h51q109 0 246 41v123h-297q-31 0 -51 -20.5t-20 -51.5v-20zM717 1210v287h348v-287h-348z" />
<glyph unicode="&#xe5;" horiz-adv-x="1218" d="M51 0zM51 287v92q0 139 84 223t223 84h420v82q0 31 -20.5 51.5t-50.5 20.5q-133 0 -294 -12.5t-259 -18.5v256q375 41 675 41q139 0 223.5 -84t84.5 -223v-799h-318l-20 102q-96 -63 -197.5 -92.5t-171.5 -29.5h-72q-139 0 -223 83.5t-84 223.5zM363 1352v31q0 86 52 135 t152 49h123q100 0 152.5 -49t52.5 -135v-31q0 -86 -52 -135.5t-153 -49.5h-123q-100 0 -152 49.5t-52 135.5zM410 338q0 -31 20.5 -51.5t50.5 -20.5h51q109 0 246 41v123h-297q-31 0 -51 -20.5t-20 -51.5v-20zM537 1362q0 -61 61 -61h61q61 0 62 61v10q0 61 -62 62h-61 q-61 0 -61 -62v-10z" />
<glyph unicode="&#xe6;" horiz-adv-x="1884" d="M51 287v92q0 139 84 223t223 84h400v90q-4 29 -23.5 46.5t-75.5 17.5q-106 0 -319 -17l-186 -14v256q313 41 583 41q127 0 215 -72q80 72 215 72h308q154 0 240.5 -87t86.5 -241v-358h-686v-113q0 -23 20.5 -42t51.5 -19q205 0 573 30v-256q-383 -41 -696 -40 q-141 0 -217 65q-35 29 -49 68q-102 -72 -207 -102.5t-182 -30.5h-52q-139 0 -223 83.5t-84 223.5zM410 338q0 -31 20.5 -51.5t50.5 -20.5h31q109 0 246 41v123h-277q-31 0 -51 -20.5t-20 -51.5v-20zM1116 676h328v92q0 82 -82 82h-164q-82 0 -82 -82v-92z" />
<glyph unicode="&#xe7;" horiz-adv-x="1126" d="M82 0zM82 287v471q0 154 87 240.5t241 86.5h655v-276h-543q-82 0 -82 -82v-399q0 -31 20.5 -51.5t51.5 -20.5q184 0 553 31v-267q-383 -41 -676 -40q-139 0 -223 83.5t-84 223.5zM420 -276h205q72 0 71 51q0 51 -71 51h-154v215h174v-82h21q100 0 152.5 -49t52.5 -135 t-52.5 -135.5t-152.5 -49.5h-246v134z" />
<glyph unicode="&#xe8;" horiz-adv-x="1228" d="M82 0zM82 287v491q0 154 87 241t241 87h409q154 0 241 -87t87 -241v-379h-707v-82q0 -31 20.5 -51t51.5 -20q203 0 594 30v-256q-395 -41 -717 -40q-139 0 -223 83.5t-84 223.5zM297 1515h348l123 -348h-246zM440 655h348v113q0 82 -81 82h-185q-82 0 -82 -82v-113z" />
<glyph unicode="&#xe9;" horiz-adv-x="1228" d="M82 0zM82 287v491q0 154 87 241t241 87h409q154 0 241 -87t87 -241v-379h-707v-82q0 -31 20.5 -51t51.5 -20q203 0 594 30v-256q-395 -41 -717 -40q-139 0 -223 83.5t-84 223.5zM440 655h348v113q0 82 -81 82h-185q-82 0 -82 -82v-113zM450 1169l123 349h369l-225 -349 h-267z" />
<glyph unicode="&#xea;" horiz-adv-x="1228" d="M82 0zM82 287v491q0 154 87 241t241 87h409q154 0 241 -87t87 -241v-379h-707v-82q0 -31 20.5 -51t51.5 -20q203 0 594 30v-256q-395 -41 -717 -40q-139 0 -223 83.5t-84 223.5zM225 1169l246 349h286l246 -349h-256l-133 164l-133 -164h-256zM440 655h348v113 q0 82 -81 82h-185q-82 0 -82 -82v-113z" />
<glyph unicode="&#xeb;" horiz-adv-x="1228" d="M82 0zM82 287v491q0 154 87 241t241 87h409q154 0 241 -87t87 -241v-379h-707v-82q0 -31 20.5 -51t51.5 -20q203 0 594 30v-256q-395 -41 -717 -40q-139 0 -223 83.5t-84 223.5zM205 1167v287h348v-287h-348zM440 655h348v113q0 82 -81 82h-185q-82 0 -82 -82v-113z M676 1167v287h348v-287h-348z" />
<glyph unicode="&#xec;" horiz-adv-x="655" d="M41 809v276h512v-1085h-358v809h-154zM49 1516h348l123 -349h-246z" />
<glyph unicode="&#xed;" horiz-adv-x="655" d="M41 809v276h512v-1085h-358v809h-154zM205 1169l123 349h368l-225 -349h-266z" />
<glyph unicode="&#xee;" horiz-adv-x="655" d="M-51 1165l246 348h286l246 -348h-256l-133 164l-133 -164h-256zM41 809v276h512v-1085h-358v809h-154z" />
<glyph unicode="&#xef;" horiz-adv-x="655" d="M-82 1167v287h348v-287h-348zM41 809v276h512v-1085h-358v809h-154zM389 1167v287h348v-287h-348z" />
<glyph unicode="&#xf0;" horiz-adv-x="1249" d="M82 307v287q0 139 84 223t223 84h92q150 0 348 -41v133q0 53 -35.5 86t-97.5 39l-82 8l-10 -112l-235 20l10 117l-164 16l31 287l162 -14l12 127l235 -21l-12 -129l135 -14q186 -20 297 -133q113 -117 113 -277v-686q0 -154 -87 -240.5t-241 -86.5h-450q-154 0 -241 87 t-87 240zM440 338q0 -82 82 -82h226q82 0 81 82v266q-39 4 -75 10q-84 10 -170 11h-72q-31 0 -51.5 -20.5t-20.5 -51.5v-215z" />
<glyph unicode="&#xf1;" d="M102 0v1085h318l20 -102q96 63 197.5 93t171.5 30h92q139 0 223 -84t84 -223v-799h-358v737q0 31 -20.5 51.5t-51.5 20.5h-71q-109 0 -246 -41v-768h-359zM102 0zM287 1293q33 127 121 198q45 37 101.5 37t88 -16.5t59 -35t54 -34.5t57.5 -16q66 0 103 82l133 -82 q-18 -66 -49 -115q-72 -121 -187 -121q-43 0 -74.5 16.5t-59.5 35t-54.5 35t-56.5 16.5q-66 0 -103 -82z" />
<glyph unicode="&#xf2;" d="M82 0zM82 307v471q0 154 87 241t241 87h471q154 0 240.5 -87t86.5 -241v-471q0 -154 -87 -240.5t-240 -86.5h-471q-154 0 -241 87t-87 240zM307 1515h348l123 -348h-246zM440 338q0 -82 82 -82h246q82 0 82 82v410q0 82 -82 81h-246q-82 0 -82 -81v-410z" />
<glyph unicode="&#xf3;" d="M82 0zM82 307v471q0 154 87 241t241 87h471q154 0 240.5 -87t86.5 -241v-471q0 -154 -87 -240.5t-240 -86.5h-471q-154 0 -241 87t-87 240zM440 338q0 -82 82 -82h246q82 0 82 82v410q0 82 -82 81h-246q-82 0 -82 -81v-410zM501 1167l123 349h369l-225 -349h-267z" />
<glyph unicode="&#xf4;" d="M82 0zM82 307v471q0 154 87 241t241 87h471q154 0 240.5 -87t86.5 -241v-471q0 -154 -87 -240.5t-240 -86.5h-471q-154 0 -241 87t-87 240zM256 1169l246 349h286l246 -349h-256l-133 164l-133 -164h-256zM440 338q0 -82 82 -82h246q82 0 82 82v410q0 82 -82 81h-246 q-82 0 -82 -81v-410z" />
<glyph unicode="&#xf5;" d="M82 0zM82 307v471q0 154 87 241t241 87h471q154 0 240.5 -87t86.5 -241v-471q0 -154 -87 -240.5t-240 -86.5h-471q-154 0 -241 87t-87 240zM287 1272q33 127 121 198q45 37 101.5 37t88 -16.5t59 -35t54 -34.5t57.5 -16q66 0 103 82l133 -82q-18 -66 -49 -115 q-72 -121 -187 -121q-43 0 -74.5 16.5t-59.5 35t-54.5 35t-56.5 16.5q-66 0 -103 -82zM440 338q0 -82 82 -82h246q82 0 82 82v410q0 82 -82 81h-246q-82 0 -82 -81v-410z" />
<glyph unicode="&#xf6;" d="M82 0zM82 307v471q0 154 87 241t241 87h471q154 0 240.5 -87t86.5 -241v-471q0 -154 -87 -240.5t-240 -86.5h-471q-154 0 -241 87t-87 240zM236 1208v287h348v-287h-348zM440 338q0 -82 82 -82h246q82 0 82 82v410q0 82 -82 81h-246q-82 0 -82 -81v-410zM707 1208v287 h348v-287h-348z" />
<glyph unicode="&#xf7;" horiz-adv-x="1105" d="M61 573v287h983v-287h-983zM389 184v287h328v-287h-328zM389 963v286h328v-286h-328z" />
<glyph unicode="&#xf8;" d="M31 113l71 63q-20 55 -20 131v471q0 154 87 241t241 87h471q113 0 190 -49l66 59l123 -143l-72 -66q20 -57 20 -129v-471q0 -154 -87 -240.5t-240 -86.5h-471q-115 0 -193 47l-63 -58zM440 483l369 336q-20 10 -41 10h-246q-82 0 -82 -81v-265zM481 266q20 -10 41 -10 h246q82 0 82 82v262z" />
<glyph unicode="&#xf9;" horiz-adv-x="1310" d="M102 0zM102 287v798h359v-737q0 -31 20.5 -51.5t50.5 -20.5h72q109 0 246 41v768h358v-1085h-317l-21 102q-96 -63 -197.5 -92.5t-170.5 -29.5h-92q-139 0 -223.5 83.5t-84.5 223.5zM338 1495h348l123 -348h-246z" />
<glyph unicode="&#xfa;" horiz-adv-x="1310" d="M102 0zM102 287v798h359v-737q0 -31 20.5 -51.5t50.5 -20.5h72q109 0 246 41v768h358v-1085h-317l-21 102q-96 -63 -197.5 -92.5t-170.5 -29.5h-92q-139 0 -223.5 83.5t-84.5 223.5zM491 1146l123 349h369l-225 -349h-267z" />
<glyph unicode="&#xfb;" horiz-adv-x="1310" d="M102 0zM102 287v798h359v-737q0 -31 20.5 -51.5t50.5 -20.5h72q109 0 246 41v768h358v-1085h-317l-21 102q-96 -63 -197.5 -92.5t-170.5 -29.5h-92q-139 0 -223.5 83.5t-84.5 223.5zM266 1167l246 349h286l246 -349h-256l-133 164l-133 -164h-256z" />
<glyph unicode="&#xfc;" horiz-adv-x="1310" d="M102 0zM102 287v798h359v-737q0 -31 20.5 -51.5t50.5 -20.5h72q109 0 246 41v768h358v-1085h-317l-21 102q-96 -63 -197.5 -92.5t-170.5 -29.5h-92q-139 0 -223.5 83.5t-84.5 223.5zM246 1167v287h348v-287h-348zM717 1167v287h348v-287h-348z" />
<glyph unicode="&#xfd;" horiz-adv-x="1167" d="M-20 1085h378l256 -696l215 696h379l-409 -1126q-59 -162 -153.5 -245t-256.5 -83q-109 0 -266 21v266h184q78 0 101.5 43t-9.5 121zM0 0zM440 1146l123 349h369l-225 -349h-267z" />
<glyph unicode="&#xfe;" d="M102 -348v1782h359v-349h420q154 0 240.5 -87t86.5 -240v-430q0 -154 -87 -241t-240 -87h-420v-348h-359zM461 276h307q82 0 82 82v369q0 82 -82 82h-307v-533z" />
<glyph unicode="&#xff;" horiz-adv-x="1167" d="M-20 1085h378l256 -696l215 696h379l-409 -1126q-59 -162 -153.5 -245t-256.5 -83q-109 0 -266 21v266h184q78 0 101.5 43t-9.5 121zM0 0zM174 1208v287h348v-287h-348zM645 1208v287h348v-287h-348z" />
<glyph unicode="&#x152;" horiz-adv-x="2037" d="M82 410v614q0 215 97 312.5t313 97.5h1505v-287h-686v-277h522v-286h-522v-297h686v-287h-1505q-215 0 -312.5 97.5t-97.5 312.5zM451 410q0 -123 122 -123h369v860h-369q-123 0 -122 -123v-614z" />
<glyph unicode="&#x153;" horiz-adv-x="1935" d="M82 307v471q0 154 87 241t241 87h368q127 0 215 -72q88 72 205 72h328q154 0 240.5 -87t86.5 -241v-379h-686v-82q0 -31 20.5 -51t51.5 -20q205 0 573 30v-256q-293 -41 -604 -40q-143 0 -215 71q-80 -72 -215 -71h-368q-154 0 -241 87t-87 240zM440 338q0 -82 82 -82 h205q82 0 82 82v410q0 82 -82 81h-205q-82 0 -82 -81v-410zM1167 655h328v113q0 82 -82 82h-164q-82 0 -82 -82v-113z" />
<glyph unicode="&#x178;" horiz-adv-x="1372" d="M-41 1434h389l338 -697l338 697h389l-543 -1055v-379h-368v379zM0 0zM276 1497v287h348v-287h-348zM747 1497v287h348v-287h-348z" />
<glyph unicode="&#x2c6;" horiz-adv-x="778" d="M0 1300l246 349h286l246 -349h-256l-133 164l-133 -164h-256z" />
<glyph unicode="&#x2dc;" horiz-adv-x="716" d="M0 1434q33 127 121 198q45 37 101.5 37t88 -16.5t59 -35t54 -34.5t57.5 -16q66 0 103 82l133 -82q-18 -66 -49 -115q-72 -121 -187 -121q-43 0 -74.5 16.5t-59.5 35t-54.5 35t-56.5 16.5q-66 0 -103 -82z" />
<glyph unicode="&#x2000;" horiz-adv-x="948" />
<glyph unicode="&#x2001;" horiz-adv-x="1897" />
<glyph unicode="&#x2002;" horiz-adv-x="948" />
<glyph unicode="&#x2003;" horiz-adv-x="1897" />
<glyph unicode="&#x2004;" horiz-adv-x="632" />
<glyph unicode="&#x2005;" horiz-adv-x="474" />
<glyph unicode="&#x2006;" horiz-adv-x="316" />
<glyph unicode="&#x2007;" horiz-adv-x="316" />
<glyph unicode="&#x2008;" horiz-adv-x="237" />
<glyph unicode="&#x2009;" horiz-adv-x="379" />
<glyph unicode="&#x200a;" horiz-adv-x="105" />
<glyph unicode="&#x2010;" horiz-adv-x="962" d="M61 573v287h840v-287h-840z" />
<glyph unicode="&#x2011;" horiz-adv-x="962" d="M61 573v287h840v-287h-840z" />
<glyph unicode="&#x2012;" horiz-adv-x="962" d="M61 573v287h840v-287h-840z" />
<glyph unicode="&#x2013;" d="M61 584v266h1168v-266h-1168z" />
<glyph unicode="&#x2014;" horiz-adv-x="1638" d="M61 584v266h1516v-266h-1516z" />
<glyph unicode="&#x2018;" horiz-adv-x="491" d="M61 922v286l144 226h184l-82 -205h123v-307h-369z" />
<glyph unicode="&#x2019;" horiz-adv-x="491" d="M61 1126v308h369v-287l-143 -225h-185l82 204h-123z" />
<glyph unicode="&#x201a;" horiz-adv-x="491" d="M61 0v307h369v-287l-143 -225h-185l82 205h-123z" />
<glyph unicode="&#x201c;" horiz-adv-x="942" d="M61 922v286l144 226h184l-82 -205h123v-307h-369zM512 922v286l143 226h185l-82 -205h123v-307h-369z" />
<glyph unicode="&#x201d;" horiz-adv-x="942" d="M61 1126v308h369v-287l-143 -225h-185l82 204h-123zM512 1126v308h369v-287l-144 -225h-184l82 204h-123z" />
<glyph unicode="&#x201e;" horiz-adv-x="942" d="M61 0v307h369v-287l-143 -225h-185l82 205h-123zM512 0v307h369v-287l-144 -225h-184l82 205h-123z" />
<glyph unicode="&#x2022;" horiz-adv-x="737" d="M102 676v82q0 100 62.5 162.5t163.5 62.5h82q100 0 162.5 -62.5t62.5 -162.5v-82q0 -100 -62.5 -162.5t-162.5 -62.5h-82q-100 0 -163 62t-63 163z" />
<glyph unicode="&#x2026;" horiz-adv-x="1474" d="M61 0v307h369v-307h-369zM553 0v307h369v-307h-369zM1044 0v307h369v-307h-369z" />
<glyph unicode="&#x202f;" horiz-adv-x="379" />
<glyph unicode="&#x2039;" horiz-adv-x="739" d="M20 543l472 542l206 -182l-311 -360l311 -359l-206 -184z" />
<glyph unicode="&#x203a;" horiz-adv-x="739" d="M41 184l311 359l-311 360l207 182l471 -542l-471 -543z" />
<glyph unicode="&#x205f;" horiz-adv-x="474" />
<glyph unicode="&#x20ac;" horiz-adv-x="1351" d="M20 451l21 215h123v82h-144l21 215h123v61q0 215 97 312.5t312 97.5h738v-287h-656q-123 0 -123 -123v-61h492v-215h-492v-82h492v-215h-492v-82q0 -47 28 -75t71 -28t94 1t106.5 3t111.5 4t145.5 8.5t222.5 14.5v-277q-457 -41 -758 -40q-201 0 -295 94t-94 295v82h-144 z" />
<glyph unicode="&#x2122;" horiz-adv-x="1904" d="M20 1249v185h758v-185h-246v-573h-266v573h-246zM840 676v758h266l225 -410l225 410h267v-758h-267v368l-122 -225h-205l-123 225v-368h-266z" />
<glyph unicode="&#x25fc;" horiz-adv-x="1085" d="M0 0v1085h1085v-1085h-1085z" />
</font>
</defs>
</svg>
