<?xml version="1.0" standalone="no"?>
<!DOCTYPE svg PUBLIC "-//W3C//DTD SVG 1.1//EN" "http://www.w3.org/Graphics/SVG/1.1/DTD/svg11.dtd" >
<svg xmlns="http://www.w3.org/2000/svg">
<metadata></metadata>
<defs>
<font id="quicksandlight" horiz-adv-x="1255" >
<font-face units-per-em="2048" ascent="1638" descent="-410" />
<missing-glyph horiz-adv-x="614" />
<glyph horiz-adv-x="0" />
<glyph horiz-adv-x="682" />
<glyph unicode=" "  horiz-adv-x="614" />
<glyph unicode="&#x09;" horiz-adv-x="614" />
<glyph unicode="&#xa0;" horiz-adv-x="614" />
<glyph unicode="!" horiz-adv-x="516" d="M190 27v49q0 9 7.5 16.5t19.5 7.5q9 0 17 -7.5t8 -16.5v-49q0 -11 -8 -19t-17 -8q-12 0 -19.5 7.5t-7.5 19.5zM190 342v1065q0 12 7.5 19.5t19.5 7.5q9 0 17 -8t8 -19v-1065q0 -10 -8 -17.5t-17 -7.5q-12 0 -19.5 7t-7.5 18z" />
<glyph unicode="&#x22;" horiz-adv-x="839" d="M143 944l62 440q9 54 57 54h39q33 0 33 -35q0 -4 -10 -49l-117 -412q-6 -20 -14 -28.5t-21 -8.5q-34 0 -29 39zM512 944l61 440q9 54 58 54h39q32 0 32 -35q0 -4 -10 -49l-117 -412q-6 -21 -13.5 -29t-20.5 -8q-34 0 -29 39z" />
<glyph unicode="#" horiz-adv-x="1433" />
<glyph unicode="$" horiz-adv-x="1294" d="M128 217.5q-1 10.5 5 18.5q16 16 33 2q93 -75 215 -132t250 -65v688q-200 40 -316 117q-141 93 -141 239q1 96 63 177.5t166 129.5t228 54v55v12v11t1 8.5t3 7.5t6 4t10 2q17 0 21 -10.5t4 -34.5v-55q63 -2 123.5 -17t117.5 -43t94 -50t91 -58q8 -5 10 -14.5t-4 -18.5 q-4 -7 -14 -9t-17 3q-56 37 -90 57t-88.5 47t-109.5 40.5t-113 15.5v-631q234 -47 358 -127q152 -101 152 -258q-1 -106 -70.5 -195t-186 -140.5t-253.5 -53.5v-49q0 -16 -1 -23.5t-6.5 -14.5t-17.5 -7q-6 0 -10 2t-6 4t-3 7.5t-1 8.5v11v12v49q-139 8 -267 67.5t-227 139.5 q-8 6 -9 16.5zM221 1085q0 -118 121 -200q101 -69 289 -109v623q-166 -9 -285 -94q-59 -43 -92 -100.5t-33 -119.5zM676 41q189 3 325 102q138 101 138 240q0 130 -131 219q-108 74 -332 119v-680z" />
<glyph unicode="%" horiz-adv-x="1687" d="M113 1079v4q0 97 39 180.5t112.5 135t165.5 51.5q91 0 163.5 -51.5t111 -134t38.5 -177.5v-4q0 -149 -89 -257.5t-228 -108.5q-137 0 -225 107.5t-88 254.5zM162 1083q0 -146 80 -244t188 -98q112 0 188 97.5t76 240.5v4q0 145 -80 243.5t-188 98.5q-111 0 -187.5 -99.5 t-76.5 -238.5v-4zM316 26l3 7l19 28l997 1358q11 15 29 15q4 0 7 -4t4 -8l1 -3q1 -6 -26 -47l-998 -1356q-10 -10 -16 -10q-14 0 -18 7t-2 13zM944 346v4q0 149 89.5 258t228.5 109q91 0 163.5 -51.5t111 -134t38.5 -177.5v-4q0 -149 -89.5 -257.5t-228.5 -108.5 q-137 0 -225 107.5t-88 254.5zM991 350q0 -144 82 -242t189 -98q111 0 188.5 97.5t77.5 238.5v4q0 143 -82 241.5t-189 98.5q-110 0 -188 -99.5t-78 -236.5v-4z" />
<glyph unicode="&#x26;" horiz-adv-x="1425" d="M100 459q0 124 61.5 230t164.5 167q-107 99 -107 246q0 138 97.5 235t232.5 97q138 0 236 -97t98 -235q0 -11 -7.5 -19t-19.5 -8q-9 0 -18 8.5t-9 18.5q0 117 -81.5 198.5t-198.5 81.5q-114 0 -195.5 -81.5t-81.5 -198.5q0 -71 31 -131.5t86 -98.5q1 -1 3 -4t3 -4l2 -2 q7 -21 -10 -31q-6 -6 -12 -6q-101 -53 -162 -151t-61 -215q0 -169 119 -288.5t288 -119.5q170 0 290 119.5t120 288.5q0 51 -17 114h-12q-34 5 -72 5q-178 0 -256 -74q-49 -49 -49 -127q0 -9 1 -22t1 -17l2 -12q9 -24 -14 -35h-8q-18 0 -27 18q-8 29 -8 68q0 101 65 164 q95 88 293 88q47 0 74 -2h12q55 0 97 28q39 29 45 99q0 7 -9 59q-4 9 2 19t17 12t20.5 -4t10.5 -17q8 -31 8 -69q3 -92 -64 -142q-36 -28 -75 -34q14 -55 14 -119q0 -125 -61.5 -230.5t-167.5 -167t-232 -61.5q-125 0 -230.5 61.5t-167 167t-61.5 230.5z" />
<glyph unicode="'" horiz-adv-x="471" d="M143 944l62 440q9 54 57 54h39q33 0 33 -35q0 -4 -10 -49l-117 -412q-6 -20 -14 -28.5t-21 -8.5q-34 0 -29 39z" />
<glyph unicode="(" horiz-adv-x="880" d="M145 621q0 353 99 571q53 117 139.5 183t202.5 65q12 0 21 -8.5t9 -20.5t-9 -21.5t-21 -9.5q-189 0 -287 -213q-94 -204 -94 -546q0 -344 94 -545q99 -215 287 -215q12 0 21 -8.5t9 -20.5t-9 -21.5t-21 -9.5q-116 0 -202.5 66.5t-139.5 183.5q-99 214 -99 570z" />
<glyph unicode=")" horiz-adv-x="880" d="M123 -168q0 12 9.5 20.5t21.5 8.5q187 0 286 215q95 204 95 545q0 339 -95 546q-98 213 -286 213q-12 0 -21.5 9.5t-9.5 21.5t9.5 20.5t21.5 8.5q116 1 202.5 -65t139.5 -183q98 -216 98 -571q0 -358 -98 -570q-53 -117 -139.5 -183.5t-202.5 -66.5q-12 0 -21.5 9.5 t-9.5 21.5z" />
<glyph unicode="*" horiz-adv-x="880" d="M156 995q0 27 28 39l211 101l-211 100q-28 14 -28 39q0 17 12 29t29 14q14 0 32 -12l187 -127l-17 223q-2 19 10 32t31 13t31 -13t10 -32l-16 -223l186 127q18 12 33 12q17 0 29 -13t12 -30q0 -27 -29 -39l-211 -100l211 -101q29 -12 29 -39q0 -17 -12 -30t-29 -13 q-14 0 -33 13l-186 127l16 -224q2 -19 -10 -32t-31 -13t-31 13t-10 32l17 224l-187 -127q-20 -13 -32 -13q-17 0 -29 13t-12 30z" />
<glyph unicode="+" horiz-adv-x="1269" d="M131 707q0 15 10 24.5t27 9.5h432v435q0 15 10 24.5t27 9.5q13 0 24 -10t11 -24v-435h434q13 0 24 -10t11 -24q0 -15 -11.5 -26t-23.5 -11h-434v-432q0 -14 -11 -25.5t-24 -11.5q-17 0 -27 10.5t-10 26.5v432h-432q-17 0 -27 10.5t-10 26.5z" />
<glyph unicode="," horiz-adv-x="471" d="M111 -184q0 16 16 26q56 31 78 67.5t18 90.5q-55 14 -55 72v43q0 29 19.5 48t48.5 19t48 -19t19 -48v-52q0 -158 -55 -213q-26 -26 -59 -45.5t-48 -19.5q-11 0 -20.5 8.5t-9.5 22.5z" />
<glyph unicode="-" horiz-adv-x="835" d="M135 715q0 9 6 15.5t15 6.5h467q18 0 18 -22q0 -19 -18 -19h-467q-21 0 -21 19z" />
<glyph unicode="." horiz-adv-x="471" d="M168 53q0 29 20.5 49.5t49.5 20.5t49 -20.5t20 -49.5t-20 -49t-49 -20t-49.5 20t-20.5 49z" />
<glyph unicode="/" horiz-adv-x="864" d="M156 37l579 1376q3 9 13.5 13.5t19.5 0.5q9 -3 14 -13t2 -19l-583 -1379q-3 -16 -23 -16q-8 0 -10 2q-22 11 -12 35z" />
<glyph unicode="0" horiz-adv-x="1454" d="M133 719q0 191 64 354.5t176.5 261.5t247.5 99q137 -1 250 -99t176 -261.5t63 -354.5q0 -193 -63 -357.5t-176 -262.5t-250 -99q-135 1 -247.5 99t-176.5 263t-64 357zM184 719q0 -137 35.5 -260t97.5 -215q60 -93 139 -143t165 -50q87 0 166 50t139 143q133 193 133 475 q0 136 -35 258t-98 213q-60 93 -139 142.5t-166 49.5q-86 0 -165 -50t-139 -142q-62 -92 -97.5 -214.5t-35.5 -256.5z" />
<glyph unicode="1" horiz-adv-x="686" d="M65.5 1238.5q2.5 10.5 12.5 16.5l287 170q23 15 36 -8q11 -22 -12 -35l-287 -172q-4 -2 -12 -2q-17 0 -22 13q-5 7 -2.5 17.5zM352 27v1378q0 9 8 18t17 9q11 0 18.5 -8.5t7.5 -18.5v-1378q0 -11 -7 -19t-19 -8q-9 0 -17 8.5t-8 18.5z" />
<glyph unicode="2" horiz-adv-x="1208" d="M92.5 28.5q0.5 11.5 7.5 18.5l693 625q65 61 100 140t35 163q0 153 -107 272q-59 65 -138.5 100t-162.5 35q-156 0 -274 -106l-72 -66q-20 -17 -37 0q-7 8 -6.5 19.5t8.5 17.5l72 68q134 119 309 119q95 0 184 -38.5t156 -111.5q119 -134 119 -309q0 -96 -39.5 -185 t-114.5 -155l-643 -584h772q9 0 17 -7t8 -17t-8 -18.5t-17 -8.5h-827h-6h-2q-16 0 -21 10q-6 7 -5.5 18.5z" />
<glyph unicode="3" horiz-adv-x="1249" d="M148 159q0 11 8 19t19 8t18 -8q126 -123 299 -123q179 0 301 125q125 122 125 301q0 173 -123 299q-126 123 -299 123q-16 0 -25 12l-2 3q-7 8 -7 19t7 19l414 426h-633q-10 0 -18.5 8t-8.5 19t8.5 19t18.5 8h694q10 0 18.5 -8t8.5 -19q0 -8 -2 -12q-5 -10 -6 -11 l-422 -432q172 -16 290 -137q68 -68 104 -156t36 -180q0 -93 -36 -181.5t-104 -158.5q-69 -68 -157 -103.5t-180 -35.5h-2q-93 0 -181 35t-155 104q-8 7 -8 18z" />
<glyph unicode="4" horiz-adv-x="1359" d="M104 346l865 1075l4 4q11 7 16 7q12 0 21 -13q1 -1 2 -3t2 -3q0 -1 1 -3t1 -3v-4v-1047h125q26 0 26 -24q0 -27 -26 -27h-125v-278q0 -11 -7.5 -19t-19.5 -8q-9 0 -17.5 8.5t-8.5 18.5v278h-834h-4q-7 0 -16 6q-18 18 -5 35zM178 356h785v971z" />
<glyph unicode="5" horiz-adv-x="1239" d="M125 803l72 604q3 19 18 23q8 4 14 4h693q10 0 18 -9t8 -18q0 -12 -7.5 -19.5t-18.5 -7.5h-674l-62 -520q125 94 285 94q201 0 340 -139q137 -140 137 -336q0 -94 -36 -182t-105 -156q-68 -69 -156 -105t-182 -36q-91 0 -179 36t-157 105q-7 6 -7 17.5t7 19.5t18 8t19 -8 q62 -61 140 -93t159 -32q83 0 161.5 32t139.5 93q125 125 125 301q0 82 -32 160.5t-93 138.5q-123 123 -299 123q-172 0 -301 -123q-4 -7 -16 -7.5t-19 5.5q-4 0 -4 4l-2 2q-7 10 -4 21z" />
<glyph unicode="6" horiz-adv-x="1314" d="M131 547q0 153 34.5 304t104.5 273q78 137 203.5 220t294.5 90q11 0 19 -7.5t8 -19.5q0 -9 -7 -17t-16 -8q-296 -14 -457 -282q-103 -175 -127 -422q58 114 168.5 182t243.5 68q126 0 233 -62t170 -168.5t64 -232.5q-1 -127 -64 -234t-170 -169t-233 -62 q-179 0 -310.5 118.5t-150.5 293.5q-2 2 -2 8q-6 61 -6 127zM188 465q0 -172 121 -293t291 -121q171 0 292 121t124 293q-3 171 -124 291.5t-292 120.5q-170 0 -291 -121t-121 -291z" />
<glyph unicode="7" horiz-adv-x="1202" d="M131 1405q0 9 8.5 18t18.5 9h798q9 0 18 -9t9 -18q0 -7 -8 -19l-578 -1370q-4 -16 -22 -16q-1 0 -4.5 1t-5.5 1q-22 10 -15 35l563 1341h-755q-10 0 -18.5 8t-8.5 19z" />
<glyph unicode="8" horiz-adv-x="1290" d="M113 455q0 155 94.5 276.5t241.5 161.5q-74 34 -119 103t-45 153q0 119 83 202t201 83q117 0 200 -83.5t83 -201.5q0 -83 -45 -152t-117 -104q147 -40 241.5 -161.5t94.5 -276.5q0 -189 -134 -322t-323 -133q-123 0 -228 60.5t-166.5 165.5t-61.5 229zM164 455 q0 -167 119 -285.5t286 -118.5q169 0 287.5 118.5t118.5 285.5t-118.5 286t-287.5 119q-167 0 -286 -119t-119 -286zM336 1149q0 -95 68 -163t165 -68q95 0 163.5 68t68.5 163q0 96 -68 163.5t-164 69.5q-97 -2 -165 -69.5t-68 -163.5z" />
<glyph unicode="9" horiz-adv-x="1314" d="M135 969q0 127 63 234t170.5 169t233.5 62q181 0 313.5 -123t147.5 -303q8 -52 8 -121q0 -334 -139 -578q-175 -295 -498 -309q-26 0 -26 27q-1 9 6 16.5t16 7.5q295 13 455 283q104 183 127 420q-58 -112 -168 -180t-242 -68q-126 0 -233.5 62t-170.5 168.5t-63 232.5z M186 969q0 -170 122 -291t294 -121q170 0 291 121t121 291q0 20 -2 30v9v2q-15 158 -132.5 265t-277.5 107q-172 0 -294 -121t-122 -292z" />
<glyph unicode=":" horiz-adv-x="491" d="M178 59v56q0 29 19.5 48t48.5 19t48 -19t19 -48v-56q0 -29 -19 -48t-48 -19t-48.5 19t-19.5 48zM178 930v55q0 29 19.5 48.5t48.5 19.5t48 -19.5t19 -48.5v-55q0 -29 -19 -48.5t-48 -19.5t-48.5 19.5t-19.5 48.5z" />
<glyph unicode=";" horiz-adv-x="491" d="M121 -184q0 16 16 26q56 31 78 67.5t18 90.5q-55 14 -55 72v43q0 29 19.5 48t48.5 19t48 -19t19 -48v-52q0 -158 -55 -213q-26 -26 -59 -45.5t-47 -19.5q-12 0 -21.5 8.5t-9.5 22.5zM178 930v55q0 29 19.5 48.5t48.5 19.5t48 -19.5t19 -48.5v-55q0 -29 -19 -48.5 t-48 -19.5t-48.5 19.5t-19.5 48.5z" />
<glyph unicode="&#x3c;" horiz-adv-x="1269" d="M123 717q2 6 6 14l4 4l2 2l676 684q9 9 22.5 9t22.5 -9q6 -9 6 -22.5t-6 -22.5l-659 -663l659 -662q14 -21 0 -43q-8 -8 -25 -8q-12 0 -20 8l-676 682q-2 0 -2 2q-8 8 -8 13q-2 4 -2 12z" />
<glyph unicode="=" horiz-adv-x="1269" d="M162 500q0 12 9 22t22 10h700q12 0 21.5 -10t9.5 -22t-9.5 -19.5t-21.5 -7.5h-700q-14 0 -22.5 7.5t-8.5 19.5zM162 924q0 12 9 21t22 9h700q12 0 21.5 -9t9.5 -21q0 -9 -9.5 -17t-21.5 -8h-700q-13 0 -22 8t-9 17z" />
<glyph unicode="&#x3e;" horiz-adv-x="1269" d="M184 1398.5q0 13.5 6 22.5q9 9 23 9t23 -9l673 -684q1 0 2 -1t2 -1q0 -1 1 -2t1 -2q4 -4 7 -10v-12v-4q-3 -3 -7 -11l-2 -2l-2 -2l-675 -682q-8 -8 -21 -8q-17 0 -25 8q-14 22 0 43l658 662l-658 663q-6 9 -6 22.5z" />
<glyph unicode="?" horiz-adv-x="1093" d="M80.5 1199.5q-2.5 9.5 3.5 17.5q56 100 155.5 158.5t219.5 58.5q177 0 304.5 -127.5t127.5 -307.5q0 -171 -120 -297t-288 -135v-250q0 -9 -7.5 -16.5t-16.5 -7.5q-10 0 -17.5 7.5t-7.5 16.5v269v4v2q0 10 7 17t18 7q157 0 269 113t112 270q0 159 -112 272t-269 113 q-106 0 -194 -51.5t-140 -140.5q-6 -8 -15.5 -10t-17.5 2q-9 6 -11.5 15.5zM434 25v47q0 9 7.5 16.5t17.5 7.5q9 0 16.5 -7.5t7.5 -16.5v-47q0 -10 -7.5 -17.5t-16.5 -7.5q-11 0 -18 7t-7 18z" />
<glyph unicode="@" horiz-adv-x="2007" d="M109 717q0 146 57 279.5t152.5 229.5t228 153t278.5 57t279.5 -57t229.5 -153t153 -229.5t57 -279.5q0 -174 -80 -328q-2 -5 -7.5 -14t-22 -30t-35 -39t-48 -36.5t-61.5 -27.5q-7 0 -20 -1t-19 -1q-66 0 -96 49q-29 36 -29 82v155q-47 -83 -126.5 -132.5t-174.5 -49.5 q-145 0 -248.5 110t-103.5 263t103.5 261.5t248.5 108.5q146 0 248.5 -108t102.5 -262v-15v-6v-319q0 -31 20 -58q23 -26 55 -26q19 0 27 6q71 12 131 98l10 19q72 141 72 301q0 136 -52.5 259t-141.5 212t-212.5 141.5t-259.5 52.5q-135 0 -258 -52.5t-211.5 -141.5 t-141 -212t-52.5 -259q0 -181 88.5 -333.5t241.5 -241.5t333 -89q87 0 164 21q24 3 35 -19q3 -25 -20 -35q-92 -20 -179 -20q-145 0 -278 57t-228.5 153t-152.5 228.5t-57 278.5zM526 717q0 -132 88 -226t211 -94t212 94t89 226q0 133 -88.5 227t-212.5 94q-123 0 -211 -94 t-88 -227z" />
<glyph unicode="A" horiz-adv-x="1323" d="M119 41l516 1376q6 17 22 17h5q16 0 26 -17l516 -1376q2 -5 2 -9q0 -5 -2 -11q-4 -10 -14 -15q-2 0 -4.5 -1t-3.5 -1q-16 0 -27 19l-137 366h-717l-137 -366q-1 -7 -8 -13t-15 -6q-1 0 -4.5 1t-5.5 1q-15 8 -15 21q0 6 3 14zM322 442h675l-338 897z" />
<glyph unicode="B" horiz-adv-x="1216" d="M213 27v1380q0 11 7.5 19t19.5 8h4h323q142 0 244 -101.5t102 -242.5q0 -96 -48.5 -176.5t-129.5 -125.5q139 -26 231.5 -135.5t92.5 -253.5q0 -166 -115.5 -282.5t-281.5 -116.5h-418h-4q-12 0 -19.5 8t-7.5 19zM264 51h398q144 0 244 101.5t100 246.5q0 142 -100 243 t-244 101h-398v-692zM264 799h303q121 0 206 84.5t87 206.5q-1 120 -86 204.5t-207 87.5h-303v-583z" />
<glyph unicode="C" horiz-adv-x="1579" d="M150 729q0 195 99.5 362t271 265t372.5 98q259 0 465 -158q10 -8 12 -18q1 -3 0 -6q0 -7 -4 -12q-22 -22 -39 -5q-189 146 -434 146q-187 0 -345.5 -90t-251.5 -245t-93 -337q0 -184 93 -340t251.5 -246t345.5 -90q243 0 432 146q23 15 39 -4q7 -8 5 -18.5t-11 -18.5 q-212 -158 -465 -158q-202 1 -373 99t-270.5 265.5t-99.5 364.5z" />
<glyph unicode="D" horiz-adv-x="1472" d="M213 27v1380q0 11 7.5 19t19.5 8h2h272q146 0 279 -57t229 -153t152.5 -228t56.5 -277q0 -146 -56.5 -279.5t-152.5 -229.5t-229 -153t-279 -57h-272h-2q-12 0 -19.5 8t-7.5 19zM264 51h250q136 1 259 54.5t212 142.5t141.5 212t53.5 259q-1 135 -53.5 257.5 t-141.5 211.5t-212 141.5t-259 52.5h-250v-1331z" />
<glyph unicode="E" horiz-adv-x="1214" d="M213 27v1380q0 10 7 18t18 9h2h2h759q10 0 17.5 -8t7.5 -19t-7 -18t-18 -7h-737v-639h649q10 0 17.5 -7.5t7.5 -16.5q0 -12 -7 -19.5t-18 -7.5h-649v-641h737q11 0 18 -7t7 -17q0 -11 -7.5 -19t-17.5 -8h-757h-2h-4q-11 0 -18 8t-7 19z" />
<glyph unicode="F" horiz-adv-x="1239" d="M213 27v1380q0 11 7 19t16 8h4h2h759q10 0 17.5 -8t7.5 -19t-7 -18t-18 -7h-739v-639h651q10 0 17.5 -7.5t7.5 -16.5q0 -12 -7 -19.5t-18 -7.5h-651v-665q0 -11 -7 -19t-19 -8q-9 0 -16 8t-7 19z" />
<glyph unicode="G" horiz-adv-x="1667" d="M150 741q0 150 60 286t161.5 234.5t241.5 157t294 58.5q132 0 253 -42t218 -118q13 -10 13 -22q0 -9 -7 -19q-6 -8 -18 -8.5t-20 6.5q-191 151 -439 151q-143 0 -273.5 -54.5t-225 -146.5t-150 -218.5t-55.5 -264.5q0 -140 55.5 -267.5t150 -219.5t225 -146.5 t273.5 -54.5q236 0 428 142v485h-440q-9 0 -18 8t-9 17q0 11 8.5 19.5t18.5 8.5h465h4q11 0 18 -8t7 -20v-521q0 -3 -3 -6v-4q-3 -9 -8 -14q-98 -75 -219 -117.5t-252 -42.5q-206 1 -380 100t-275.5 269t-101.5 372z" />
<glyph unicode="H" horiz-adv-x="1452" d="M213 27v1380q0 11 7.5 19t19.5 8q9 0 16.5 -8.5t7.5 -18.5v-664h815v664q0 11 7.5 19t17.5 8t18 -8t8 -19v-1380q0 -11 -8 -19t-18 -8t-17.5 8t-7.5 19v665h-815v-665q0 -10 -7.5 -18.5t-16.5 -8.5q-12 0 -19.5 8t-7.5 19z" />
<glyph unicode="I" horiz-adv-x="624" d="M227 27v1380q0 12 7.5 19.5t19.5 7.5q10 0 17.5 -8t7.5 -19v-1380q0 -11 -7.5 -19t-17.5 -8q-12 0 -19.5 7.5t-7.5 19.5z" />
<glyph unicode="J" horiz-adv-x="1216" d="M92 332q-2 4 -2 9t2 11q5 10 14 13q25 6 35 -17q40 -130 152 -213.5t252 -83.5q116 2 214 59t155.5 155t58.5 214v928q0 11 6.5 19t15.5 8q12 0 19.5 -8t7.5 -19v-928q0 -97 -37.5 -186t-101.5 -153t-152.5 -102t-185.5 -38q-158 0 -282.5 92.5t-170.5 239.5z" />
<glyph unicode="K" horiz-adv-x="1464" d="M213 27v1378q0 10 8 18.5t19 8.5q9 0 17.5 -9t8.5 -18v-922l940 940q20 17 37 0q7 -7 7 -18t-7 -19l-586 -585l588 -756q8 -11 8 -20q0 -10 -10 -17q-8 -8 -16 -8q-6 0 -21 10l-585 754l-351 -352l-4 -4v-381q0 -10 -8.5 -18.5t-17.5 -8.5q-12 0 -19.5 8t-7.5 19z" />
<glyph unicode="L" horiz-adv-x="1153" d="M213 27v1380q0 11 8.5 19t18.5 8t17 -8t7 -19v-1356h740q26 0 26 -24q0 -11 -7 -19t-19 -8h-760h-4q-10 0 -18.5 8t-8.5 19z" />
<glyph unicode="M" horiz-adv-x="1728" d="M213 27v1378q0 9 8.5 18t18.5 9q4 0 6 -2q4 0 18 -9l549 -762l549 762q9 9 16 9q2 2 6 2q11 0 19 -8.5t8 -18.5v-1378q0 -11 -7.5 -19t-19.5 -8q-9 0 -16.5 8.5t-7.5 18.5v1302l-522 -727q-10 -10 -23 -10h-4q-16 0 -23 10l-524 729v-1304q0 -11 -7 -19t-17 -8t-18.5 8 t-8.5 19z" />
<glyph unicode="N" horiz-adv-x="1579" d="M213 27v1370v6q0 12 10 22q10 6 18 6q11 0 19 -10l946 -1315v1291q0 10 9 18t18 8q10 0 17 -7.5t7 -18.5v-1370q0 -11 -7 -19t-17 -8q-19 0 -25 16q-2 0 -2 2l-942 1309v-1300q0 -11 -7 -19t-17 -8q-9 0 -18 8.5t-9 18.5z" />
<glyph unicode="O" horiz-adv-x="1740" d="M150 715q1 151 56 288t148 236t222 157t272 58q190 0 350.5 -98.5t254 -268.5t95.5 -372q-2 -203 -95.5 -373.5t-254 -269.5t-350.5 -99t-350.5 99t-253.5 269.5t-94 373.5zM205 715q0 -186 87 -343.5t234.5 -249t321.5 -93.5q129 1 247.5 56t205 146t138 218t52.5 266 q-1 187 -88 345t-235 249.5t-320 91.5q-173 0 -321 -91.5t-235 -249.5t-87 -345z" />
<glyph unicode="P" horiz-adv-x="1193" d="M213 27v1380q0 11 8.5 19t18.5 8h4h415q165 0 282.5 -117.5t117.5 -282.5t-117.5 -281t-282.5 -116h-395v-610q0 -11 -7 -19t-17 -8t-18.5 8t-8.5 19zM264 690h395q143 0 245 100t102 244t-102 246t-245 102h-395v-692z" />
<glyph unicode="Q" horiz-adv-x="1728" d="M135 725q1 197 93 365t249.5 266t341.5 98q187 0 345.5 -98t250.5 -266t92 -365q0 -222 -118.5 -405t-309.5 -267l-293 -137q122 0 213 -57q192 -111 332 -111q147 0 285 111q7 6 19 4.5t18 -8.5q7 -8 7 -17q0 -11 -11 -22q-154 -119 -318 -119q-159 0 -356 117 q-82 51 -189 51q-104 0 -215 -51q-16 -8 -29 2t-12.5 24.5t15.5 24.5l293 137h-19q-184 0 -341.5 97t-249.5 263.5t-93 362.5zM190 725q0 -183 85.5 -338t230 -244.5t313.5 -89.5q130 0 248 53t203 142.5t135.5 214.5t50.5 262q0 185 -85.5 340.5t-232 244.5t-319.5 89 q-126 0 -242 -53t-201 -142.5t-135.5 -214.5t-50.5 -264z" />
<glyph unicode="R" horiz-adv-x="1280" d="M184 27v1380q0 11 8 19t19 8h2h2h416q108 0 200 -53.5t145.5 -145.5t53.5 -201q0 -135 -80.5 -240t-206.5 -141q28 -11 74 -37q79 -45 133 -122t54 -185q0 -147 30 -209q12 -24 33 -24q12 1 21.5 -5.5t11.5 -15.5q1 -4 1 -7q0 -12 -9 -18q-11 -7 -27 -7q-18 0 -39 13.5 t-35 41.5q-39 64 -39 231q0 130 -102 221q-35 31 -69 51t-111.5 38t-182.5 18h-251v-610q0 -11 -7.5 -19t-17.5 -8q-11 0 -19 8t-8 19zM236 690h395h4q142 2 242 101t100 243t-101.5 246t-244.5 102h-395v-692z" />
<glyph unicode="S" horiz-adv-x="1366" d="M133 233q8 8 18.5 9t18.5 -6q5 -5 25 -21.5t70 -48t106.5 -58t137 -47t159.5 -20.5q207 0 349 102.5t142 251.5q0 37 -8.5 69.5t-21 57.5t-36.5 48t-45 39t-57 32.5t-62 26.5t-71 22t-72 19t-77 18q-52 12 -80 19t-76.5 20.5t-76 24t-67 29t-62 36.5t-49 44.5t-40.5 55 t-23.5 66t-9.5 80.5q0 140 130.5 240t314.5 100q79 0 153 -17.5t121.5 -41t87 -51.5t54.5 -42.5t20 -21.5q7 -8 6.5 -18.5t-8.5 -18.5q-23 -15 -37 2q-9 9 -21 20.5t-50 38t-80 46t-108.5 35.5t-137.5 16q-161 0 -276 -84.5t-115 -202.5q0 -36 8.5 -67.5t20.5 -55.5 t35.5 -46.5t44 -38t56 -31.5t61 -26t69.5 -22t71 -19t76 -18q79 -18 122 -29.5t110.5 -34t104.5 -48t77 -63.5t57.5 -90.5t17.5 -117.5q0 -170 -156.5 -287.5t-385.5 -117.5q-84 0 -170 21t-145.5 49t-113 61t-75.5 51t-29 25q-10 10 -10 19t8 17z" />
<glyph unicode="T" horiz-adv-x="1327" d="M102 1407q0 11 8 19t19 8h997q12 0 19.5 -8t7.5 -19t-7.5 -18t-19.5 -7h-471v-1355q0 -10 -8.5 -18.5t-17.5 -8.5q-12 0 -19.5 8t-7.5 19v1355h-473q-11 0 -19 7.5t-8 17.5z" />
<glyph unicode="U" horiz-adv-x="1667" d="M215 575v832q0 11 7.5 19t19.5 8q10 0 17 -8t7 -19v-832q0 -143 70 -263t189.5 -189.5t262.5 -71.5q142 2 261.5 71.5t190 189.5t71.5 263v832q0 11 8 19t18 8q9 0 18 -8.5t9 -18.5v-832q0 -157 -78 -289.5t-210.5 -209t-287.5 -76.5q-117 0 -223 45.5t-182.5 122 t-122 183t-45.5 224.5z" />
<glyph unicode="V" horiz-adv-x="1536" d="M120 1414q4 10 13 13q7 3 13 3q14 0 24 -15l555 -1321l557 1321q4 9 14 13q5 2 9 2q5 0 10 -3q9 -3 13 -13q2 -5 2 -10t-1 -9l-579 -1379l-2 -2q-3 -9 -13 -12h-2q-2 -2 -8 -2h-2h-4l-4 2q-2 0 -6 4q-5 3 -9 10l-579 1379q-3 5 -3 10t2 9z" />
<glyph unicode="W" horiz-adv-x="2256" d="M130 1414q4 10 13 13q5 2 10 2q5 1 9 -1q10 -4 16 -13l555 -1323l402 952q6 19 26 19q7 1 15.5 -4.5t13.5 -14.5l399 -952l557 1323q10 15 23 15q6 0 12 -3q11 -3 15 -13q2 -5 2 -9q0 -5 -3 -10l-579 -1379q-8 -16 -25 -16q-18 0 -26 18l-402 961l-405 -963 q-7 -16 -25 -16q-14 0 -22 16l-580 1379q-3 5 -3 11q0 4 2 8z" />
<glyph unicode="X" horiz-adv-x="1478" d="M162 1425q7 6 19 4.5t18 -8.5l481 -661l483 661q6 8 17 9h3q9 0 17 -5q7 -7 9 -17q1 -3 1 -5q0 -7 -4 -12l-493 -676l493 -674q4 -7 4 -14q0 -11 -10 -21q-9 -6 -16 -6q-6 0 -21 10l-483 662l-481 -662q-15 -10 -21 -10q-7 0 -16 6q-11 9 -11 19q0 8 7 16l491 674 l-491 676q-6 6 -6 16q0 12 10 18z" />
<glyph unicode="Y" horiz-adv-x="1236" d="M127 1425q7 5 16 5h3q10 -1 16 -9l487 -669l486 669q10 10 20 10l16 -6q9 -6 12 -16q1 -3 1 -6q0 -7 -4 -12l-506 -691v-673q0 -11 -7.5 -19t-17.5 -8t-18 8t-8 19v673l-502 691q-6 6 -6 13q0 14 12 21z" />
<glyph unicode="Z" horiz-adv-x="1366" d="M145 27q0 15 11 20l968 1331h-952q-12 0 -19.5 8t-7.5 19q0 10 8 18.5t19 8.5h1006q11 0 18.5 -8.5t7.5 -18.5q0 -2 -1 -5.5t-1 -4.5l-2 -4q-1 -2 -6 -7l-973 -1333h957q26 0 26 -24q0 -11 -7 -19t-19 -8h-1004h-2q-12 0 -19.5 8t-7.5 19z" />
<glyph unicode="[" horiz-adv-x="880" d="M201 -213v1593q0 22 15.5 38t37.5 16h475q37 0 37 -29q0 -14 -9 -17.5t-28 -3.5h-477v-1601h477q37 0 37 -27q0 -22 -37 -22h-475q-22 0 -37.5 15.5t-15.5 37.5z" />
<glyph unicode="\" horiz-adv-x="917" d="M129 1397q-3 9 2 19.5t14 13.5q9 4 19.5 -1t13.5 -14l580 -1376q10 -23 -13 -35q-2 -2 -10 -2q-19 0 -22 16z" />
<glyph unicode="]" horiz-adv-x="880" d="M113 -244q0 27 37 27h477v1601h-477q-19 0 -28 3.5t-9 17.5q0 29 37 29h475q22 0 37.5 -16t15.5 -38v-1593q0 -22 -15.5 -37.5t-37.5 -15.5h-475q-37 0 -37 22z" />
<glyph unicode="^" horiz-adv-x="1024" d="M169 381q-3 26 9 33l367 280q27 21 45 21t45 -21l364 -280q19 -14 19 -43q0 -16 -11 -21.5t-25 -1.5t-26 14l-364 289l-369 -289q-13 -11 -33 -8q-18 1 -21 27z" />
<glyph unicode="_" horiz-adv-x="1228" d="M-49 -293q0 35 45 35h684q45 0 45 -35t-45 -35h-684q-45 0 -45 35z" />
<glyph unicode="`" horiz-adv-x="1024" d="M340 1450q1 1 3 11t9 15t25 5q33 0 57 -37l127 -191q8 -12 8 -22q0 -8 -2.5 -9t-11.5 3q-4 2 -10 4t-9.5 3t-8 4t-9.5 7.5t-12 11.5l-146 158q-26 26 -20 37z" />
<glyph unicode="a" horiz-adv-x="1267" d="M82 502q0 135 63 250.5t172 183.5t238 68q135 0 248.5 -76.5t173.5 -200.5v250q0 10 8 18.5t19 8.5q10 0 17 -8.5t7 -18.5v-950q0 -12 -6.5 -19.5t-17.5 -7.5q-12 0 -19.5 7.5t-7.5 19.5v249q-59 -125 -172.5 -200.5t-249.5 -75.5q-129 0 -238 68t-172 183.5t-63 250.5z M133 502q0 -187 124 -319t298 -132t298 132t124 319q0 122 -57 225t-154 163t-211 60t-211 -60t-154 -163t-57 -225z" />
<glyph unicode="b" horiz-adv-x="1351" d="M190 27v452v25v20v879q0 11 8 21t19 10q9 0 17 -10t8 -21v-676q61 125 177 201t255 76q133 0 245 -67.5t177 -182.5t65 -250q0 -136 -65 -252t-177 -184t-245 -68q-139 0 -255 75t-177 199v-247q0 -10 -8 -18.5t-17 -8.5q-12 0 -19.5 8t-7.5 19zM242 504 q0 -187 127.5 -320t304.5 -133q180 0 308 133t128 320q0 186 -128 317t-308 131q-172 0 -299 -125.5t-133 -304.5v-18z" />
<glyph unicode="c" horiz-adv-x="1169" d="M119 502q0 136 69 251.5t188 183t259 67.5q182 0 319 -109q9 -9 9 -19q0 -9 -7 -20q-13 -16 -34 -2q-129 98 -287 98q-194 0 -329.5 -131.5t-135.5 -318.5t135.5 -319t329.5 -132q155 0 287 101q7 5 17.5 2.5t16.5 -9.5q7 -9 7 -18q0 -10 -9 -18q-141 -109 -319 -109 q-140 1 -259 69t-188 183t-69 250z" />
<glyph unicode="d" horiz-adv-x="1351" d="M123 504q0 135 65 250t177 182.5t245 67.5q139 0 255 -76t177 -201v676q0 11 8 21t17 10q11 0 19 -10t8 -21v-879v-20v-25v-452q0 -11 -7.5 -19t-19.5 -8q-9 0 -17 8.5t-8 18.5v247q-61 -124 -177 -199t-255 -75q-133 0 -245 68t-177 184t-65 252zM174 504 q0 -187 128 -320t308 -133q177 0 304.5 133t127.5 320v18q-6 179 -133 304.5t-299 125.5q-180 0 -308 -131t-128 -317z" />
<glyph unicode="e" horiz-adv-x="1247" d="M119 502q2 137 67 252.5t176.5 182.5t243.5 67q191 0 329 -133.5t152 -329.5v-2v-4v-3q-2 -9 -8.5 -16.5t-15.5 -7.5h-893v-6q0 -121 58 -224.5t158.5 -164.5t219.5 -62q112 0 207.5 55.5t153.5 149.5q11 17 37 6q8 -5 10 -15.5t-4 -19.5q-66 -103 -173.5 -165 t-230.5 -62q-132 2 -243.5 70t-176.5 182.5t-67 249.5zM172 557h864q-20 168 -143 280.5t-287 112.5q-167 0 -290.5 -112.5t-143.5 -280.5z" />
<glyph unicode="f" horiz-adv-x="741" d="M133 985q0 11 8.5 19t18.5 8h164v135q0 153 61 223q61 66 188 66q11 0 19 -7.5t8 -17.5q0 -11 -8 -19t-19 -8q-106 0 -149 -49q-47 -50 -47 -188v-135h172q10 0 17 -8t7 -19t-7 -19t-17 -8h-172v-929q0 -11 -8.5 -19t-18.5 -8t-18 8t-8 19v929h-164q-10 0 -18.5 8 t-8.5 19z" />
<glyph unicode="g" horiz-adv-x="1351" d="M123 502q0 207 138.5 354.5t334.5 147.5q135 0 249.5 -76.5t172.5 -198.5v248q0 10 7.5 18.5t16.5 8.5q12 0 19.5 -8t7.5 -19v-920q0 -97 -37.5 -184.5t-100.5 -151.5t-151 -101.5t-184 -37.5q-105 0 -209 49q-21 14 -10 35q10 19 35 12q88 -45 184 -45 q175 3 298.5 126.5t123.5 297.5v219q-58 -124 -172 -200t-250 -76q-129 0 -238 68t-172 183.5t-63 250.5zM174 502q0 -187 124 -318t298 -131t298 131t124 318t-124 318.5t-298 131.5t-298 -131.5t-124 -318.5z" />
<glyph unicode="h" d="M190 23v4v569v16v795q0 11 8 19t19 8q10 0 17.5 -8t7.5 -19v-614q54 96 148.5 153.5t207.5 57.5q169 0 287.5 -119.5t118.5 -288.5v-569q0 -10 -8 -18.5t-17 -8.5q-12 0 -19.5 8t-7.5 19v569q0 148 -103 251t-251 103q-144 0 -247 -99t-109 -241v-583q0 -16 -11 -23 q-8 -4 -10 -4h-4q-9 0 -18 6q-9 9 -9 17z" />
<glyph unicode="i" horiz-adv-x="575" d="M193 27v952q0 25 26 25q10 0 17.5 -7t7.5 -18v-952q0 -10 -8 -18.5t-17 -8.5q-12 0 -19 8t-7 19zM193 1251v49q0 27 26 27q9 0 17 -7.5t8 -19.5v-49q0 -9 -8 -16.5t-17 -7.5q-11 0 -18.5 7.5t-7.5 16.5z" />
<glyph unicode="j" horiz-adv-x="509" d="M-10 -393q0 28 24 28q43 0 74 31t31 76v1237q0 9 7 17t17 8t19.5 -8t9.5 -17v-1237q0 -66 -46 -112t-112 -46q-10 0 -17 7.5t-7 15.5zM123 1255v50q0 11 7.5 18.5t19.5 7.5q10 0 19 -8t9 -18v-50q0 -10 -9 -17t-19 -7q-12 0 -19.5 6.5t-7.5 17.5z" />
<glyph unicode="k" horiz-adv-x="1146" d="M190 27v1380q0 11 7.5 19t19.5 8q9 0 17 -8.5t8 -18.5v-1063l659 660q17 17 37 0q8 -8 8 -19t-8 -18l-416 -416l416 -506q15 -20 -4 -39q-6 -6 -14 -6q-16 0 -21 10l-416 502l-235 -236q-4 -4 -6 -4v-245q0 -10 -8 -18.5t-17 -8.5q-12 0 -19.5 8t-7.5 19z" />
<glyph unicode="l" horiz-adv-x="509" d="M205 27v1380q0 11 7 19t19 8q10 0 17.5 -8t7.5 -19v-1380q0 -11 -7.5 -19t-17.5 -8q-12 0 -19 8t-7 19z" />
<glyph unicode="m" horiz-adv-x="1947" d="M190 27v571q0 9 5 49v330q0 27 24 27q9 0 17 -8t8 -19v-182q54 96 146 152.5t204 56.5q128 0 231 -73t146 -190q43 117 146.5 190t232.5 73q165 0 282 -119t117 -287v-571q0 -11 -7.5 -19t-17.5 -8q-9 0 -17.5 8.5t-8.5 18.5v571q0 147 -102.5 250.5t-245.5 103.5 q-142 0 -245 -99.5t-108 -240.5v-14v-571q0 -7 -2 -9q0 -1 -1 -3t-1 -3q-2 -2 -2 -4q-8 -8 -20 -8q-10 0 -17.5 8t-7.5 19v571q0 148 -103 251t-249 103q-141 0 -243 -99.5t-107 -240.5v-585q0 -7 -4 -15q-2 -2 -2 -4q-1 0 -2.5 -1t-2.5 -1q-6 -6 -14 -6h-6q-9 2 -16 9.5 t-7 17.5z" />
<glyph unicode="n" d="M190 23v4v571v16v365q0 11 8 18t19 7q25 0 25 -25v-184q53 95 147.5 152t206.5 57q166 0 284.5 -119t118.5 -287v-571q0 -11 -8 -19t-18 -8q-11 0 -18 8t-7 19v571q0 148 -103 251t-249 103t-250 -103t-104 -251v-571q0 -11 -6 -17q-7 -10 -19 -10h-4h-4q-1 1 -3 2t-3 2 q-2 0 -6 4q-2 2 -2 4q-5 5 -5 11z" />
<glyph unicode="o" horiz-adv-x="1280" d="M143 502q0 207 138.5 354.5t334.5 147.5t336 -147.5t140 -354.5q0 -135 -64 -250.5t-173.5 -183.5t-238.5 -68t-238 68t-172 183.5t-63 250.5zM195 502q0 -186 124 -318.5t297 -132.5q114 0 211.5 60.5t155 164.5t57.5 226q0 187 -125 318.5t-299 131.5t-297.5 -131.5 t-123.5 -318.5z" />
<glyph unicode="p" horiz-adv-x="1351" d="M190 -412v899v21v20v449q0 12 7.5 19.5t19.5 7.5q11 0 18 -7.5t7 -19.5v-248q59 124 174.5 199.5t253.5 75.5q133 0 244 -66.5t175 -180.5t64 -249t-64 -249.5t-175 -181.5t-244 -67q-137 0 -252.5 75.5t-175.5 197.5v-695q0 -12 -7 -19t-18 -7q-27 0 -27 26zM242 508 q0 -184 126.5 -314.5t301.5 -130.5q177 0 303.5 130.5t126.5 314.5q0 183 -126.5 313.5t-303.5 130.5q-171 0 -296.5 -124.5t-131.5 -301.5v-18z" />
<glyph unicode="q" horiz-adv-x="1351" d="M123 508q0 135 64 249t175 180.5t244 66.5q138 0 253.5 -75.5t174.5 -199.5v248q0 12 7 19.5t18 7.5q26 0 26 -27v-449v-20v-21v-899q0 -26 -26 -26q-11 0 -18 7t-7 19v695q-60 -122 -175.5 -197.5t-252.5 -75.5q-133 0 -244 67t-175 181.5t-64 249.5zM176 508 q0 -184 126.5 -314.5t303.5 -130.5q175 0 301.5 130.5t126.5 314.5v18q-6 177 -131.5 301.5t-296.5 124.5q-177 0 -303.5 -130.5t-126.5 -313.5z" />
<glyph unicode="r" horiz-adv-x="899" d="M193 27v469q-1 2 -1 5t1 7v469q0 10 7.5 18.5t16.5 8.5q11 0 18 -8t7 -19v-340q29 68 63 119q165 248 400 248q12 0 19 -8t7 -19t-7 -19t-19 -8q-168 0 -291 -137q-81 -93 -148 -248l-24 -69v-469q0 -27 -25 -27q-9 0 -16.5 7.5t-7.5 19.5z" />
<glyph unicode="s" horiz-adv-x="1007" d="M135 182q8 8 18.5 8.5t18.5 -6.5q4 -4 18 -15t48 -32.5t72.5 -39.5t94 -32t109.5 -14q137 0 234.5 70t97.5 168q0 44 -17.5 78t-41.5 54.5t-69 39t-78 27t-92 22.5q-6 1 -9 2q-150 37 -210 67q-132 66 -132 201q0 101 93 172.5t224 71.5q56 0 108.5 -12.5t86.5 -29 t61.5 -36t38.5 -30.5t14 -15q17 -17 -2 -37q-9 -7 -20 -6.5t-17 8.5q-105 105 -270 105q-109 0 -186.5 -56t-77.5 -135q0 -30 9 -55.5t21.5 -44t38 -35t45 -26.5t58 -21.5t61 -17.5t68.5 -17q36 -8 55.5 -12.5t54 -14t54 -17.5t48.5 -21t45.5 -26.5t36 -33t30 -41t17.5 -49 t7 -59.5q0 -121 -112 -205t-273 -84q-60 0 -120.5 15t-102.5 34t-79.5 42.5t-53.5 36t-21 17.5q-10 10 -10 20q0 9 8 17z" />
<glyph unicode="t" horiz-adv-x="819" d="M86 977q0 11 8 19t19 8h172v401q0 11 7 19t17 8q11 0 19 -8t8 -19v-401h164q10 0 18 -8t8 -19q0 -10 -7.5 -17.5t-18.5 -7.5h-164v-798q0 -43 30.5 -74t73.5 -31q11 0 19 -7t8 -17q0 -11 -8.5 -19t-18.5 -8q-64 0 -109.5 45.5t-45.5 110.5v798h-172q-11 0 -19 7.5 t-8 17.5z" />
<glyph unicode="u" d="M170 406v571q0 11 7.5 19t19.5 8q9 0 16.5 -8.5t7.5 -18.5v-571q0 -148 102.5 -251.5t247.5 -103.5q146 0 249.5 103.5t103.5 251.5v571q0 10 8.5 18.5t17.5 8.5q10 0 18.5 -8t8.5 -19v-571q0 -168 -119 -287t-287 -119q-166 0 -283.5 118.5t-117.5 287.5z" />
<glyph unicode="v" horiz-adv-x="1191" d="M115 965q-2 4 -2 8q1 5 3 10q4 9 13 14q7 3 12 3q14 0 21 -17l377 -891l376 891q3 11 13 15q4 2 8 2q5 0 10 -3q11 -5 16 -14q3 -5 3 -10q0 -4 -2 -8l-400 -947q0 -4 -4 -8q-10 -10 -18 -10h-2h-7q-12 4 -18 16z" />
<glyph unicode="w" horiz-adv-x="1763" d="M124 984q4 10 15 13q5 2 10 2q5 1 9 -1q10 -4 16 -13l375 -893l268 639q7 18 29 14q14 0 24 -14l269 -639l377 893q3 9 12 13q4 2 9 1q5 0 11 -2q9 -3 14 -13q3 -6 3 -11q0 -4 -2 -8l-400 -949q0 -6 -8 -10q-9 -6 -14 -6q-9 0 -13 2q-4 0 -8 4t-4 6q-2 0 -2 2v2l-270 643 l-271 -643q-7 -13 -18 -16h-8h-4q-3 0 -11 4q-10 7 -10 16l-397 945q-3 5 -3 10q0 4 2 9z" />
<glyph unicode="x" horiz-adv-x="1167" d="M140 26q0 8 5 15l336 461l-336 459q-5 6 -5 14v4q2 10 10 16q8 5 16 5q11 0 20 -11l328 -446l322 446q11 11 22 11q7 0 14 -5q9 -6 12 -16q1 -3 1 -6q0 -6 -4 -12l-334 -459l334 -461q4 -6 4 -13q0 -2 -1 -6q-3 -10 -12 -16q-2 -6 -12 -6q-17 0 -24 10l-322 447 l-328 -447q-8 -10 -20 -10q-10 0 -16 6q-10 6 -10 20z" />
<glyph unicode="y" horiz-adv-x="1204" d="M106 406v571q0 11 7.5 19t19.5 8q9 0 17 -8.5t8 -18.5v-571q0 -145 103 -248t249 -103q139 0 239.5 98t106.5 238v586v4q0 2 4 10q0 2 2 2l6 6q10 5 15 5h4q1 0 3 -1.5t3 -1.5l6 -6l2 -2q6 -6 6 -16v-920q0 -127 -62.5 -235.5t-171 -172t-237.5 -63.5q-109 0 -205 49 q-10 4 -13 14.5t3 20.5q3 9 13 12.5t18 0.5q88 -45 184 -45q174 0 297 123t123 296v152q-50 -94 -142.5 -149.5t-203.5 -55.5q-167 0 -285.5 118t-118.5 284z" />
<glyph unicode="z" horiz-adv-x="1134" d="M128 25q0 9 7 16l664 909h-643q-10 0 -17.5 8t-7.5 19q0 10 7.5 18.5t17.5 8.5h688q11 0 22 -7q7 -5 11 -16v-4v-4q0 -1 -1.5 -3t-1.5 -3q-2 -7 -10 -15l-659 -901h645q12 0 19.5 -7.5t7.5 -16.5q0 -12 -7.5 -19.5t-19.5 -7.5h-694q-9 0 -11 2q-8 4 -10 6q-7 7 -7 17z " />
<glyph unicode="{" horiz-adv-x="983" d="M113 588q0 39 49 39q77 0 129 17.5t79.5 53t38.5 80.5t11 109v162q0 85 16 144.5t59.5 113t126 90.5t209.5 63q17 5 30 2t13 -20q0 -19 -24 -27q-112 -29 -183.5 -63t-113.5 -80.5t-58 -101.5t-16 -134v-153q0 -129 -54 -196t-159 -99q110 -36 161.5 -100.5t51.5 -194.5 v-154q0 -79 16 -134t58 -101.5t113.5 -80.5t183.5 -63q24 -8 24 -28q0 -17 -13 -19.5t-30 2.5q-127 26 -209.5 63t-126 91t-59.5 113.5t-16 144.5v162q0 64 -11 109t-38.5 80.5t-79.5 53t-129 17.5q-49 0 -49 39z" />
<glyph unicode="|" horiz-adv-x="585" d="M248 -225v1822q0 15 1 23t7 15t18 7q33 0 33 -45v-1822q0 -45 -33 -45q-17 0 -21.5 11t-4.5 34z" />
<glyph unicode="}" horiz-adv-x="983" d="M109 -268q0 20 24 28q112 29 183.5 63t113.5 80.5t58 101.5t16 134v154q0 130 51.5 194.5t161.5 100.5q-105 32 -159 99t-54 196v153q0 79 -16 134t-58 101.5t-113.5 80.5t-183.5 63q-24 8 -24 27q0 17 13 20t30 -2q127 -26 209.5 -63t126 -90.5t59.5 -113t16 -144.5 v-162q0 -64 11 -109t38.5 -80.5t79.5 -53t129 -17.5q49 0 49 -39t-49 -39q-77 0 -129 -17.5t-79.5 -53t-38.5 -80.5t-11 -109v-162q0 -85 -16 -144.5t-59.5 -113.5t-126 -91t-209.5 -63q-17 -5 -30 -2.5t-13 19.5z" />
<glyph unicode="~" horiz-adv-x="942" d="M174 520q0 5 8 29q15 46 64.5 84.5t91.5 38.5q40 0 134 -39t128 -39q62 0 102 88q0 1 4.5 13t9.5 17t13 5q15 0 26 -10t11 -25q0 -13 -4 -25q-21 -64 -62.5 -101.5t-99.5 -37.5q-37 0 -131 40t-131 40q-62 0 -98 -80q-12 -24 -33 -24q-33 0 -33 26z" />
<glyph unicode="&#xa1;" horiz-adv-x="516" d="M190 27v1065q0 11 7.5 17.5t19.5 6.5q9 0 17 -7t8 -17v-1065q0 -11 -8 -19t-17 -8q-12 0 -19.5 7.5t-7.5 19.5zM190 1358v49q0 12 7.5 19.5t19.5 7.5q9 0 17 -8t8 -19v-49q0 -9 -8 -17t-17 -8q-11 0 -19 7.5t-8 17.5z" />
<glyph unicode="&#xa2;" horiz-adv-x="1189" d="M127 500q0 136 69 251.5t187.5 182.5t257.5 67q66 0 141 -20l41 80q3 9 13.5 13.5t19.5 0.5q9 -2 15 -12t3 -19l-40 -79q62 -24 127 -72q17 -17 2 -39q-13 -17 -35 -2q-60 44 -117 66l-408 -803q109 -64 238 -64q155 0 287 101q7 5 18 2.5t17 -9.5q14 -20 -2 -36 q-141 -109 -320 -109q-136 0 -260 70l-39 -76q0 -7 -6 -12t-14 -5t-11 3q-9 3 -13.5 12.5t-0.5 19.5l43 84q-99 70 -156 176.5t-57 227.5zM178 500q0 -108 49 -202.5t135 -156.5l398 793q-62 16 -119 16q-193 0 -328 -132t-135 -318z" />
<glyph unicode="&#xa3;" horiz-adv-x="1318" d="M135 -2q0 17 25 20l159 19v600h-135h-11h-10.5t-9 0.5t-8 1.5t-5.5 3.5t-4 6.5t-1 10q0 18 12 23.5t37 5.5h135v262q0 237 134 371q119 119 307 119q140 0 236.5 -50.5t172.5 -140.5q15 -19 15 -39q0 -10 -3 -15t-6.5 -5t-12.5 1t-15 1q-8 0 -17.5 9.5t-19 23t-12.5 16.5 q-66 76 -144.5 114t-193.5 38q-72 0 -148.5 -30t-119.5 -73q-52 -52 -86.5 -146.5t-34.5 -191.5v-264h622q16 0 25 -1.5t16.5 -8t7.5 -19.5q0 -6 -1 -10t-4 -6.5t-5.5 -3.5t-8 -1.5t-9 -0.5h-10.5h-11h-622v-600l778 -2h5q16 0 23.5 -1t14 -6.5t6.5 -17.5q0 -4 -0.5 -7.5 t-2.5 -6t-3.5 -4.5t-5 -3t-5.5 -2t-7.5 -1h-7.5h-8.5h-8.5h-987h-5q-21 1 -22 12z" />
<glyph unicode="&#xa5;" horiz-adv-x="1404" d="M113 1408.5q2 10.5 12 16.5q8 6 18.5 5t16.5 -9l487 -669l486 669q18 18 36 4q9 -6 12 -16t-3 -18l-484 -660h303q12 0 21.5 -9.5t9.5 -21.5q0 -9 -9.5 -16.5t-21.5 -7.5h-325v-254h325q12 0 21.5 -10.5t9.5 -22.5t-9.5 -19.5t-21.5 -7.5h-325v-335q0 -11 -7.5 -19 t-17.5 -8t-18 8t-8 19v335h-324q-14 0 -22.5 7.5t-8.5 19.5q0 13 9 23t22 10h324v254h-324q-13 0 -22 7.5t-9 16.5q0 12 9 21.5t22 9.5h301l-479 660q-8 7 -6 17.5z" />
<glyph unicode="&#xa8;" horiz-adv-x="1024" d="M272 1305q0 29 20.5 49t49.5 20t48.5 -20t19.5 -49t-19.5 -49.5t-48.5 -20.5t-49.5 20.5t-20.5 49.5zM645 1305q0 29 20.5 49t49.5 20t49 -20t20 -49t-20 -49.5t-49 -20.5t-49.5 20.5t-20.5 49.5z" />
<glyph unicode="&#xa9;" horiz-adv-x="1699" d="M109 713v4q0 149 58 285.5t157 236.5t237 159.5t291 59.5t290.5 -59t235.5 -158t155.5 -235t57.5 -285v-4q0 -149 -58 -285.5t-157 -237t-237 -160t-291 -59.5t-290.5 59t-235.5 158.5t-155.5 235.5t-57.5 285zM170 713q0 -186 88 -341.5t244 -247t346 -91.5 q191 0 348 92.5t245.5 249t88.5 342.5v4q0 186 -88 341.5t-244 247t-346 91.5q-191 0 -348 -92.5t-245.5 -249t-88.5 -342.5v-4zM485 725v4q0 158 109 272.5t266 114.5q146 0 264 -102q19 -15 19 -37q0 -19 -13 -31t-32 -12q-16 0 -33 14q-101 86 -207 86 q-120 0 -201.5 -88.5t-81.5 -214.5v-4q0 -125 83.5 -215t201.5 -90t217 90q15 10 29 10q17 0 29 -12t12 -29q0 -20 -14 -30q-64 -55 -126.5 -83t-148.5 -28q-157 0 -265 113t-108 272z" />
<glyph unicode="&#xab;" horiz-adv-x="1054" />
<glyph unicode="&#xad;" horiz-adv-x="835" d="M135 715q0 9 6 15.5t15 6.5h467q18 0 18 -22q0 -19 -18 -19h-467q-21 0 -21 19z" />
<glyph unicode="&#xae;" horiz-adv-x="851" d="M70 1094v2q0 147 104 252.5t252 105.5q150 0 253 -104.5t103 -251.5v-2q0 -147 -104 -253t-252 -106q-150 0 -253 105t-103 252zM90 1094q0 -141 96.5 -239.5t239.5 -98.5q141 0 238.5 99.5t97.5 240.5v2q0 141 -96.5 239.5t-239.5 98.5q-141 0 -238.5 -99.5 t-97.5 -240.5v-2zM285 872q0 -10 8 -10q3 0 6.5 3.5t3.5 6.5v197h125q6 -2 16 -4q38 -11 56 -31q32 -25 32 -69q0 -52 15 -78q9 -17 24 -17q4 0 4 2q7 0 7 9q-3 6 -11 6q-6 0 -12 8q-8 20 -8 70q0 64 -62 98q-10 6 -24 10q41 12 66.5 46.5t25.5 78.5q0 54 -37 91.5t-90 37.5 h-135h-2q-8 0 -8 -8v-447zM303 1087v222h127q46 0 79.5 -32t33.5 -79q0 -46 -33.5 -78.5t-79.5 -32.5h-127z" />
<glyph unicode="&#xb0;" horiz-adv-x="921" d="M152 1143v4q0 133 89.5 216t215.5 83q123 0 214 -86.5t91 -212.5v-4q0 -123 -87 -211t-218 -88q-128 0 -216.5 87.5t-88.5 211.5zM197 1143q0 -104 75 -182t185 -78t185 78t75 182v4q0 104 -75 183t-185 79t-185 -79t-75 -183v-4z" />
<glyph unicode="&#xb4;" horiz-adv-x="1024" d="M412 1231q0 10 8 22l127 191q24 37 57 37q18 0 25 -5t9 -15t3 -11q6 -11 -20 -37l-146 -158q-7 -7 -12 -11.5t-9.5 -7.5t-8 -4t-9.5 -3t-10 -4q-9 -4 -11.5 -3t-2.5 9z" />
<glyph unicode="&#xb8;" horiz-adv-x="1024" d="M348 -242q0 14 10 31l158 231h88l-133 -270q-10 -22 -21 -31.5t-32 -9.5q-25 0 -47.5 16t-22.5 33z" />
<glyph unicode="&#xbf;" horiz-adv-x="1093" d="M111.5 234.5q2.5 9.5 11.5 15.5q8 4 17.5 2t15.5 -10q52 -89 139.5 -141t193.5 -52q157 0 269 113t112 272q0 157 -112 270t-269 113q-10 0 -17 7t-7 18v2v4v268q0 9 7 17t17 8q9 0 17 -8t8 -17v-250q168 -9 288 -135t120 -297q0 -179 -127.5 -306.5t-305.5 -127.5 q-120 0 -219 58.5t-155 158.5q-6 8 -3.5 17.5zM465 1362v47q0 11 7 18t17 7q9 0 17 -7.5t8 -17.5v-47q0 -9 -8 -17t-17 -8q-10 0 -17 8t-7 17z" />
<glyph unicode="&#xc0;" horiz-adv-x="1329" d="M119 41q-10 -24 12 -35q2 0 5.5 -1t4.5 -1q8 0 15 6t8 13l137 366h717l137 -366q11 -19 27 -19q1 0 3.5 1t4.5 1q9 5 13.5 15t0.5 20l-516 1376q-10 17 -26 17q-20 3 -27 -17zM322 442l337 897l338 -897h-675zM518 1860q1 1 3 11t9 14.5t25 4.5q33 0 57 -37l127 -190 q9 -14 9 -23q0 -14 -15 -6q-4 2 -10.5 4t-9 3.5t-7.5 4t-10 7.5l-12 12l-145 158q-27 27 -21 37z" />
<glyph unicode="&#xc1;" horiz-adv-x="1323" d="M119 41l516 1376q7 20 27 17q16 0 26 -17l516 -1376q4 -10 -0.5 -20t-13.5 -15q-2 0 -4.5 -1t-3.5 -1q-16 0 -27 19l-137 366h-717l-137 -366q-1 -7 -8 -13t-15 -6q-1 0 -4.5 1t-5.5 1q-22 11 -12 35zM322 442h675l-338 897zM590 1640q0 11 8 23l127 190q24 37 57 37 q18 0 25 -4.5t9 -14.5t3 -11q6 -11 -20 -37l-146 -158l-12 -12t-10 -7.5t-7.5 -4t-9 -3.5t-10.5 -4q-9 -4 -11.5 -3t-2.5 9z" />
<glyph unicode="&#xc2;" horiz-adv-x="1359" d="M121 41q-10 -24 12 -35q2 0 5.5 -1t4.5 -1q8 0 15 6t8 13l137 366h717l137 -366q11 -19 27 -19q1 0 3.5 1t4.5 1q9 5 13.5 15t0.5 20l-516 1376q-10 17 -26 17q-20 3 -27 -17zM324 442l338 897l337 -897h-675zM453 1642q0 12 10 25l147 180q29 37 58 37h16q28 0 57 -37 l148 -180q10 -12 10 -25q0 -3 -1 -4.5t-3.5 -1.5t-5 0.5t-7.5 1t-10 0.5q-8 0 -17 5t-14 9.5t-14 14t-10 10.5l-143 154l-142 -156l-9 -9q-9 -10 -13.5 -14t-13 -9t-15.5 -5q-5 0 -13.5 -1t-11.5 -0.5t-3 5.5z" />
<glyph unicode="&#xc3;" horiz-adv-x="1359" d="M121 41q-10 -24 12 -35q2 0 5.5 -1t4.5 -1q8 0 15 6t8 13l137 366h717l137 -366q11 -19 27 -19q1 0 3.5 1t4.5 1q9 5 13.5 15t0.5 20l-516 1376q-10 17 -26 17q-20 3 -27 -17zM324 442l338 897l337 -897h-675zM369 1645q0 4 8 28q15 46 64 84.5t91 38.5q40 0 134.5 -39 t128.5 -39q62 0 102 88q0 1 4.5 13t9.5 17t13 5q15 0 26 -10t11 -25q0 -9 -5 -24q-21 -64 -62 -102t-99 -38q-37 0 -131.5 40t-131.5 40q-62 0 -98 -80q-12 -24 -33 -24q-32 0 -32 27z" />
<glyph unicode="&#xc4;" horiz-adv-x="1357" d="M121 41q-10 -24 12 -35q2 0 5.5 -1t4.5 -1q8 0 15 6t8 13l137 366h717l137 -366q11 -19 27 -19q1 0 3.5 1t4.5 1q9 5 13.5 15t0.5 20l-516 1376q-10 17 -26 17q-20 3 -27 -17zM324 442l338 897l337 -897h-675zM406 1714q0 29 20 49.5t49 20.5t48.5 -20.5t19.5 -49.5 t-19.5 -49t-48.5 -20t-49 20t-20 49zM778 1714q0 29 20.5 49.5t49.5 20.5t49.5 -20.5t20.5 -49.5t-20.5 -49t-49.5 -20t-49.5 20t-20.5 49z" />
<glyph unicode="&#xc5;" horiz-adv-x="1323" d="M94 39l494 1319q-53 14 -87 57.5t-34 100.5v2q0 71 48.5 115t117.5 44q67 0 116.5 -45.5t49.5 -113.5v-2q0 -55 -31.5 -98t-83.5 -58l496 -1321q4 -10 -0.5 -20t-14.5 -15q-2 0 -4.5 -1t-3.5 -1q-16 0 -27 18l-137 367h-717l-137 -367q-4 -18 -22 -18q-1 0 -5 1t-6 1 q-22 11 -12 35zM297 440h676l-338 897zM516 1513q0 -39 25 -71t63 -41q20 -4 29 -4q20 0 35 6q36 10 59 41.5t23 68.5v3q0 46 -33.5 81t-83.5 35t-83.5 -35t-33.5 -81v-3z" />
<glyph unicode="&#xc6;" horiz-adv-x="2140" d="M86 39q36 71 817 1362q20 33 53 33h1018q16 0 25 -1.5t16.5 -8t7.5 -19.5q0 -18 -12 -23.5t-37 -5.5h-887v-620h795q49 0 49 -33t-49 -33h-795v-631h898q17 0 25.5 -1t16 -7.5t7.5 -19.5q0 -31 -49 -31h-906q-22 0 -37.5 15.5t-15.5 37.5v369h-641l-246 -406 q-14 -22 -39 -18q-25 3 -14 41zM420 477h606v901h-65z" />
<glyph unicode="&#xc7;" horiz-adv-x="1579" d="M150 729q0 195 99.5 362t271 265t372.5 98q259 0 465 -158q9 -8 11.5 -18t-3.5 -18q-22 -22 -39 -5q-189 146 -434 146q-187 0 -345.5 -90t-251.5 -245t-93 -337q0 -184 93 -340t251.5 -246t345.5 -90q243 0 432 146q23 15 39 -4q7 -8 5 -18.5t-11 -18.5 q-212 -158 -465 -158q-202 1 -373 99t-270.5 265.5t-99.5 364.5zM676 -242q0 14 10 31l158 231h88l-133 -270q-10 -22 -21 -31.5t-32 -9.5q-25 0 -47.5 16t-22.5 33z" />
<glyph unicode="&#xc8;" horiz-adv-x="1214" d="M213 27v1380q0 10 7 18t18 9h2h2h759q10 0 17.5 -8t7.5 -19t-7 -18t-18 -7h-737v-639h649q10 0 17.5 -7.5t7.5 -16.5q0 -12 -7 -19.5t-18 -7.5h-649v-641h737q11 0 18 -7t7 -17q0 -11 -7.5 -19t-17.5 -8h-757h-2h-4q-11 0 -18 8t-7 19zM455 1860q1 1 3 11t9 15t25 5 q33 0 57 -37l127 -191q8 -12 8 -22q0 -8 -2.5 -9t-11.5 3q-4 2 -10 4t-9.5 3t-8 4t-9.5 7.5t-12 11.5l-146 158q-26 26 -20 37z" />
<glyph unicode="&#xc9;" horiz-adv-x="1214" d="M213 27v1380q0 10 7 18t18 9h2h2h759q10 0 17.5 -8t7.5 -19t-7 -18t-18 -7h-737v-639h649q10 0 17.5 -7.5t7.5 -16.5q0 -12 -7 -19.5t-18 -7.5h-649v-641h737q11 0 18 -7t7 -17q0 -11 -7.5 -19t-17.5 -8h-757h-2h-4q-11 0 -18 8t-7 19zM514 1640q0 11 8 23l127 190 q24 37 58 37q18 0 25 -4.5t8.5 -14t2.5 -11.5q6 -11 -20 -37l-145 -158q-8 -9 -15 -14.5t-10.5 -7t-12 -5t-12.5 -4.5q-9 -4 -11.5 -3t-2.5 9z" />
<glyph unicode="&#xca;" horiz-adv-x="1214" d="M213 27v1380q0 10 7 18t18 9h2h2h759q10 0 17.5 -8t7.5 -19t-7 -18t-18 -7h-737v-639h649q10 0 17.5 -7.5t7.5 -16.5q0 -12 -7 -19.5t-18 -7.5h-649v-641h737q11 0 18 -7t7 -17q0 -11 -7.5 -19t-17.5 -8h-757h-2h-4q-11 0 -18 8t-7 19zM398 1643q0 11 10 24l147 181 q29 37 58 37h16q29 0 58 -37l147 -181q10 -12 10 -24q0 -3 -1 -4.5t-3 -1.5t-5 0.5t-7.5 1t-9.5 0.5q-7 0 -13.5 2.5t-13 8t-11 9.5t-11 11t-7.5 8l-143 153l-141 -155q-1 -1 -7 -7.5t-10 -10t-10.5 -9t-12.5 -8t-12 -2.5q-5 0 -13.5 -1t-11.5 -0.5t-3 5.5z" />
<glyph unicode="&#xcb;" horiz-adv-x="1372" d="M213 27q0 -11 7 -19t18 -8h4h2h757q10 0 17.5 8t7.5 19q0 10 -7 17t-18 7h-737v641h649q11 0 18 7.5t7 19.5q0 9 -7.5 16.5t-17.5 7.5h-649v639h737q11 0 18 7t7 18t-7.5 19t-17.5 8h-759h-2h-2q-11 -1 -18 -9t-7 -18v-1380zM360 1714q0 29 20.5 49.5t49.5 20.5 t48.5 -20.5t19.5 -49.5t-19.5 -49t-48.5 -20t-49.5 20t-20.5 49zM733 1714q0 29 20.5 49.5t49.5 20.5t49 -20.5t20 -49.5t-20 -49t-49 -20t-49.5 20t-20.5 49z" />
<glyph unicode="&#xcc;" horiz-adv-x="712" d="M309 1860q1 1 3 11t9 14.5t25 4.5q33 0 57 -37l127 -190q9 -14 9 -23q0 -14 -15 -6q-4 2 -10.5 4t-9 3.5t-7.5 4t-10 7.5l-12 12l-145 158q-27 27 -21 37zM395 27q0 -12 7.5 -19.5t19.5 -7.5q9 0 16.5 7.5t7.5 19.5v1380q0 12 -7.5 19.5t-16.5 7.5q-12 0 -19.5 -7.5 t-7.5 -19.5v-1380z" />
<glyph unicode="&#xcd;" horiz-adv-x="561" d="M170 1640q0 11 8 23l127 190q24 37 57 37q18 0 25 -4.5t9 -14.5t3 -11q6 -11 -20 -37l-146 -158l-12 -12t-10 -7.5t-7.5 -4t-9 -3.5t-10.5 -4q-9 -4 -11.5 -3t-2.5 9zM262 27v1380q0 12 7.5 19.5t19.5 7.5q9 0 16.5 -7.5t7.5 -19.5v-1380q0 -12 -7.5 -19.5t-16.5 -7.5 q-12 0 -19.5 7.5t-7.5 19.5z" />
<glyph unicode="&#xce;" horiz-adv-x="561" d="M2 1642q0 12 10 25l148 180q29 37 57 37h16q29 0 58 -37l147 -180q11 -14 11 -25q0 -3 -1 -4.5t-3.5 -1.5t-5 0.5t-7.5 1t-10 0.5q-8 0 -17 5t-14 9.5t-14 14t-10 10.5l-144 154l-141 -156l-9 -9q-9 -10 -13.5 -14t-13 -9t-15.5 -5q-5 0 -14 -1t-12 -0.5t-3 5.5zM201 27 q0 -27 26 -27q9 0 17 8t8 19v1380q0 11 -8 19t-17 8q-26 0 -26 -27v-1380z" />
<glyph unicode="&#xcf;" horiz-adv-x="561" d="M-16 1714q0 29 20 49.5t49 20.5t48.5 -20.5t19.5 -49.5t-19.5 -49t-48.5 -20t-49 20t-20 49zM215 27q0 -12 7.5 -19.5t19.5 -7.5q9 0 16.5 7.5t7.5 19.5v1380q0 12 -7.5 19.5t-16.5 7.5q-12 0 -19.5 -7.5t-7.5 -19.5v-1380zM356 1714q0 29 20.5 49.5t49.5 20.5 t49.5 -20.5t20.5 -49.5t-20.5 -49t-49.5 -20t-49.5 20t-20.5 49z" />
<glyph unicode="&#xd0;" horiz-adv-x="1662" d="M113 721q0 9 5.5 15.5t14.5 6.5h205v664q0 11 7.5 19t19.5 8h274q146 0 279 -57t229 -153t152.5 -228t56.5 -277q0 -146 -56.5 -279.5t-152.5 -229.5t-229 -153t-279 -57h-274q-12 0 -19.5 8t-7.5 19v675h-205q-20 0 -20 19zM389 51h250q136 1 259 54.5t212 142.5 t141.5 212t53.5 259q-1 135 -53.5 257.5t-141.5 211.5t-212 141.5t-259 52.5h-250v-639h211q18 0 18 -22q0 -19 -18 -19h-211v-651z" />
<glyph unicode="&#xd1;" horiz-adv-x="1617" d="M213 27q0 -10 9 -18.5t18 -8.5q10 0 17 8t7 19v1300l942 -1309q0 -2 2 -2q6 -16 25 -16q10 0 17 8t7 19v1370q0 11 -7 18.5t-17 7.5q-9 0 -18 -8t-9 -18v-1291l-946 1315q-14 17 -37 4q-10 -10 -10 -22v-6v-1370zM442 1645q0 1 9 28q15 46 64 84.5t91 38.5q40 0 134 -39 t128 -39q63 0 103 88q1 3 4 10.5t5 12t6.5 8.5t10.5 4q15 0 26 -10t11 -25q0 -12 -4 -24q-21 -64 -62.5 -102t-99.5 -38q-37 0 -131 40t-131 40q-62 0 -98 -80q-12 -24 -33 -24q-33 0 -33 27z" />
<glyph unicode="&#xd2;" horiz-adv-x="1740" d="M150 715q1 151 56 288t148 236t222 157t272 58q190 0 350.5 -98.5t254 -268.5t95.5 -372q-2 -203 -95.5 -373.5t-254 -269.5t-350.5 -99t-350.5 99t-253.5 269.5t-94 373.5zM205 715q0 -186 87 -343.5t234.5 -249t321.5 -93.5q129 1 247.5 56t205 146t138 218t52.5 266 q-1 187 -88 345t-235 249.5t-320 91.5q-173 0 -321 -91.5t-235 -249.5t-87 -345zM737 1860q1 1 3 11t9 15t25 5q33 0 57 -37l127 -191q8 -12 8 -22q0 -8 -2.5 -9t-11.5 3q-4 2 -10 4t-9.5 3t-8 4t-9.5 7.5t-12 11.5l-146 158q-26 26 -20 37z" />
<glyph unicode="&#xd3;" horiz-adv-x="1740" d="M150 715q1 151 56 288t148 236t222 157t272 58q190 0 350.5 -98.5t254 -268.5t95.5 -372q-2 -203 -95.5 -373.5t-254 -269.5t-350.5 -99t-350.5 99t-253.5 269.5t-94 373.5zM205 715q0 -186 87 -343.5t234.5 -249t321.5 -93.5q129 1 247.5 56t205 146t138 218t52.5 266 q-1 187 -88 345t-235 249.5t-320 91.5q-173 0 -321 -91.5t-235 -249.5t-87 -345zM733 1640q0 11 8 23l127 190q24 37 58 37q18 0 25 -4.5t9 -14.5t3 -11q6 -10 -21 -37l-145 -158l-12 -12t-10 -7.5t-7.5 -4t-9 -3.5t-10.5 -4q-15 -8 -15 6z" />
<glyph unicode="&#xd4;" horiz-adv-x="1740" d="M150 715q1 151 56 288t148 236t222 157t272 58q190 0 350.5 -98.5t254 -268.5t95.5 -372q-2 -203 -95.5 -373.5t-254 -269.5t-350.5 -99t-350.5 99t-253.5 269.5t-94 373.5zM205 715q0 -186 87 -343.5t234.5 -249t321.5 -93.5q129 1 247.5 56t205 146t138 218t52.5 266 q-1 187 -88 345t-235 249.5t-320 91.5q-173 0 -321 -91.5t-235 -249.5t-87 -345zM627 1643q0 11 10 24l147 181q29 37 58 37h16q29 0 58 -37l147 -181q10 -12 10 -24q0 -3 -1 -4.5t-3 -1.5t-5 0.5t-7.5 1t-9.5 0.5q-7 0 -13.5 2.5t-13 8t-11 9.5t-11 11t-7.5 8l-143 153 l-141 -155q-1 -1 -7 -7.5t-10 -10t-10.5 -9t-12.5 -8t-12 -2.5q-5 0 -13.5 -1t-11.5 -0.5t-3 5.5z" />
<glyph unicode="&#xd5;" horiz-adv-x="1740" d="M150 715q1 -203 94 -373.5t253.5 -269.5t350.5 -99t350.5 99t254 269.5t95.5 373.5q-2 202 -95.5 372t-254 268.5t-350.5 98.5q-143 0 -272 -58t-222 -157t-148 -236t-56 -288zM205 715q0 187 87 345t235 249.5t321 91.5q172 0 320 -91.5t235 -249.5t88 -345 q-1 -139 -52.5 -266t-138 -218t-205 -146t-247.5 -56q-174 2 -321.5 93.5t-234.5 249t-87 343.5zM555 1645q0 4 8 28q15 46 64.5 84.5t91.5 38.5q40 0 134 -39t128 -39q62 0 102 88q0 1 4.5 13t9.5 17t13 5q15 0 26 -10t11 -25q0 -12 -4 -24q-21 -64 -62.5 -102t-99.5 -38 q-37 0 -131 40t-131 40q-62 0 -98 -80q-12 -24 -33 -24q-33 0 -33 27z" />
<glyph unicode="&#xd6;" horiz-adv-x="1740" d="M150 715q1 -203 94 -373.5t253.5 -269.5t350.5 -99t350.5 99t254 269.5t95.5 373.5q-2 202 -95.5 372t-254 268.5t-350.5 98.5q-143 0 -272 -58t-222 -157t-148 -236t-56 -288zM205 715q0 187 87 345t235 249.5t321 91.5q172 0 320 -91.5t235 -249.5t88 -345 q-1 -139 -52.5 -266t-138 -218t-205 -146t-247.5 -56q-174 2 -321.5 93.5t-234.5 249t-87 343.5zM592 1714q0 29 20.5 49.5t49.5 20.5t48 -20t19 -50q0 -29 -19 -49t-48 -20t-49.5 20t-20.5 49zM965 1714q0 29 20 49.5t49 20.5t49.5 -20.5t20.5 -49.5t-20.5 -49t-49.5 -20 t-49 20t-20 49z" />
<glyph unicode="&#xd7;" horiz-adv-x="1269" d="M205 340q0 21 16 37l346 342l-344 340q-18 18 -18 41q0 22 14.5 36.5t36.5 14.5q23 0 41 -18l340 -345l342 347q16 16 37 16q20 0 34.5 -14.5t14.5 -34.5q0 -21 -16 -37l-347 -342l345 -340q18 -18 18 -41q0 -22 -14.5 -36.5t-36.5 -14.5q-23 0 -41 18l-340 344 l-342 -346q-16 -16 -37 -16q-20 0 -34.5 14.5t-14.5 34.5z" />
<glyph unicode="&#xd8;" horiz-adv-x="1740" d="M150 715q1 151 56 288t148 236t222 157t272 58q190 0 350.5 -98.5t254 -268.5t95.5 -372q-2 -203 -95.5 -373.5t-254 -269.5t-350.5 -99t-350.5 99t-253.5 269.5t-94 373.5zM200 46q0 11 7 20l1237 1282q6 8 17.5 8.5t19.5 -6.5q7 -6 8.5 -18t-4.5 -19l-1243 -1284 q-10 -13 -27 -6q-8 0 -8 6q-7 6 -7 17zM205 715q0 -186 87 -343.5t234.5 -249t321.5 -93.5q129 1 247.5 56t205 146t138 218t52.5 266q-1 187 -88 345t-235 249.5t-320 91.5q-173 0 -321 -91.5t-235 -249.5t-87 -345z" />
<glyph unicode="&#xd9;" horiz-adv-x="1556" d="M190 575q0 -157 77 -289.5t209 -209t288 -76.5q116 0 222.5 45.5t183.5 122t123 183.5t46 224v832q0 10 -8.5 18.5t-17.5 8.5q-11 0 -19 -8t-8 -19v-832q-1 -107 -42.5 -203.5t-111.5 -166.5t-166 -111.5t-202 -42.5q-143 2 -262.5 71.5t-189.5 189.5t-70 263v832 q0 11 -7.5 19t-17.5 8q-12 0 -19.5 -8t-7.5 -19v-832zM541 1860q1 1 3 11t9 14.5t25 4.5q33 0 57 -37l127 -190q8 -12 8 -23q0 -8 -2.5 -9t-11.5 3q-4 2 -10.5 4t-9 3.5t-7.5 4t-10 7.5l-12 12l-146 158q-26 26 -20 37z" />
<glyph unicode="&#xda;" horiz-adv-x="1556" d="M190 575v832q0 11 7.5 19t19.5 8q10 0 17.5 -8t7.5 -19v-832q0 -143 70 -263t189.5 -189.5t262.5 -71.5q106 1 202 42.5t166 111.5t111.5 166.5t42.5 203.5v832q0 11 8 19t19 8q9 0 17.5 -8.5t8.5 -18.5v-832q0 -117 -46 -224t-123 -183.5t-183.5 -122t-222.5 -45.5 q-156 0 -288 76.5t-209 209t-77 289.5zM612 1640q0 9 9 23l127 190q24 37 57 37q18 0 25 -4.5t9 -14.5t3 -11q6 -10 -21 -37l-145 -158l-12 -12t-10 -7.5t-7.5 -4t-9 -3.5t-10.5 -4q-15 -8 -15 6z" />
<glyph unicode="&#xdb;" horiz-adv-x="1556" d="M190 575q0 -157 77 -289.5t209 -209t288 -76.5q116 0 222.5 45.5t183.5 122t123 183.5t46 224v832q0 10 -8.5 18.5t-17.5 8.5q-11 0 -19 -8t-8 -19v-832q-1 -107 -42.5 -203.5t-111.5 -166.5t-166 -111.5t-202 -42.5q-143 2 -262.5 71.5t-189.5 189.5t-70 263v832 q0 11 -7.5 19t-17.5 8q-12 0 -19.5 -8t-7.5 -19v-832zM471 1642q0 12 10 25l148 180q29 37 57 37h16q29 0 58 -37l147 -180q11 -14 11 -25q0 -3 -1 -4.5t-3.5 -1.5t-5 0.5t-7.5 1t-10 0.5q-8 0 -17 5t-14 9.5t-14 14t-10 10.5l-144 154l-141 -156l-9 -9q-9 -10 -13.5 -14 t-13 -9t-15.5 -5q-5 0 -14 -1t-12 -0.5t-3 5.5z" />
<glyph unicode="&#xdc;" horiz-adv-x="1556" d="M190 575q0 -157 77 -289.5t209 -209t288 -76.5q116 0 222.5 45.5t183.5 122t123 183.5t46 224v832q0 10 -8.5 18.5t-17.5 8.5q-11 0 -19 -8t-8 -19v-832q-1 -107 -42.5 -203.5t-111.5 -166.5t-166 -111.5t-202 -42.5q-143 2 -262.5 71.5t-189.5 189.5t-70 263v832 q0 11 -7.5 19t-17.5 8q-12 0 -19.5 -8t-7.5 -19v-832zM508 1714q0 29 20.5 49.5t49.5 20.5t48 -20t19 -50q0 -29 -19 -49t-48 -20t-49.5 20t-20.5 49zM881 1714q0 29 20 49.5t49 20.5t49.5 -20.5t20.5 -49.5t-20.5 -49t-49.5 -20t-49 20t-20 49z" />
<glyph unicode="&#xdd;" horiz-adv-x="1466" d="M115 1408.5q2 10.5 12 16.5q8 6 18.5 5t16.5 -9l487 -669l486 669q18 18 36 4q9 -6 12 -16t-3 -18l-506 -691v-673q0 -11 -7.5 -19t-17.5 -8t-18 8t-8 19v673l-502 691q-8 7 -6 17.5zM578 1640q0 11 8 23l127 190q24 37 57 37q18 0 25 -4.5t9 -14.5t3 -11q6 -10 -21 -37 l-145 -158l-12 -12t-10 -7.5t-7.5 -4t-9 -3.5t-10.5 -4q-9 -4 -11.5 -3t-2.5 9z" />
<glyph unicode="&#xdf;" horiz-adv-x="1269" d="M193 17.5v7v8.5v8v983q0 216 125 353.5t325 131.5q183 -6 295.5 -106.5t112.5 -251.5v-4q0 -58 -22 -112t-57 -95.5t-82.5 -77.5t-95 -61t-98.5 -43q86 -15 162 -43t142.5 -72t105 -110t37.5 -146q-3 -170 -146.5 -276.5t-367.5 -114.5q-43 0 -43 33q0 18 11.5 29.5 t29.5 13.5q89 5 167.5 27t140.5 60t98 97t36 131q0 67 -36 122t-98.5 91t-137 59.5t-160.5 34.5q-51 7 -51 49q0 38 41 52q71 25 131 56.5t113 74.5t83.5 101t30.5 124q0 117 -104.5 208t-239.5 91q-152 0 -267.5 -124.5t-115.5 -301.5v-983q0 -49 -39 -49q-4 0 -7.5 0.5 t-6 1.5t-4.5 3l-3.5 3.5t-2.5 5t-1.5 5.5t-0.5 6.5z" />
<glyph unicode="&#xe0;" horiz-adv-x="1175" d="M129 502q0 135 63 250.5t172 183.5t238 68q135 0 248.5 -76.5t173.5 -200.5v250q0 10 8 18.5t19 8.5q10 0 17 -8.5t7 -18.5v-950q0 -12 -6.5 -19.5t-17.5 -7.5q-12 0 -19.5 7.5t-7.5 19.5v249q-59 -125 -172.5 -200.5t-249.5 -75.5q-129 0 -238 68t-172 183.5t-63 250.5z M180 502q0 -187 124 -319t298 -132t298 132t124 319q0 122 -57 225t-154 163t-211 60t-211 -60t-154 -163t-57 -225zM492 1399q1 2 2.5 11.5t8.5 14.5t25 5q34 0 58 -37l127 -191q8 -12 8 -22q0 -8 -2.5 -9t-11.5 3q-5 2 -13 4.5t-11.5 4t-10.5 7t-15 14.5l-145 158 q-26 26 -20 37z" />
<glyph unicode="&#xe1;" horiz-adv-x="1175" d="M129 502q0 135 63 250.5t172 183.5t238 68q135 0 248.5 -76.5t173.5 -200.5v250q0 10 8 18.5t19 8.5q10 0 17 -8.5t7 -18.5v-950q0 -12 -6.5 -19.5t-17.5 -7.5q-12 0 -19.5 7.5t-7.5 19.5v249q-59 -125 -172.5 -200.5t-249.5 -75.5q-129 0 -238 68t-172 183.5t-63 250.5z M180 502q0 -187 124 -319t298 -132t298 132t124 319q0 122 -57 225t-154 163t-211 60t-211 -60t-154 -163t-57 -225zM487 1180q0 8 9 22l127 191q24 37 57 37q18 0 25 -5t9 -15t3 -11q6 -10 -21 -37l-145 -158q-7 -7 -12 -11.5t-9.5 -7.5t-8 -4t-9.5 -3t-10 -4q-15 -8 -15 6 z" />
<glyph unicode="&#xe2;" horiz-adv-x="1175" d="M129 502q0 135 63 250.5t172 183.5t238 68q135 0 248.5 -76.5t173.5 -200.5v250q0 10 8 18.5t19 8.5q10 0 17 -8.5t7 -18.5v-950q0 -12 -6.5 -19.5t-17.5 -7.5q-12 0 -19.5 7.5t-7.5 19.5v249q-59 -125 -172.5 -200.5t-249.5 -75.5q-129 0 -238 68t-172 183.5t-63 250.5z M180 502q0 -187 124 -319t298 -132t298 132t124 319q0 122 -57 225t-154 163t-211 60t-211 -60t-154 -163t-57 -225zM436 1178q0 12 10 24l148 180q29 37 57 37h17q28 0 57 -37l147 -180q11 -14 11 -24q0 -3 -1 -4.5t-3.5 -1.5t-5 0.5t-7.5 1t-10 0.5q-7 0 -13.5 2.5 t-13 7.5t-10.5 9t-10 10.5t-8 8.5l-144 154l-141 -156q-1 -1 -7 -7.5t-10 -10t-10 -8.5t-12 -7.5t-12 -2.5q-5 0 -14 -1t-12 -0.5t-3 5.5z" />
<glyph unicode="&#xe3;" horiz-adv-x="1175" d="M129 502q0 135 63 250.5t172 183.5t238 68q135 0 248.5 -76.5t173.5 -200.5v250q0 10 8 18.5t19 8.5q10 0 17 -8.5t7 -18.5v-950q0 -12 -6.5 -19.5t-17.5 -7.5q-12 0 -19.5 7.5t-7.5 19.5v249q-59 -125 -172.5 -200.5t-249.5 -75.5q-129 0 -238 68t-172 183.5t-63 250.5z M180 502q0 -187 124 -319t298 -132t298 132t124 319q0 122 -57 225t-154 163t-211 60t-211 -60t-154 -163t-57 -225zM309 1194q0 5 8 29q15 46 64.5 84.5t91.5 38.5q40 0 134 -39t128 -39q63 0 103 88q1 3 4 10.5t5 12t6.5 8.5t10.5 4q15 0 26 -10t11 -25q0 -13 -4 -25 q-21 -64 -62.5 -101.5t-99.5 -37.5q-37 0 -131 40t-131 40q-62 0 -98 -80q-13 -25 -33 -25q-33 0 -33 27z" />
<glyph unicode="&#xe4;" horiz-adv-x="1175" d="M129 502q0 135 63 250.5t172 183.5t238 68q135 0 248.5 -76.5t173.5 -200.5v250q0 10 8 18.5t19 8.5q10 0 17 -8.5t7 -18.5v-950q0 -12 -6.5 -19.5t-17.5 -7.5q-12 0 -19.5 7.5t-7.5 19.5v249q-59 -125 -172.5 -200.5t-249.5 -75.5q-129 0 -238 68t-172 183.5t-63 250.5z M180 502q0 -187 124 -319t298 -132t298 132t124 319q0 122 -57 225t-154 163t-211 60t-211 -60t-154 -163t-57 -225zM346 1255q0 29 20.5 49.5t49.5 20.5t48 -20t19 -50q0 -29 -19 -49t-48 -20t-49.5 20t-20.5 49zM719 1255q0 29 20 49.5t49 20.5t49.5 -20.5t20.5 -49.5 t-20.5 -49t-49.5 -20t-49 20t-20 49z" />
<glyph unicode="&#xe5;" horiz-adv-x="1175" d="M104 502q0 135 63.5 250.5t172.5 183.5t238 68q135 0 248 -76.5t173 -200.5v250q0 10 8 18.5t19 8.5q10 0 17.5 -8.5t7.5 -18.5v-950q0 -12 -7 -19.5t-18 -7.5q-12 0 -19.5 7.5t-7.5 19.5v249q-59 -125 -172 -200.5t-249 -75.5q-129 0 -238 68t-172.5 183.5t-63.5 250.5z M156 502q0 -187 124 -319t298 -132t297.5 132t123.5 319q0 122 -56.5 225t-153.5 163t-211 60t-211 -60t-154 -163t-57 -225zM414 1331v2q0 71 49 115.5t117 44.5q67 0 116 -46t49 -114v-2q0 -67 -47 -115.5t-118 -48.5q-69 0 -117.5 48t-48.5 116zM463 1329q0 -46 34 -81.5 t83 -35.5t82.5 35.5t33.5 81.5v2q0 46 -33.5 81.5t-82.5 35.5t-83 -35.5t-34 -81.5v-2z" />
<glyph unicode="&#xe6;" horiz-adv-x="1953" d="M104 502q0 136 63.5 252t172.5 184t238 68q137 0 250 -76.5t173 -200.5v250q0 10 8 18.5t19 8.5q10 0 17.5 -8.5t7.5 -18.5v-287q56 139 176.5 224t269.5 85q191 0 329 -133t152 -329v-2v-5v-2q-2 -9 -8.5 -16.5t-15.5 -7.5h-891v-6q0 -120 58 -223t158 -164t218 -62 q112 0 207.5 55.5t153.5 149.5q11 17 36 6q8 -5 10.5 -15.5t-3.5 -19.5q-66 -103 -173.5 -165t-230.5 -62q-148 1 -268.5 87t-177.5 222v-282q0 -12 -7 -19.5t-18 -7.5q-12 0 -19.5 7.5t-7.5 19.5v249q-60 -125 -173 -200.5t-250 -75.5q-129 0 -238 68t-172.5 183.5 t-63.5 250.5zM156 502q0 -187 124 -319t298 -132q175 0 299 132t124 319t-124 318.5t-299 131.5q-174 0 -298 -131.5t-124 -318.5zM1067 555h862q-20 168 -143 280.5t-287 112.5q-165 0 -288.5 -112.5t-143.5 -280.5z" />
<glyph unicode="&#xe7;" horiz-adv-x="1169" d="M119 502q0 136 69 251.5t188 183t259 67.5q182 0 319 -109q17 -17 2 -39q-13 -16 -34 -2q-129 98 -287 98q-194 0 -329.5 -131.5t-135.5 -318.5t135.5 -319t329.5 -132q155 0 287 101q7 5 17.5 2.5t16.5 -9.5q14 -20 -2 -36q-141 -109 -319 -109q-140 1 -259 69t-188 183 t-69 250zM432 -242q0 14 10 31l158 231h88l-133 -270q-10 -22 -21 -31.5t-32 -9.5q-25 0 -47.5 16t-22.5 33z" />
<glyph unicode="&#xe8;" horiz-adv-x="1247" d="M119 502q2 137 67 252.5t176.5 182.5t243.5 67q191 0 329 -133.5t152 -329.5v-2v-4v-3q-2 -9 -8.5 -16.5t-15.5 -7.5h-893v-6q0 -121 58 -224.5t158.5 -164.5t219.5 -62q112 0 207.5 55.5t153.5 149.5q11 17 37 6q8 -5 10 -15.5t-4 -19.5q-66 -103 -173.5 -165 t-230.5 -62q-132 2 -243.5 70t-176.5 182.5t-67 249.5zM172 557h864q-20 168 -143 280.5t-287 112.5q-167 0 -290.5 -112.5t-143.5 -280.5zM492 1399q1 1 3 11t9 15t25 5q33 0 57 -37l127 -191q8 -12 8 -22q0 -8 -2.5 -9t-11.5 3q-4 2 -10 4t-9.5 3t-8 4t-9.5 7.5t-12 11.5 l-146 158q-26 26 -20 37z" />
<glyph unicode="&#xe9;" horiz-adv-x="1247" d="M119 502q2 137 67 252.5t176.5 182.5t243.5 67q191 0 329 -133.5t152 -329.5v-2v-4v-3q-2 -9 -8.5 -16.5t-15.5 -7.5h-893v-6q0 -121 58 -224.5t158.5 -164.5t219.5 -62q112 0 207.5 55.5t153.5 149.5q11 17 37 6q8 -5 10 -15.5t-4 -19.5q-66 -103 -173.5 -165 t-230.5 -62q-132 2 -243.5 70t-176.5 182.5t-67 249.5zM172 557h864q-20 168 -143 280.5t-287 112.5q-167 0 -290.5 -112.5t-143.5 -280.5zM485 1180q0 8 9 22l127 191q24 37 57 37q18 0 25 -5t9 -15t3 -11q6 -10 -21 -37l-145 -158q-7 -7 -12 -11.5t-9.5 -7.5t-8 -4 t-9.5 -3t-10 -4q-15 -8 -15 6z" />
<glyph unicode="&#xea;" horiz-adv-x="1247" d="M119 502q2 137 67 252.5t176.5 182.5t243.5 67q191 0 329 -133.5t152 -329.5v-2v-4v-3q-2 -9 -8.5 -16.5t-15.5 -7.5h-893v-6q0 -121 58 -224.5t158.5 -164.5t219.5 -62q112 0 207.5 55.5t153.5 149.5q11 17 37 6q8 -5 10 -15.5t-4 -19.5q-66 -103 -173.5 -165 t-230.5 -62q-132 2 -243.5 70t-176.5 182.5t-67 249.5zM172 557h864q-20 168 -143 280.5t-287 112.5q-167 0 -290.5 -112.5t-143.5 -280.5zM381 1178q0 12 10 24l147 181q29 37 58 37h16q29 0 58 -37l147 -181q10 -13 10 -24q0 -3 -1 -4.5t-3 -1.5t-5 0.5t-7.5 1t-9.5 0.5 q-7 0 -13.5 2.5t-13 8t-11 9.5t-11 11t-7.5 8l-143 153l-141 -155q-1 -1 -7 -7.5t-10 -10t-10.5 -9t-12.5 -8t-12 -2.5q-5 0 -13.5 -1t-11.5 -0.5t-3 5.5z" />
<glyph unicode="&#xeb;" horiz-adv-x="1196" d="M125 502q2 -135 67 -249.5t176.5 -182.5t243.5 -70q123 0 230.5 62t173.5 165q6 9 4 19.5t-10 15.5q-26 11 -37 -6q-58 -94 -153.5 -149.5t-207.5 -55.5q-119 1 -219.5 62t-158.5 164.5t-58 224.5v6h893q9 0 16 7.5t9 16.5v3v4v2q-14 196 -152.5 329.5t-329.5 133.5 q-132 0 -243.5 -67t-176.5 -182.5t-67 -252.5zM178 557q20 168 143.5 280.5t290.5 112.5q164 0 287 -112.5t143 -280.5h-864zM352 1237q0 29 20.5 49.5t49.5 20.5t48 -20t19 -50t-19 -50t-48 -20t-49.5 20.5t-20.5 49.5zM725 1237q0 29 20.5 49.5t49.5 20.5t49 -20.5 t20 -49.5t-20 -49.5t-49 -20.5t-49.5 20.5t-20.5 49.5z" />
<glyph unicode="&#xec;" horiz-adv-x="575" d="M109 1399q1 2 2.5 11.5t8.5 14.5t25 5q34 0 58 -37l127 -191q8 -12 8 -22q0 -8 -2.5 -9t-11.5 3q-5 2 -13 4.5t-11.5 4t-10.5 7t-15 14.5l-145 158q-26 26 -20 37zM195 27q0 -11 7 -19t19 -8q9 0 17 8.5t8 18.5v952q0 11 -7.5 18t-17.5 7q-26 0 -26 -25v-952z" />
<glyph unicode="&#xed;" horiz-adv-x="575" d="M102 1180q0 8 9 22l127 191q24 37 57 37q18 0 25 -5t9 -15t3 -11q6 -10 -21 -37l-145 -158q-7 -7 -12 -11.5t-9.5 -7.5t-8 -4t-9.5 -3t-10 -4q-15 -8 -15 6zM195 27v952q0 25 26 25q10 0 17.5 -7t7.5 -18v-952q0 -10 -8 -18.5t-17 -8.5q-12 0 -19 8t-7 19z" />
<glyph unicode="&#xee;" horiz-adv-x="575" d="M18 1178q0 10 11 24l147 180q29 37 57 37h17q28 0 57 -37l148 -180q10 -13 10 -24q0 -3 -1 -4.5t-3.5 -1.5t-5 0.5t-7.5 1t-10 0.5q-7 0 -13.5 2.5t-13 7.5t-10.5 9t-10 10.5t-8 8.5l-143 154l-142 -156q-1 -1 -7 -7.5t-10 -10t-10 -8.5t-12 -7.5t-12 -2.5q-5 0 -14 -1 t-12 -0.5t-3 5.5zM217 27q0 -11 7.5 -19t19.5 -8q9 0 16.5 8.5t7.5 18.5v952q0 11 -7 18t-17 7q-27 0 -27 -25v-952z" />
<glyph unicode="&#xef;" horiz-adv-x="575" d="M-12 1237q0 29 20 49.5t49 20.5t48.5 -20.5t19.5 -49.5t-19.5 -49.5t-48.5 -20.5t-49 20.5t-20 49.5zM219 27q0 -11 7.5 -19t19.5 -8q9 0 16.5 8.5t7.5 18.5v952q0 11 -7 18t-17 7q-27 0 -27 -25v-952zM360 1237q0 29 20.5 49.5t49.5 20.5t49.5 -20.5t20.5 -49.5 t-20.5 -49.5t-49.5 -20.5t-49.5 20.5t-20.5 49.5z" />
<glyph unicode="&#xf1;" d="M193 23q0 -7 4 -11q0 -2 2 -4q4 -4 6 -4q1 -1 3 -2t3 -2h4h4q12 0 19 10q6 6 6 17v571q0 148 104 251t250 103t249 -103t103 -251v-571q0 -11 7 -19t18 -8q10 0 18 8t8 19v571q0 168 -118.5 287t-284.5 119q-112 0 -206.5 -57t-147.5 -152v184q0 25 -25 25 q-11 0 -18.5 -6.5t-7.5 -18.5v-365v-16v-571v-4zM301 1194q0 5 8 29q15 46 64.5 84.5t91.5 38.5q40 0 134 -39t128 -39q62 0 102 88q0 1 4.5 13t9.5 17t13 5q15 0 26 -10t11 -25q0 -13 -4 -25q-21 -64 -62.5 -101.5t-99.5 -37.5q-37 0 -131 40t-131 40q-62 0 -98 -80 q-13 -25 -33 -25q-33 0 -33 27z" />
<glyph unicode="&#xf2;" horiz-adv-x="1310" d="M119 502q0 -135 63 -250.5t172 -183.5t238 -68t238.5 68t173 183.5t63.5 250.5q0 207 -139.5 354.5t-335.5 147.5t-334.5 -147.5t-138.5 -354.5zM170 502q0 187 124 318.5t298 131.5t299 -131.5t125 -318.5q0 -122 -57.5 -226t-155 -164.5t-211.5 -60.5 q-173 0 -297.5 132.5t-124.5 318.5zM481 1399q1 1 3 11t9 15t25 5q33 0 57 -37l127 -191q9 -14 9 -22q0 -14 -15 -6q-4 2 -10 4t-9.5 3t-8 4t-9.5 7.5t-12 11.5l-145 158q-27 27 -21 37z" />
<glyph unicode="&#xf3;" horiz-adv-x="1310" d="M119 502q0 207 138.5 354.5t334.5 147.5t335.5 -147.5t139.5 -354.5q0 -135 -63.5 -250.5t-173 -183.5t-238.5 -68t-238 68t-172 183.5t-63 250.5zM170 502q0 -186 124.5 -318.5t297.5 -132.5q114 0 211.5 60.5t155 164.5t57.5 226q0 187 -125 318.5t-299 131.5 t-298 -131.5t-124 -318.5zM473 1180q0 10 8 22l127 191q24 37 58 37q18 0 25 -5t8.5 -14.5t2.5 -11.5q6 -11 -20 -37l-145 -158q-8 -9 -15 -14.5t-10.5 -7t-11.5 -4t-13 -4.5q-9 -4 -11.5 -3t-2.5 9z" />
<glyph unicode="&#xf4;" horiz-adv-x="1310" d="M119 502q0 -135 63 -250.5t172 -183.5t238 -68t238.5 68t173 183.5t63.5 250.5q0 207 -139.5 354.5t-335.5 147.5t-334.5 -147.5t-138.5 -354.5zM170 502q0 187 124 318.5t298 131.5t299 -131.5t125 -318.5q0 -122 -57.5 -226t-155 -164.5t-211.5 -60.5 q-173 0 -297.5 132.5t-124.5 318.5zM367 1178q0 12 10 24l147 180q29 37 58 37h16q28 0 57 -37l148 -180q10 -13 10 -24q0 -3 -1 -4.5t-3.5 -1.5t-5 0.5t-7.5 1t-10 0.5q-7 0 -13.5 2.5t-13 7.5t-10.5 9t-10 10.5t-8 8.5l-143 154l-142 -156q-1 -1 -7 -7.5t-10 -10t-10 -8.5 t-12 -7.5t-12 -2.5q-5 0 -13.5 -1t-11.5 -0.5t-3 5.5z" />
<glyph unicode="&#xf5;" horiz-adv-x="1310" d="M119 502q0 -135 63 -250.5t172 -183.5t238 -68t238.5 68t173 183.5t63.5 250.5q0 207 -139.5 354.5t-335.5 147.5t-334.5 -147.5t-138.5 -354.5zM170 502q0 187 124 318.5t298 131.5t299 -131.5t125 -318.5q0 -122 -57.5 -226t-155 -164.5t-211.5 -60.5 q-173 0 -297.5 132.5t-124.5 318.5zM297 1194q0 5 8 29q15 46 64.5 84.5t91.5 38.5q40 0 134 -39t128 -39q62 0 102 88q0 1 4.5 13t9.5 17t13 5q15 0 26 -10t11 -25q0 -13 -4 -25q-21 -64 -62.5 -101.5t-99.5 -37.5q-37 0 -131 40t-131 40q-63 0 -99 -80q-12 -25 -32 -25 q-33 0 -33 27z" />
<glyph unicode="&#xf6;" horiz-adv-x="1310" d="M119 502q0 -135 63 -250.5t172 -183.5t238 -68t238.5 68t173 183.5t63.5 250.5q0 207 -139.5 354.5t-335.5 147.5t-334.5 -147.5t-138.5 -354.5zM170 502q0 187 124 318.5t298 131.5t299 -131.5t125 -318.5q0 -122 -57.5 -226t-155 -164.5t-211.5 -60.5 q-173 0 -297.5 132.5t-124.5 318.5zM336 1237q0 29 20.5 49.5t49.5 20.5t48 -20t19 -50t-19 -50t-48 -20t-49.5 20.5t-20.5 49.5zM709 1237q0 29 20 49.5t49 20.5t49.5 -20.5t20.5 -49.5t-20.5 -49.5t-49.5 -20.5t-49 20.5t-20 49.5z" />
<glyph unicode="&#xf7;" horiz-adv-x="1269" d="M131 721q0 -20 14.5 -34.5t34.5 -14.5h910q20 0 34.5 14.5t14.5 34.5t-14.5 34.5t-34.5 14.5h-910q-20 0 -34.5 -14.5t-14.5 -34.5zM561 324q0 38 28 66t66 28t66.5 -28t28.5 -66t-28.5 -66.5t-66.5 -28.5t-66 28.5t-28 66.5zM561 1120q0 38 28 66t66 28t66.5 -28 t28.5 -66t-28.5 -66t-66.5 -28t-66 28t-28 66z" />
<glyph unicode="&#xf8;" horiz-adv-x="1310" d="M119 502q0 207 138.5 354.5t334.5 147.5t335.5 -147.5t139.5 -354.5q0 -135 -63.5 -250.5t-173 -183.5t-238.5 -68t-238 68t-172 183.5t-63 250.5zM164 -23q-18 19 2 39l858 945q5 7 16 7.5t19 -7.5q8 -6 9 -16.5t-5 -18.5l-864 -946q-3 -6 -11.5 -8t-15.5 1q-1 0 -4 2 t-4 2zM170 502q0 -186 124.5 -318.5t297.5 -132.5q114 0 211.5 60.5t155 164.5t57.5 226q0 187 -125 318.5t-299 131.5t-298 -131.5t-124 -318.5z" />
<glyph unicode="&#xf9;" d="M170 406v571q0 11 7.5 19t19.5 8q9 0 16.5 -8.5t7.5 -18.5v-571q0 -148 102.5 -251.5t247.5 -103.5q146 0 249.5 103.5t103.5 251.5v571q0 10 8.5 18.5t17.5 8.5q10 0 18.5 -8t8.5 -19v-571q0 -168 -119 -287t-287 -119q-166 0 -283.5 118.5t-117.5 287.5zM395 1399 q1 1 3 11t9 15t25 5q33 0 57 -37l127 -191q8 -12 8 -22q0 -8 -2.5 -9t-11.5 3q-4 2 -10 4t-9.5 3t-8 4t-9.5 7.5t-12 11.5l-146 158q-26 26 -20 37z" />
<glyph unicode="&#xfa;" d="M170 406v571q0 11 7.5 19t19.5 8q9 0 16.5 -8.5t7.5 -18.5v-571q0 -148 102.5 -251.5t247.5 -103.5q146 0 249.5 103.5t103.5 251.5v571q0 10 8.5 18.5t17.5 8.5q10 0 18.5 -8t8.5 -19v-571q0 -168 -119 -287t-287 -119q-166 0 -283.5 118.5t-117.5 287.5zM467 1180 q0 10 8 22l127 191q24 37 57 37q18 0 25 -5t9 -15t3 -11q6 -11 -20 -37l-146 -158q-7 -7 -12 -11.5t-9.5 -7.5t-8 -4t-9.5 -3t-10 -4q-9 -4 -11.5 -3t-2.5 9z" />
<glyph unicode="&#xfb;" d="M170 406v571q0 11 7.5 19t19.5 8q9 0 16.5 -8.5t7.5 -18.5v-571q0 -148 102.5 -251.5t247.5 -103.5q146 0 249.5 103.5t103.5 251.5v571q0 10 8.5 18.5t17.5 8.5q10 0 18.5 -8t8.5 -19v-571q0 -168 -119 -287t-287 -119q-166 0 -283.5 118.5t-117.5 287.5zM326 1178 q0 12 10 24l147 181q29 37 58 37h16q29 0 58 -37l147 -181q10 -13 10 -24q0 -3 -1 -4.5t-3 -1.5t-5 0.5t-7.5 1t-9.5 0.5q-7 0 -13.5 2.5t-13 8t-11 9.5t-11 11t-7.5 8l-143 153l-141 -155q-1 -1 -7 -7.5t-10 -10t-10.5 -9t-12.5 -8t-12 -2.5q-5 0 -13.5 -1t-11.5 -0.5 t-3 5.5z" />
<glyph unicode="&#xfc;" d="M170 406q0 -169 117.5 -287.5t283.5 -118.5q168 0 287 119t119 287v571q0 11 -8.5 19t-18.5 8q-9 0 -17.5 -8.5t-8.5 -18.5v-571q0 -148 -103.5 -251.5t-249.5 -103.5q-145 0 -247.5 103.5t-102.5 251.5v571q0 10 -7.5 18.5t-16.5 8.5q-12 0 -19.5 -8t-7.5 -19v-571z M319 1237q0 29 20.5 49.5t49.5 20.5t48.5 -20.5t19.5 -49.5t-19.5 -49.5t-48.5 -20.5t-49.5 20.5t-20.5 49.5zM692 1237q0 29 20.5 49.5t49.5 20.5t49 -20.5t20 -49.5t-20 -49.5t-49 -20.5t-49.5 20.5t-20.5 49.5z" />
<glyph unicode="&#xfd;" horiz-adv-x="1204" d="M106 406v571q0 11 7.5 19t19.5 8q9 0 17 -8.5t8 -18.5v-571q0 -145 103 -248t249 -103q139 0 239.5 98t106.5 238v586v4q0 2 4 10q0 2 2 2l6 6q10 5 15 5h4q1 0 3 -1.5t3 -1.5l6 -6l2 -2q6 -6 6 -16v-920q0 -127 -62.5 -235.5t-171 -172t-237.5 -63.5q-109 0 -205 49 q-10 4 -13 14.5t3 20.5q3 9 13 12.5t18 0.5q88 -45 184 -45q174 0 297 123t123 296v152q-50 -94 -142.5 -149.5t-203.5 -55.5q-167 0 -285.5 118t-118.5 284zM469 1180q0 10 8 22l127 191q24 37 57 37q18 0 25 -5t9 -15t3 -11q6 -11 -20 -37l-146 -158q-7 -7 -12 -11.5 t-9.5 -7.5t-8 -4t-9.5 -3t-10 -4q-9 -4 -11.5 -3t-2.5 9z" />
<glyph unicode="&#xff;" horiz-adv-x="1204" d="M106 406v571q0 11 7.5 19t19.5 8q9 0 17 -8.5t8 -18.5v-571q0 -145 103 -248t249 -103q139 0 239.5 98t106.5 238v586v4q0 2 4 10q0 2 2 2l6 6q10 5 15 5h4q1 0 3 -1.5t3 -1.5l6 -6l2 -2q6 -6 6 -16v-920q0 -127 -62.5 -235.5t-171 -172t-237.5 -63.5q-109 0 -205 49 q-10 4 -13 14.5t3 20.5q3 9 13 12.5t18 0.5q88 -45 184 -45q174 0 297 123t123 296v152q-50 -94 -142.5 -149.5t-203.5 -55.5q-167 0 -285.5 118t-118.5 284zM247 1237q0 29 20.5 49t49.5 20t48.5 -20t19.5 -49t-19.5 -49.5t-48.5 -20.5t-49.5 20.5t-20.5 49.5zM620 1237 q0 29 20.5 49t49.5 20t49 -20t20 -49t-20 -49.5t-49 -20.5t-49.5 20.5t-20.5 49.5z" />
<glyph unicode="&#x152;" horiz-adv-x="2955" d="M150 715q1 151 56 288t148 236t222 157t272 58q226 0 405 -136.5t254 -356.5v446q0 10 7 18t18 9h764q10 0 17 -8t7 -19t-7 -18t-17 -7h-737v-639h649q10 0 17 -7.5t7 -16.5q0 -12 -6.5 -19.5t-17.5 -7.5h-649v-641h737q10 0 17 -6.5t7 -17.5t-7 -19t-17 -8h-764 q-11 0 -18 8t-7 19v440q-75 -220 -254 -357t-405 -137q-190 0 -350.5 99t-253.5 269.5t-94 373.5zM205 715q0 -186 87 -343.5t234.5 -249t321.5 -93.5q129 1 247.5 56t205 146t138 218t52.5 266q-1 187 -88 345t-235 249.5t-320 91.5q-173 0 -321 -91.5t-235 -249.5 t-87 -345z" />
<glyph unicode="&#x153;" horiz-adv-x="2160" d="M119 502q0 207 138.5 354.5t334.5 147.5q158 0 284 -100.5t171 -256.5q46 156 173.5 255t288.5 99q192 0 330 -133.5t152 -328.5v-9q-2 -9 -9 -16.5t-16 -7.5h-891v-6q0 -120 58 -223t158 -164t218 -62q112 0 207.5 55.5t153.5 149.5q11 17 37 6q8 -5 10 -15.5t-4 -19.5 q-66 -103 -173.5 -165t-230.5 -62q-161 1 -288.5 101.5t-173.5 254.5q-45 -156 -171 -256t-284 -100q-129 0 -238 68t-172 183.5t-63 250.5zM170 502q0 -186 124.5 -318.5t297.5 -132.5q114 0 211.5 60.5t155 164.5t57.5 226q0 187 -125 318.5t-299 131.5t-298 -131.5 t-124 -318.5zM1077 555h862q-20 168 -143 280.5t-287 112.5q-165 0 -288.5 -112.5t-143.5 -280.5z" />
<glyph unicode="&#x178;" horiz-adv-x="1466" d="M115 1408.5q-2 -10.5 6 -17.5l502 -691v-673q0 -11 8 -19t18 -8t17.5 8t7.5 19v673l506 691q6 8 3 18t-12 16q-18 14 -36 -4l-486 -669l-487 669q-6 8 -16.5 9t-18.5 -5q-10 -6 -12 -16.5zM401 1591q0 29 20.5 49.5t49.5 20.5t49.5 -20.5t20.5 -49.5t-20.5 -49t-49.5 -20 t-49.5 20t-20.5 49zM772 1591q0 29 20.5 49.5t49.5 20.5t49 -20.5t20 -49.5t-20 -49t-49 -20t-49.5 20t-20.5 49z" />
<glyph unicode="&#x2c6;" horiz-adv-x="1024" d="M289 1233q0 11 10 24l147 181q29 37 58 37h16q29 0 58 -37l147 -181q10 -13 10 -24q0 -3 -1 -4.5t-3 -1.5t-5 0.5t-7.5 1t-9.5 0.5q-7 0 -13.5 2.5t-13 8t-11 9.5t-11 11t-7.5 8l-143 153l-141 -155q-1 -1 -7 -7.5t-10 -10t-10.5 -9t-12.5 -8t-12 -2.5q-5 0 -13.5 -1 t-11.5 -0.5t-3 5.5z" />
<glyph unicode="&#x2dc;" horiz-adv-x="1024" d="M215 1235q0 5 8 29q15 46 64.5 84t91.5 38q40 0 134 -38.5t128 -38.5q62 0 102 88q0 1 4.5 13t9.5 17t13 5q15 0 26 -10t11 -25q0 -13 -4 -25q-21 -64 -62.5 -101.5t-99.5 -37.5q-37 0 -131 40t-131 40q-62 0 -98 -80q-13 -25 -33 -25q-33 0 -33 27z" />
<glyph unicode="&#x2000;" horiz-adv-x="945" />
<glyph unicode="&#x2001;" horiz-adv-x="1891" />
<glyph unicode="&#x2002;" horiz-adv-x="945" />
<glyph unicode="&#x2003;" horiz-adv-x="1891" />
<glyph unicode="&#x2004;" horiz-adv-x="630" />
<glyph unicode="&#x2005;" horiz-adv-x="472" />
<glyph unicode="&#x2006;" horiz-adv-x="315" />
<glyph unicode="&#x2007;" horiz-adv-x="315" />
<glyph unicode="&#x2008;" horiz-adv-x="236" />
<glyph unicode="&#x2009;" horiz-adv-x="378" />
<glyph unicode="&#x200a;" horiz-adv-x="105" />
<glyph unicode="&#x2010;" horiz-adv-x="835" d="M135 715q0 9 6 15.5t15 6.5h467q18 0 18 -22q0 -19 -18 -19h-467q-21 0 -21 19z" />
<glyph unicode="&#x2011;" horiz-adv-x="835" d="M135 715q0 9 6 15.5t15 6.5h467q18 0 18 -22q0 -19 -18 -19h-467q-21 0 -21 19z" />
<glyph unicode="&#x2012;" horiz-adv-x="835" d="M135 715q0 9 6 15.5t15 6.5h467q18 0 18 -22q0 -19 -18 -19h-467q-21 0 -21 19z" />
<glyph unicode="&#x2013;" horiz-adv-x="1081" d="M135 608q0 41 53 41h705q53 0 53 -41q0 -35 -53 -35h-705q-27 -3 -40 9t-13 26z" />
<glyph unicode="&#x2014;" horiz-adv-x="1839" d="M135 608q0 41 53 41h879q53 0 53 -41q0 -35 -53 -35h-879q-27 -3 -40 9t-13 26z" />
<glyph unicode="&#x2018;" horiz-adv-x="471" d="M158 1110v51q0 158 55 213q27 27 59.5 46.5t46.5 19.5q12 0 21.5 -8.5t9.5 -22.5q0 -17 -16 -27q-56 -31 -78 -67t-18 -90q55 -14 55 -72v-43q0 -28 -20 -48t-48 -20t-47.5 20t-19.5 48z" />
<glyph unicode="&#x2019;" horiz-adv-x="471" d="M121 1075q0 17 16 27q56 31 78 67.5t18 90.5q-55 14 -55 71v43q0 28 20 48t48 20t47.5 -20t19.5 -48v-51q0 -158 -55 -213q-27 -27 -59.5 -46.5t-46.5 -19.5q-12 0 -21.5 8.5t-9.5 22.5z" />
<glyph unicode="&#x201a;" horiz-adv-x="471" />
<glyph unicode="&#x201c;" horiz-adv-x="839" d="M158 1110v51q0 158 55 213q27 27 59.5 46.5t46.5 19.5q12 0 21.5 -8.5t9.5 -22.5q0 -17 -16 -27q-56 -31 -78 -67t-18 -90q55 -14 55 -72v-43q0 -28 -20 -48t-48 -20t-47.5 20t-19.5 48zM526 1110v51q0 157 56 213q27 27 59.5 46.5t46.5 19.5q12 0 21.5 -8.5t9.5 -22.5 q0 -17 -17 -27q-56 -31 -78 -67t-18 -90q56 -14 56 -72v-43q0 -28 -20 -48t-48 -20t-48 20t-20 48z" />
<glyph unicode="&#x201d;" horiz-adv-x="839" d="M121 1075q0 17 16 27q56 31 78 67.5t18 90.5q-55 14 -55 71v43q0 28 20 48t48 20t47.5 -20t19.5 -48v-51q0 -158 -55 -213q-27 -27 -59.5 -46.5t-46.5 -19.5q-12 0 -21.5 8.5t-9.5 22.5zM489 1075q0 17 17 27q56 31 78 67.5t18 90.5q-55 14 -55 71v43q0 28 19.5 48 t47.5 20t48 -20t20 -48v-51q0 -158 -55 -213q-26 -26 -59.5 -46t-47.5 -20q-12 0 -21.5 8.5t-9.5 22.5z" />
<glyph unicode="&#x201e;" horiz-adv-x="839" d="M111 -184q0 16 16 26q56 31 78 67.5t18 90.5q-55 14 -55 72v43q0 29 19.5 48t48.5 19t48 -19t19 -48v-52q0 -158 -55 -213q-26 -26 -59 -45.5t-48 -19.5q-11 0 -20.5 8.5t-9.5 22.5zM479 -184q0 16 17 26q56 31 78 67.5t18 90.5q-55 14 -55 72v43q0 28 19.5 47.5 t47.5 19.5t48 -19.5t20 -47.5v-52q0 -157 -56 -213q-26 -26 -59 -45.5t-47 -19.5q-12 0 -21.5 8.5t-9.5 22.5z" />
<glyph unicode="&#x2026;" horiz-adv-x="1392" d="M168 61q0 37 25.5 63t62.5 26t62.5 -26t25.5 -63t-25.5 -62.5t-62.5 -25.5t-62.5 25.5t-25.5 62.5zM600 61q0 37 25.5 63t62.5 26t62.5 -26t25.5 -63t-25.5 -62.5t-62.5 -25.5t-62.5 25.5t-25.5 62.5zM1032 61q0 37 25.5 63t62.5 26t62.5 -26t25.5 -63t-25.5 -62.5 t-62.5 -25.5t-62.5 25.5t-25.5 62.5z" />
<glyph unicode="&#x202f;" horiz-adv-x="378" />
<glyph unicode="&#x2039;" horiz-adv-x="636" d="M113 522q0 19 20 45l281 367q7 12 32.5 9t26.5 -21q3 -20 -8 -33l-289 -369l289 -364q7 -9 11 -19.5t4.5 -20t-5.5 -16t-18 -6.5q-29 0 -43 19l-281 364q-20 26 -20 45z" />
<glyph unicode="&#x203a;" horiz-adv-x="636" d="M148 116.5q0 19.5 16 39.5l289 364l-289 369q-11 13 -8 33q1 18 26.5 21t32.5 -9l281 -367q20 -26 20 -45t-20 -45l-281 -364q-14 -19 -43 -19q-24 3 -24 22.5z" />
<glyph unicode="&#x205f;" horiz-adv-x="472" />
<glyph unicode="&#x2122;" horiz-adv-x="1413" d="M45 1423q0 11 10 11h430q13 0 13 -11q0 -10 -13 -10h-202v-586q0 -10 -11 -10q-10 0 -10 10v586h-207q-10 0 -10 10zM610 827v594q0 4 4 8.5t7 4.5q2 0 4 -2q1 0 3 -1t3 -1l239 -330l236 330q1 0 3 1t3 1q2 2 4 2q10 0 10 -13v-594q0 -10 -10 -10t-10 10v562l-225 -314 q-8 -4 -11 -4h-4q-4 0 -8 4l-227 314v-562q0 -10 -10 -10q-11 0 -11 10z" />
<glyph unicode="&#x25fc;" horiz-adv-x="1003" d="M0 0v1004h1004v-1004h-1004z" />
</font>
</defs>
</svg>
