<?xml version="1.0" standalone="no"?>
<!DOCTYPE svg PUBLIC "-//W3C//DTD SVG 1.1//EN" "http://www.w3.org/Graphics/SVG/1.1/DTD/svg11.dtd" >
<svg xmlns="http://www.w3.org/2000/svg">
<metadata></metadata>
<defs>
<font id="petitamediumregular" horiz-adv-x="716" >
<font-face units-per-em="2048" ascent="1638" descent="-410" />
<missing-glyph horiz-adv-x="598" />
<glyph horiz-adv-x="0" />
<glyph horiz-adv-x="682" />
<glyph d="M43 1352q29 -84 60.5 -133.5t72.5 -83.5q86 -70 180 -70q96 0 183 70q41 35 72.5 84t62.5 133h-137q-23 -45 -41.5 -70t-40.5 -41q-47 -29 -99 -29q-53 0 -98 31q-23 16 -40 40t-40 69h-135z" />
<glyph d="M242 1096l231 2v231h-231v-233z" />
<glyph d="M156 1212q0 -84 57 -143q63 -59 143 -59q86 0 145.5 59t59.5 143q0 82 -61 144q-59 59 -144 59q-80 0 -143 -59q-57 -59 -57 -144zM262 1212q0 41 27 68q29 29 67 29q39 0 72 -29q27 -27 27 -68q0 -39 -29 -67.5t-70 -28.5q-39 0 -67 29q-27 27 -27 67z" />
<glyph unicode="&#xa;" d="M39 1040h127l360 373h-241zM352 1040h129q43 49 82 90t76 78l82 82t117 123h-240z" />
<glyph d="M184 -176q0 -92 68 -148q59 -51 154 -51l108 15v127l-63 -5q-25 0 -44.5 7.5t-37.5 17.5q-27 20 -27 68q0 35 33 75q20 23 42.5 46.5t80.5 70.5h-146q-82 -33 -127 -94q-23 -29 -32 -61.5t-9 -67.5z" />
<glyph d="M29 1411l256 -389h145l258 389h-137l-195 -211l-190 211h-137z" />
<glyph unicode="&#xd;" horiz-adv-x="403" d="M127 -27h149v973h-149v-973z" />
<glyph horiz-adv-x="290" d="M-483 -82h143l1114 1524h-145z" />
<glyph horiz-adv-x="1030" d="M51 813h170v-840h150v842h192v131h-192v105q0 133 53 196q51 61 147 62q96 0 142 -39q23 -16 37 -48t20 -92h98l52 3q-18 182 -113 243q-94 66 -232 66q-160 0 -260 -105q-49 -53 -71.5 -124.5t-22.5 -161.5v-107h-170v-131zM768 -27h150v973h-150v-973z" />
<glyph horiz-adv-x="1007" d="M-66 274l248 203v-504h850v144h-690v489l342 279v172l-342 -279v645h-160v-774l-248 -203v-172z" />
<glyph horiz-adv-x="403" d="M-74 369l199 166v-562h149v686l205 170v166l-205 -170v598h-149v-723l-199 -165v-166z" />
<glyph horiz-adv-x="1366" d="M31 37l20 -64h1268v144h-1026l1022 1235l-19 71h-1214v-143h971zM362 1888l256 -389h146l258 389h-137l-195 -211l-190 211h-138z" />
<glyph horiz-adv-x="851" d="M12 35l21 -62h803v144h-580l582 766l-17 63h-772v-143h549zM102 1411l256 -389h146l258 389h-137l-195 -211l-190 211h-138z" />
<glyph unicode=" "  horiz-adv-x="598" />
<glyph unicode="&#x09;" horiz-adv-x="598" />
<glyph unicode="&#xa0;" horiz-adv-x="598" />
<glyph unicode="!" horiz-adv-x="380" d="M96 1423l37 -1056h113l37 1056h-187zM98 -27h185v252h-185v-252z" />
<glyph unicode="&#x22;" horiz-adv-x="598" d="M66 1167l26 -272h133l21 211l6 205l-76 116h-110v-260zM346 1167l27 -272h133l20 211l6 205l-75 116h-111v-260z" />
<glyph unicode="#" horiz-adv-x="1419" d="M166 403h164l-88 -430h149l88 433h332l-88 -433h149l89 433h292v145h-262l70 340h192v145h-161l86 420h-150l-86 -422h-332l86 422h-149l-86 -422h-295v-145h264l-70 -340h-194v-146zM510 549l70 342h331l-69 -342h-332z" />
<glyph unicode="$" horiz-adv-x="1120" d="M86 135q41 -41 92 -71.5t111 -57.5q92 -41 198 -49v-223h150v223q143 18 254 106q139 115 139 275q0 170 -106 258q-102 90 -346 164q-88 29 -150.5 56.5t-103.5 53.5q-70 49 -70 142q0 92 84 155q90 68 213 68q66 0 119 -11.5t100 -34t92 -50t107 -76.5v178 q-39 31 -80 53.5t-92 44.5q-72 29 -162 37l2 168h-150l-2 -168q-145 -18 -254 -106q-135 -115 -135 -271q0 -162 103 -245q98 -78 305 -138q195 -59 284 -118q86 -59 86 -162q0 -96 -88 -166q-88 -72 -219 -72q-88 0 -207 47q-59 23 -121.5 60t-152.5 104v-174z" />
<glyph unicode="%" horiz-adv-x="1501" d="M49 1087q0 -145 103 -251q109 -104 251 -105q145 0 252 107q105 104 105 249t-104.5 250t-252.5 105q-141 0 -249 -105q-104 -102 -105 -250zM76 -49h168l1167 1483h-170zM188 1090q0 86 63.5 149.5t156.5 63.5q88 0 149 -66q64 -62 64 -154q0 -84 -66 -149 q-61 -63 -149 -64q-88 0 -154 66q-63 63 -64 154zM741 301q0 -141 107 -248q104 -104 248 -104q145 0 254 104q53 51 78.5 113.5t25.5 134.5q0 143 -106 250q-104 104 -252 104q-141 0 -250 -104q-104 -102 -105 -250zM881 303q0 86 65 150q68 63 154 63q90 0 151 -65 q64 -64 64 -154q0 -86 -64 -147q-66 -61 -153 -62q-88 0 -154 66q-63 63 -63 149z" />
<glyph unicode="&#x26;" horiz-adv-x="1323" d="M33 315q0 -143 98 -249q98 -111 291 -111q166 0 299 76q96 57 180 153l203 -211h207l-316 332q23 33 45.5 69t42.5 77q29 59 55.5 121.5t55.5 150.5h-168q-25 -72 -47.5 -125t-44.5 -94q-10 -20 -22.5 -41t-26.5 -43l-271 285q100 53 177 129q102 106 102 249 q0 145 -105 232q-51 41 -108 61.5t-125 20.5q-137 0 -244 -97q-106 -94 -106 -229q0 -94 47 -178q20 -35 41.5 -65.5t50.5 -61.5l18 -18q-131 -57 -221 -158q-109 -121 -108 -275zM201 334q0 106 77.5 178t192.5 123l324 -340q-39 -45 -77 -79t-77 -56q-90 -53 -201 -54 q-109 0 -176 58q-63 57 -63 170zM360 1073q0 80 58 123q68 49 139 49q74 0 131 -51q53 -43 53 -121q0 -82 -69 -151q-51 -55 -164 -105q-2 2 -9 8t-10 11q-27 27 -49 54.5t-41 57.5q-39 66 -39 125z" />
<glyph unicode="'" horiz-adv-x="477" d="M145 1167l27 -272h133l21 211l6 205l-76 116h-111v-260z" />
<glyph unicode="(" d="M96 473q0 -328 133 -571q66 -121 134.5 -214.5t146.5 -164.5h182q-117 100 -190.5 198.5t-132.5 219.5q-117 236 -117 532q0 291 119 533q59 121 133 219t188 198h-182q-154 -141 -283 -381q-131 -242 -131 -569z" />
<glyph unicode=")" d="M20 -477h183q80 72 150.5 166t135.5 215q132 241 132 569q0 330 -132 571q-66 121 -136 214.5t-150 164.5h-183q117 -100 192 -199.5t134 -217.5q119 -236 119 -533t-119 -532q-29 -59 -61.5 -113.5t-71.5 -106t-87 -100.5t-106 -98z" />
<glyph unicode="*" horiz-adv-x="1007" d="M82 850l80 -143q33 27 56.5 45t45 32.5t41 26.5t43.5 29q39 23 103 63q-4 -59 -5.5 -100t-4.5 -78t-7 -75t-10 -93h160q-6 53 -10.5 91t-6.5 75t-5 79t-5 101q63 -41 102 -63q25 -16 44.5 -28.5t41 -27t45 -33t56.5 -44.5l80 143q-51 20 -86 35.5t-68 32t-69.5 35 t-90.5 46.5q53 27 90 46.5t70 36t67.5 31.5t86.5 36l-80 143q-33 -27 -56.5 -45t-45 -32.5t-41 -27.5t-44.5 -28q-39 -23 -102 -63q2 59 4 100t5 78t7.5 74.5t10.5 93.5h-160q6 -53 10 -91t6 -75t4 -79t7 -101q-63 41 -103 63q-25 14 -44 27.5t-40.5 28t-45 33t-56.5 44.5 l-80 -143q49 -20 84 -35.5t67.5 -32t70.5 -36t91 -46.5q-53 -29 -90 -47t-69.5 -34.5t-67.5 -32t-86 -35.5z" />
<glyph unicode="+" horiz-adv-x="1419" d="M147 651h492v-491h141v493h492v142h-492v485h-141v-487h-492v-142z" />
<glyph unicode="," horiz-adv-x="380" d="M82 -160v-131q43 31 60.5 44.5t29.5 23.5q23 20 43.5 41.5t32.5 50.5q39 78 39 166v190h-185v-252h43q-4 -47 -12 -73q-2 -6 -10 -15.5t-14 -13.5q-4 -6 -11.5 -13.5t-15.5 -17.5z" />
<glyph unicode="-" horiz-adv-x="673" d="M68 492h536v126h-536v-126z" />
<glyph unicode="." horiz-adv-x="380" d="M98 -27h183v254h-183v-254z" />
<glyph unicode="/" horiz-adv-x="604" d="M-10 -45h149l467 1487h-149z" />
<glyph unicode="0" horiz-adv-x="1075" d="M66 692q0 -319 124 -524q123 -213 347 -213q221 0 350 213q125 205 125 524v13q0 315 -125 524q-127 213 -348 213t-349 -213q-125 -205 -124 -524v-13zM223 690v17q0 254 92 423q47 86 101.5 124t120.5 38t123 -39t102 -122.5t68.5 -189t23.5 -234.5v-17 q0 -252 -94 -424q-45 -86 -100.5 -124t-120.5 -38q-135 0 -226 162q-90 170 -90 424z" />
<glyph unicode="1" horiz-adv-x="720" d="M55 911l109 -110l282 284v-1112h158v1450h-158v-123z" />
<glyph unicode="2" horiz-adv-x="1075" d="M84 1104q66 63 105.5 94t76.5 53q72 41 162 41q125 0 205 -82q82 -80 82 -202q0 -57 -11.5 -112.5t-37.5 -113.5q-25 -57 -55.5 -115.5t-71.5 -115.5q-51 -76 -102.5 -141.5t-102.5 -120.5q-49 -53 -105.5 -115.5t-128.5 -134.5v-66h906v150h-619q70 80 135 160 q39 51 76 104t76 107q29 41 62.5 98t68.5 131q68 147 67 287q0 182 -124 307q-129 125 -312 125q-123 0 -211 -49q-41 -23 -75.5 -44.5t-65.5 -50.5v-194z" />
<glyph unicode="3" horiz-adv-x="1075" d="M141 37q33 -18 68 -30.5t80 -24.5q47 -12 95 -19.5t99 -7.5q197 0 324 121q125 118 125 317q0 131 -78 232q-59 74 -160 116q104 43 158 119q63 94 63 199q0 170 -124 276q-119 106 -308 107q-123 0 -211 -39q-39 -16 -67.5 -31.5t-50.5 -34.5v-159q41 29 70.5 45 t68.5 34q74 35 176 35q127 0 211 -71q80 -72 80 -168q0 -102 -88 -172q-94 -72 -219 -72h-37v-150h45q78 0 136 -21.5t99 -57.5q80 -74 80 -203q0 -119 -84 -197q-86 -76 -219 -76q-98 0 -176 23q-39 10 -73 24.5t-83 36.5v-151z" />
<glyph unicode="4" horiz-adv-x="1075" d="M37 512h639v-539h155v541h193v135h-193v793h-79l-715 -858v-72zM262 649l414 498v-498h-414z" />
<glyph unicode="5" horiz-adv-x="1075" d="M100 59q33 -18 70 -35.5t84 -33.5q98 -35 217 -35q205 0 338 135q131 133 131 344q0 209 -133 334q-68 63 -154 96t-196 27l-92 -4v389h495v147h-645v-712q45 14 69.5 20t47 10t45 5.5t47.5 1.5q170 0 266 -84q96 -86 96 -234q0 -141 -92 -233.5t-229 -92.5 q-96 0 -191 41q-47 23 -84.5 43.5t-89.5 55.5v-185z" />
<glyph unicode="6" horiz-adv-x="1075" d="M113 477q0 -250 131 -387q129 -135 319 -135q176 0 299 117q123 112 123 288q0 188 -117 306q-121 117 -305 116q-78 0 -145 -26q-66 -23 -117 -56q33 129 109 238q74 109 173 206t236 193l-94 113q-129 -92 -233.5 -194.5t-194.5 -225.5q-184 -250 -184 -553zM264 463 v26t2 23q33 33 99 72q80 49 190 49q119 0 199 -80q75 -76 75 -197q0 -111 -77 -180q-78 -72 -195 -72q-119 0 -207 95q-86 92 -86 264z" />
<glyph unicode="7" horiz-adv-x="1075" d="M51 1274h748l-572 -1266l135 -59l666 1474h-977v-149z" />
<glyph unicode="8" horiz-adv-x="1075" d="M115 379q0 -176 123 -301q127 -123 299 -123q180 0 303 123t123 305q0 123 -64 221q-53 78 -125 123q41 35 70.5 71t50.5 74q39 78 39 172q0 158 -115 279q-115 119 -272 119q-168 0 -289 -117q-115 -119 -115 -287q0 -90 43 -176q37 -70 121 -135q-82 -51 -131 -127 q-33 -47 -47 -102.5t-14 -118.5zM270 377q0 119 76 194q78 78 195 78q111 0 188 -80q78 -77 78 -190q0 -117 -78 -195q-74 -80 -188 -80q-115 0 -195 80q-76 76 -76 193zM299 1032q0 117 66 187q68 72 174 71q104 0 172 -71q67 -68 67 -181q0 -102 -71 -170 q-68 -72 -168 -71q-98 0 -170 71q-70 68 -70 164z" />
<glyph unicode="9" horiz-adv-x="1075" d="M82 1024q0 -174 121 -289q119 -117 297 -117q53 0 103 9.5t97 36.5q18 4 37 15t31 21q-37 -145 -119 -256q-78 -104 -175 -196t-230 -185l88 -116q180 129 299 248.5t190 240.5q137 231 137 473q0 260 -129 398q-131 135 -329 135q-180 0 -299 -119q-119 -117 -119 -299z M238 1024q0 117 77 190q74 78 189 78q137 0 215 -88q39 -43 59.5 -112.5t20.5 -169.5v-33q-35 -35 -105 -74q-84 -47 -190 -47q-111 0 -189 78q-78 74 -77 178z" />
<glyph unicode=":" horiz-adv-x="380" d="M98 -27h183v254h-183v-254zM98 694l183 2v252h-183v-254z" />
<glyph unicode=";" horiz-adv-x="380" d="M82 -160v-131q43 31 60.5 44.5t29.5 23.5q23 20 43.5 41.5t32.5 50.5q39 78 39 166v190h-185v-252h43q-4 -47 -12 -73q-2 -6 -10 -15.5t-14 -13.5q-4 -6 -11.5 -13.5t-15.5 -17.5zM102 694l183 2v252h-183v-254z" />
<glyph unicode="&#x3c;" horiz-adv-x="1419" d="M147 659l1125 -473v156l-910 377l910 377v155l-1125 -473v-119z" />
<glyph unicode="=" horiz-adv-x="1419" d="M147 399h1125v144h-1125v-144zM147 895l1125 2v141h-1125v-143z" />
<glyph unicode="&#x3e;" horiz-adv-x="1419" d="M147 186l1125 473v119l-1125 473v-155l908 -377l-908 -377v-156z" />
<glyph unicode="?" horiz-adv-x="604" d="M47 1370l55 -137q10 6 32 18.5t45.5 23.5t45 20.5t33.5 9.5q55 0 92 -50q37 -47 37 -118q0 -86 -37 -166q-20 -41 -48 -89t-62 -104q-27 -43 -44.5 -77.5t-27.5 -63.5q-18 -55 -18 -121q0 -53 30 -110q12 -25 28.5 -48.5t45.5 -56.5l70 61q-20 37 -28.5 57.5t-12.5 31.5 q-2 10 -3 20t-1 21q0 41 14 81q12 41 57 107q51 72 88 131t60 102q45 90 45 213q0 61 -16.5 116.5t-51.5 103.5q-72 98 -215 98q-49 0 -94 -17q-10 -4 -41 -19t-52.5 -25.5t-25.5 -12.5zM172 -27h184v252h-184v-252z" />
<glyph unicode="@" horiz-adv-x="1720" d="M197 551q0 -281 190 -485q190 -211 494 -211q211 0 387 104q86 47 145.5 103.5t102.5 136.5h-119q-35 -51 -85 -92t-122 -78q-143 -72 -322 -72q-215 0 -393 166q-174 162 -174 420q0 250 168 420q168 172 401 172q227 0 381 -164q59 -66 92 -141.5t33 -165.5 q0 -180 -100 -308q-47 -59 -90 -91t-90 -36q-2 10 -4 19.5t-2 21.5q-2 4 -1 15.5t1 17.5q0 4 3 21.5t5 25.5l123 580h-136l-18 -92q-37 53 -82 80q-74 43 -137 43q-193 0 -307 -158q-113 -160 -113 -330q0 -166 88 -260q88 -92 203 -92q74 0 143 41q29 16 52.5 36.5 t46.5 43.5q14 -66 32 -86q16 -16 32.5 -27.5t37.5 -11.5q78 0 147.5 43t135.5 121q131 158 131 378q0 233 -172 405.5t-439 172.5q-281 0 -475 -207t-194 -479zM565 467q0 70 19.5 136.5t60.5 127.5q80 123 195 123q80 0 129 -61q51 -64 51 -154q0 -98 -84 -256 q-78 -150 -199 -150q-59 0 -116 60q-55 55 -56 174z" />
<glyph unicode="A" horiz-adv-x="1433" d="M2 -27h170l221 486h649l222 -486h166l-666 1461h-92zM457 600l260 569l260 -569h-520z" />
<glyph unicode="B" horiz-adv-x="1142" d="M137 -27h432q227 0 361 107q135 106 135 299q0 156 -100 254q-74 70 -189 102q86 55 127 133q41 76 41 164q0 184 -131 291q-127 100 -348 100h-328v-1450zM297 115v520h217q98 0 170 -17.5t121 -50.5q94 -63 94 -198q0 -121 -90 -187q-95 -67 -255 -67h-5h-252zM297 774 v508h131q176 0 264 -65q84 -62 84 -195q0 -121 -86 -184q-88 -63 -256 -64h-137z" />
<glyph unicode="C" horiz-adv-x="1456" d="M96 698q0 -326 223 -534q221 -209 564 -209q119 0 258 41q66 20 127.5 44.5t120.5 59.5v170q-74 -41 -133.5 -68.5t-122.5 -49.5q-121 -45 -269 -46q-264 0 -434 166q-166 162 -166 426q0 252 170 422q86 84 190.5 127t233.5 43q133 0 250 -39q63 -20 124.5 -45.5 t139.5 -72.5v182q-63 33 -123.5 55.5t-128.5 38.5q-129 33 -243 33q-336 0 -558 -213q-223 -211 -223 -531z" />
<glyph unicode="D" horiz-adv-x="1591" d="M160 -27h538q356 0 559 203t203 520q0 336 -211 533q-210 194 -563 194h-4h-522v-1450zM319 115v1167h355q283 0 450.5 -162t167.5 -424q0 -264 -170 -422q-171 -159 -451 -159h-3h-349z" />
<glyph unicode="E" horiz-adv-x="1054" d="M137 -27h830v144h-670v516h637v141h-637v508h655v141h-815v-1450z" />
<glyph unicode="F" horiz-adv-x="942" d="M121 -27h160v689h550v141h-550v479h614v141h-774v-1450z" />
<glyph unicode="G" horiz-adv-x="1546" d="M117 702q0 -319 225 -534q225 -213 561 -213q72 0 141.5 10t135 26.5t124 39t117.5 53.5v578h-452v-144h295v-334q-23 -14 -58 -26.5t-80 -24.5q-92 -27 -208 -27q-145 0 -259 42t-202 122q-172 160 -172 430q0 256 170 422q174 168 428 168q61 0 122.5 -10t123 -28.5 t123 -46t145.5 -77.5v183q-41 25 -92.5 44t-121 41.5t-144 34t-156.5 11.5q-324 0 -547 -213q-219 -213 -219 -527z" />
<glyph unicode="H" horiz-adv-x="1546" d="M174 -27h160v664h878v-664h160v1450h-160v-647h-878v647h-160v-1450z" />
<glyph unicode="I" horiz-adv-x="446" d="M145 -27h158v1450h-158v-1450z" />
<glyph unicode="J" horiz-adv-x="446" d="M-121 -272l17 -156l90 -4h17q62 0 112 24q57 29 102 80q47 53 67.5 132.5t20.5 181.5v1437h-160v-1415q0 -74 -12 -129t-35 -94q-41 -68 -123 -68z" />
<glyph unicode="K" horiz-adv-x="1159" d="M119 -27h160v668l694 -668h213l-758 727l690 723h-207l-632 -659v659h-160v-1450z" />
<glyph unicode="L" horiz-adv-x="1007" d="M119 -27h850v144h-690v1306h-160v-1450z" />
<glyph unicode="M" horiz-adv-x="1679" d="M174 -27h160v1198l506 -626l506 626v-1198h159v1450h-147l-518 -635l-521 635h-145v-1450z" />
<glyph unicode="N" horiz-adv-x="1658" d="M174 -27h160v1180l1022 -1180h131v1450h-160v-1181q-123 145 -243.5 284.5t-243.5 274.5q-135 150 -266.5 303t-270.5 319h-129v-1450z" />
<glyph unicode="O" horiz-adv-x="1769" d="M121 698q0 -158 55 -291t166 -239q219 -213 543 -213t545 215q221 211 221 528t-221 531q-219 213 -545 213q-324 0 -545 -215q-219 -211 -219 -529zM289 698q0 244 174 418t422 174q250 0 422 -174q176 -176 176 -418t-176 -417q-172 -174 -422 -175q-250 0 -424 175 q-172 172 -172 417z" />
<glyph unicode="P" horiz-adv-x="1097" d="M131 -27h160v656h252q223 0 350 100q129 105 129 295q0 195 -125 299q-125 100 -344 100h-422v-1450zM291 768v514h256q145 0 229 -72q80 -65 80 -184q0 -127 -82 -190q-84 -68 -239 -68h-244z" />
<glyph unicode="Q" horiz-adv-x="1769" d="M121 698q0 -317 219 -530q178 -176 457 -207q164 -145 356 -211q100 -35 176 -52t141 -17l-12 159q-8 2 -41 5t-76 10.5t-87 16.5t-76 24q-41 16 -77 34.5t-71 40.5q233 37 400 197q111 106 166 239t55 291q0 315 -221 531q-219 213 -545 213q-324 0 -545 -215 q-219 -211 -219 -529zM289 698q0 244 174 418t422 174q250 0 422 -174q176 -176 176 -418t-176 -417q-172 -174 -422 -175q-250 0 -424 175q-172 172 -172 417z" />
<glyph unicode="R" horiz-adv-x="1232" d="M135 -27h160v672h188q68 0 116 -20.5t81 -55.5q37 -41 71.5 -91t71.5 -109l254 -396h189l-289 443q-29 43 -57.5 86t-61.5 88q-25 35 -47.5 59.5t-44.5 40.5q84 33 156 107q86 92 86 235q0 190 -134 293q-66 51 -155.5 74.5t-204.5 23.5h-379v-1450zM295 784v498h217 q154 0 244 -68q84 -59 84 -180q0 -123 -86 -184q-88 -66 -252 -66h-207z" />
<glyph unicode="S" horiz-adv-x="1007" d="M90 1051q0 -162 88 -250q41 -41 106.5 -79t153.5 -67q164 -57 246 -123q72 -59 72 -172q0 -109 -78 -180q-80 -74 -195 -74q-72 0 -151 35q-41 18 -91.5 49t-131.5 93v-191q31 -25 70.5 -45t90.5 -43q104 -49 232 -49q170 0 295 119q125 116 125 280q0 172 -84 264 q-41 47 -117 89.5t-182 80.5q-156 57 -222 113q-59 53 -59 154q0 94 78 166q39 35 85 52t105 17q94 0 172 -37q41 -20 79 -39.5t91 -50.5l-4 178q-41 29 -131 64q-96 37 -219 37q-174 0 -299 -117q-125 -115 -125 -274z" />
<glyph unicode="T" horiz-adv-x="1232" d="M12 1280h525v-1307h159v1309h525v141h-1209v-143z" />
<glyph unicode="U" horiz-adv-x="1501" d="M141 596q0 -285 170 -463q172 -178 441 -178q272 0 440 186q170 182 170 465v817h-160v-809q0 -119 -31.5 -210t-91.5 -160q-121 -137 -325 -138q-209 0 -332 134q-121 133 -121 364v819h-160v-827z" />
<glyph unicode="V" horiz-adv-x="1277" d="M-2 1423l608 -1464h66l610 1464h-168l-475 -1142l-477 1142h-164z" />
<glyph unicode="W" horiz-adv-x="2217" d="M14 1423l582 -1464h63l451 1137l453 -1137h61l578 1464h-162l-447 -1116l-450 1116h-66l-452 -1116l-445 1116h-166z" />
<glyph unicode="X" horiz-adv-x="1519" d="M-2 -27h209l553 627l553 -627h211l-660 742l623 708h-209l-518 -589l-520 589h-209l622 -708z" />
<glyph unicode="Y" horiz-adv-x="1308" d="M6 1423l572 -684v-766h159v766l572 684h-197l-453 -540l-456 540h-197z" />
<glyph unicode="Z" horiz-adv-x="1366" d="M31 37l20 -64h1268v144h-1026l1022 1235l-19 71h-1214v-143h971z" />
<glyph unicode="[" horiz-adv-x="649" d="M100 -477h514v149h-364v1604h364v147h-514v-1900z" />
<glyph unicode="\" horiz-adv-x="604" d="M2 1442l463 -1487h149l-464 1487h-148z" />
<glyph unicode="]" horiz-adv-x="649" d="M37 -330v-147h514v1900h-514v-149h364v-1604h-364z" />
<glyph unicode="^" horiz-adv-x="1419" d="M225 879l103 -93l381 459l385 -459l102 93l-469 557h-37z" />
<glyph unicode="_" horiz-adv-x="1075" d="M-12 -418v-153h1102v153h-1102z" />
<glyph unicode="`" d="M117 1413l364 -373l123 2l-246 371h-241z" />
<glyph unicode="a" horiz-adv-x="1097" d="M90 434q0 -209 133 -344q131 -135 338 -135q84 0 164 22q27 8 53.5 21.5t50.5 24.5v-54h150v977h-148v-59q-59 33 -126 55q-63 23 -125 23q-213 0 -355 -152q-135 -147 -135 -379zM246 436q0 166 102 273q97 108 251 108h3q78 0 146 -29q29 -12 49 -27.5t34 -25.5v-557 q-23 -12 -47 -29.5t-53 -27.5q-61 -25 -153 -25q-78 0 -136.5 23.5t-105.5 70.5q-90 90 -90 246z" />
<glyph unicode="b" horiz-adv-x="1097" d="M115 1423l4 -1388q45 -23 85 -36t83 -24q80 -20 170 -20q254 0 401 147q148 152 148 381q0 106 -30 194.5t-91 153.5q-119 133 -320 134q-47 0 -91 -10.5t-89 -28.5q-31 -14 -60.5 -35t-58.5 -49v581h-151zM266 139v533q41 47 115 102q80 57 182 57q125 0 205 -98 q84 -100 84 -254q0 -162 -111 -268q-109 -109 -270 -109q-80 0 -141 17q-49 12 -64 20z" />
<glyph unicode="c" horiz-adv-x="897" d="M76 459q0 -229 129 -367q131 -137 356 -137q41 0 80 5t78 15q35 10 60.5 17.5t54.5 17.5v160q-43 -18 -73 -28.5t-61 -20.5q-61 -18 -135 -19q-80 0 -140 25t-103 72q-90 96 -91 260q0 158 91 260q86 98 231 98q72 0 129 -20q29 -10 58.5 -20.5t76.5 -33.5v168 q-41 14 -71.5 23.5t-61.5 15.5q-57 14 -133 15q-215 0 -348 -152q-127 -145 -127 -354z" />
<glyph unicode="d" horiz-adv-x="1097" d="M94 459q0 -213 144 -359q141 -145 350 -145q39 0 76.5 5t72.5 17q23 8 46.5 25.5t50.5 34.5v-64h149v1450h-149v-518q-23 12 -49.5 21.5t-57.5 19.5q-61 18 -127 19q-111 0 -203 -35t-161 -107q-141 -141 -142 -364zM250 459q0 160 98 258q94 100 248 100q82 0 145 -29 q29 -14 51.5 -25t38.5 -24v-553q-10 -8 -27.5 -23.5t-41.5 -29.5q-29 -14 -67 -22.5t-87 -8.5q-154 0 -258 105q-100 100 -100 252z" />
<glyph unicode="e" horiz-adv-x="1030" d="M78 473q0 -223 139 -373q141 -145 358 -145q117 0 218 47q43 18 78.5 41t70.5 49v182q-51 -47 -88 -73.5t-82 -50.5q-84 -47 -188 -48q-78 0 -139.5 27t-112.5 76q-94 94 -101 227v37h730q0 121 -31 208t-90 152q-123 135 -314 136q-197 0 -323 -146q-125 -139 -125 -346 zM254 590q10 35 25.5 69.5t33.5 57.5q80 100 215 100q59 0 102.5 -17.5t74.5 -47.5q29 -29 47 -72t28 -92v2h-526z" />
<glyph unicode="f" horiz-adv-x="516" d="M-43 813h170v-840h149v842h179v131h-179v94q0 72 13.5 119t36.5 76q47 59 141 59q53 0 106 -16q23 -8 42.5 -13.5t50.5 -15.5v142q-14 10 -32 16t-46 16q-27 8 -54.5 13.5t-60.5 5.5q-150 0 -250 -105q-96 -106 -96 -266v-127h-170v-131z" />
<glyph unicode="g" horiz-adv-x="1097" d="M90 434q0 -207 131 -344q135 -135 338 -135q82 0 166 22q27 8 53.5 16.5t50.5 18.5v-221q0 -47 -64.5 -84t-176.5 -37q-88 0 -143.5 46t-92.5 124l-153 -4q31 -92 67.5 -150.5t85.5 -99.5t112.5 -51t123.5 -10q111 0 184.5 29.5t115.5 70.5t62.5 85t25.5 72t5 30l-2 2 v1132h-148v-59q-59 33 -126 55q-63 23 -125 23q-215 0 -355 -152q-135 -143 -135 -379zM246 436q0 166 100 273q101 108 251 108h3q43 0 79 -7t69 -22q29 -12 49 -27.5t34 -25.5v-567q-23 -12 -47 -24.5t-53 -22.5q-61 -25 -153 -25q-78 0 -136.5 23.5t-105.5 70.5 q-90 90 -90 246z" />
<glyph unicode="h" horiz-adv-x="1054" d="M127 -27h149v668q23 35 49.5 65.5t59.5 57.5q63 53 166 53q111 0 168 -76q29 -35 44 -90t15 -127v-551h150v582q0 92 -24.5 168t-78.5 131q-104 111 -274 111q-94 0 -174 -45q-53 -31 -101 -97v600h-149v-1450z" />
<glyph unicode="i" horiz-adv-x="403" d="M127 -27h149v973h-149v-973zM127 1202l149 2v219h-149v-221z" />
<glyph unicode="j" horiz-adv-x="403" d="M-76 -362l43 -136q68 0 120 24.5t99 70.5q47 47 70 131.5t23 205.5v1012h-150v-1042q0 -160 -43 -211q-43 -55 -119 -55h-43zM129 1202l150 2v219h-150v-221z" />
<glyph unicode="k" horiz-adv-x="995" d="M139 -27h150v510v940h-150v-1450zM240 483l610 -510h213l-612 510l532 463h-207z" />
<glyph unicode="l" horiz-adv-x="403" d="M127 -27h149v1450h-149v-1450z" />
<glyph unicode="m" horiz-adv-x="1658" d="M137 -27h150v666q47 76 104.5 127t151.5 51q102 0 157 -74q53 -76 54 -219v-551h149v645q45 74 107 136q61 63 139 63q102 0 162 -76q57 -72 57 -217v-551h150v582q0 176 -86 293q-92 117 -236 117h-25q-129 0 -215 -80q-29 -29 -54 -57.5t-44 -57.5q-51 100 -117 145 q-39 23 -79.5 36.5t-81.5 13.5h-25q-94 0 -172 -45q-47 -27 -98 -95v121h-148v-973z" />
<glyph unicode="n" horiz-adv-x="1054" d="M127 -27h149v668q23 35 49.5 65.5t59.5 57.5q63 53 166 53q111 0 168 -76q29 -35 44 -90t15 -127v-551h150v582q0 92 -24.5 168t-78.5 131q-104 111 -274 111q-96 0 -176 -45q-53 -31 -101 -97v123h-147v-973z" />
<glyph unicode="o" horiz-adv-x="1165" d="M88 459q0 -209 143 -359q139 -145 353 -145q211 0 354 145q139 150 139 359q0 213 -141 360q-141 145 -352 146q-215 0 -355 -146q-141 -147 -141 -360zM244 459q0 152 100 254q98 104 240 104q139 0 239 -106q99 -102 99 -252q0 -147 -99 -252q-102 -104 -239 -105 q-139 0 -240 107q-100 100 -100 250z" />
<glyph unicode="p" horiz-adv-x="1097" d="M160 -498h149v510q27 -12 52.5 -22t52.5 -17q70 -18 155 -18q195 0 334 154q139 149 139 352q0 221 -139 362.5t-354 141.5q-29 0 -59.5 -5.5t-61.5 -15.5q-35 -10 -64.5 -22.5t-52.5 -22.5v47h-151v-1444zM309 162v588q12 8 31.5 15t44.5 17q29 10 62.5 22.5t76.5 12.5 q154 0 256 -104q103 -98 103 -254t-97 -256q-92 -100 -249 -101q-41 0 -77 7.5t-67 17.5q-25 10 -46 17.5t-38 17.5z" />
<glyph unicode="q" horiz-adv-x="1097" d="M90 434q0 -209 133 -344q131 -135 338 -135q84 0 164 22q27 8 53.5 16.5t50.5 18.5v-510h150v1444h-148v-59q-59 33 -126 55q-63 23 -125 23q-213 0 -355 -152q-135 -147 -135 -379zM246 436q0 166 102 273q97 108 251 108h3q78 0 146 -29q29 -12 49 -27.5t34 -25.5v-567 q-23 -12 -47 -24.5t-53 -22.5q-61 -25 -153 -25q-78 0 -136.5 23.5t-105.5 70.5q-90 90 -90 246z" />
<glyph unicode="r" horiz-adv-x="759" d="M113 -27h149v600q41 66 119 156q82 88 154 88q33 0 71 -26q23 -12 48.5 -33t66.5 -60l84 131q-31 37 -94 82q-35 25 -71 39.5t-77 14.5q-43 0 -90 -8.5t-94 -49.5q-31 -27 -64.5 -68.5t-52.5 -72.5v180h-149v-973z" />
<glyph unicode="s" horiz-adv-x="761" d="M72 51q27 -16 54.5 -31.5t66.5 -31.5q76 -35 184 -35q137 0 229 84q94 84 94 201q0 125 -86 192q-78 63 -202 107q-47 16 -82 33.5t-62 35.5q-45 33 -45 86q0 49 45 92q23 18 54.5 28.5t76.5 10.5q59 0 123 -26q31 -14 63.5 -34t86.5 -61v168q-45 39 -115 66 q-76 29 -166 29q-61 0 -114.5 -20.5t-100.5 -57.5q-98 -78 -98 -197q0 -106 69 -174q33 -33 79 -58.5t106 -47.5q147 -53 188 -93q35 -35 35 -77q0 -63 -47 -99q-51 -39 -131 -39q-68 0 -141 27q-37 12 -74 29.5t-90 52.5v-160z" />
<glyph unicode="t" horiz-adv-x="649" d="M-43 813h248v-627q0 -51 15.5 -94t49.5 -76q63 -61 174 -61q29 0 54.5 4t48 10t48 15.5t64.5 25.5v154q-51 -23 -74.5 -33t-43.5 -16q-37 -12 -70 -13q-43 0 -65.5 8.5t-30.5 18.5q-10 10 -15.5 40t-5.5 85v561h258v131h-258v305h-65l-84 -57v-250h-248v-131z" />
<glyph unicode="u" horiz-adv-x="1054" d="M127 352q0 -193 102.5 -295t286.5 -102q84 0 164 45q51 27 98 90v-117h150v973h-150v-663q-31 -59 -106 -119q-74 -61 -168 -62q-109 0 -168.5 70t-59.5 201v573h-149v-594z" />
<glyph unicode="v" horiz-adv-x="917" d="M-16 946l440 -991h94l418 991h-152l-315 -737l-330 737h-155z" />
<glyph unicode="w" horiz-adv-x="1521" d="M-2 946l416 -991h80l266 702l264 -702h82l418 991h-152l-301 -708l-272 708h-82l-273 -706l-294 706h-152z" />
<glyph unicode="x" horiz-adv-x="1103" d="M14 946l445 -475l-443 -498h195l350 392l348 -392h195l-442 498l446 475h-199l-348 -371l-350 371h-197z" />
<glyph unicode="y" horiz-adv-x="935" d="M6 946l402 -770l-334 -674h157l711 1444h-158l-299 -612l-315 612h-164z" />
<glyph unicode="z" horiz-adv-x="851" d="M12 35l21 -62h803v144h-580l582 766l-17 63h-772v-143h549z" />
<glyph unicode="{" d="M92 389q59 -10 94 -26.5t54 -43.5q43 -59 43 -165v-297q0 -137 63 -232q35 -53 93.5 -77.5t135.5 -24.5h54v164h-60q-53 0 -90 32q-14 12 -22 42t-8 83v258q0 84 -14.5 150.5t-45.5 116.5q-47 72 -113 104q68 37 113 107q59 96 60 264v258q0 53 9 82.5t23 44.5 q33 33 88 33h60v161h-54q-78 0 -137 -24.5t-94 -77.5q-61 -94 -61 -231v-297q0 -106 -43 -166q-18 -27 -53 -43.5t-95 -26.5v-168z" />
<glyph unicode="|" horiz-adv-x="477" d="M164 -604h149v2099h-149v-2099z" />
<glyph unicode="}" d="M88 -315v-162h51q78 0 138.5 24.5t95.5 77.5q29 47 45 106.5t16 125.5v297q0 55 11.5 96t31.5 69q20 27 54.5 43.5t95.5 26.5v168q-61 10 -96 26.5t-56 43.5q-41 57 -41 166v297q0 133 -63 231q-70 102 -232 102h-51v-163h57q57 0 91 -33q14 -12 23 -42t9 -83v-258 q0 -84 14.5 -150.5t47.5 -115.5q43 -72 110 -105q-68 -33 -112 -106q-31 -47 -45.5 -114t-14.5 -151v-258q0 -53 -9 -82.5t-26 -44.5q-33 -33 -88 -32h-57z" />
<glyph unicode="~" horiz-adv-x="1419" d="M145 541q55 47 92 72.5t76 48.5q80 45 140 45q68 0 239 -80q172 -84 277 -84q53 0 101 16t93 45q41 27 66.5 44.5t42.5 29.5l4 174q-63 -43 -102 -68.5t-76 -48.5q-74 -45 -131 -45q-68 0 -240 80q-172 84 -276 84q-55 0 -103.5 -16.5t-93.5 -44.5q-41 -27 -66.5 -44.5 t-42.5 -29.5v-178z" />
<glyph unicode="&#xa1;" horiz-adv-x="380" d="M96 -479h187l-37 1057h-113zM98 719l185 2v250h-185v-252z" />
<glyph unicode="&#xa2;" horiz-adv-x="897" d="M59 459q0 -113 32 -205t97 -162q16 -16 36 -31.5t44 -31.5l-155 -443h145l137 389q55 -20 150 -20q41 0 80 5t75.5 15.5t62 17.5t54.5 17v160q-45 -18 -73.5 -28.5t-59.5 -20.5q-61 -18 -135 -19q-33 0 -58.5 4.5t-46.5 10.5l240 674q2 0 3 -1.5t3 -1.5q47 -14 111 -45 v168q-20 6 -36.5 11.5t-33.5 9.5l143 401h-145l-131 -372q-14 2 -31 2h-32q-219 0 -349 -150q-127 -141 -127 -354zM215 459q0 156 88 260q80 88 205 94q10 2 18 2h19l-221 -633q-25 20 -39 39q-70 90 -70 238z" />
<glyph unicode="&#xa3;" horiz-adv-x="1187" d="M147 -41q55 10 95.5 17.5t79.5 13.5q37 4 79.5 7t90.5 3q47 0 101 -6t116 -17q66 -10 108.5 -16t65.5 -6q66 0 127 16q29 8 50 17.5t50 21.5v168q-53 -29 -82 -40t-51 -19q-18 -6 -41 -10.5t-51 -4.5q-16 0 -42 4.5t-67 10.5q-16 4 -36.5 7t-43.5 7q-49 8 -95 13.5 t-87 0.5l-174 -10l123 467h252v148h-207l61 172q29 80 68 146.5t88 119.5t106.5 79.5t124.5 22.5l52 -4l106 -24l-78 155l-108 23q-199 0 -334 -166q-66 -80 -107 -161t-69 -161l-68 -204h-203v-148h170q-20 -41 -77 -258q-37 -137 -57.5 -210t-35.5 -85v-90z" />
<glyph unicode="&#xa4;" horiz-adv-x="1456" d="M27 430h149q57 -154 178 -266q225 -209 566 -209q117 0 258 41q66 20 126 44.5t119 59.5v170q-74 -41 -132 -68.5t-122 -49.5q-123 -45 -268 -46q-268 0 -434 166q-72 68 -111 160h1000v133h-1045q-4 31 -8 65t-4 68q0 102 27 185h1030v133h-969q16 29 36.5 54.5 t47.5 49.5q86 84 190.5 127t233.5 43q131 0 250 -39q61 -20 122.5 -45.5t139.5 -72.5v182q-61 33 -121.5 55.5t-128.5 38.5q-129 33 -244 33q-334 0 -559 -213q-49 -47 -88 -101.5t-65 -113.5h-174v-133h127q-23 -90 -23 -183q0 -35 3 -68.5t7 -66.5h-114v-133z" />
<glyph unicode="&#xa5;" horiz-adv-x="1196" d="M-12 1493l436 -727h-358v-148h438l4 -32l-53 -72h-389v-147h442v-394h182v396h434v147h-434v96l12 9h422v147h-348l434 725h-204l-402 -700l-409 700h-207z" />
<glyph unicode="&#xa6;" horiz-adv-x="477" d="M164 385v-924h149v924h-149zM164 639l149 2v922h-149v-924z" />
<glyph unicode="&#xa7;" horiz-adv-x="851" d="M47 580q0 -102 53 -197q55 -92 150 -174l188 -170q70 -63 109 -129t39 -115q0 -41 -13.5 -66.5t-40.5 -45.5q-55 -41 -116 -41q-51 0 -94 30q-18 14 -32 38t-24 71h-155q16 -88 43.5 -140.5t72.5 -80.5q86 -57 181 -58q139 0 233 78q94 80 94 221q0 37 -8 72t-22 68 q-23 53 -66 104q35 35 66.5 75t54.5 85q45 84 45 160q0 104 -55 196q-27 45 -64 89t-84 85l-190 170q-70 63 -109 129q-35 57 -35 115q0 74 54 113q57 41 112 41q51 0 94 -31q18 -14 32.5 -38t25.5 -71h155q-16 90 -44.5 141.5t-73.5 79.5q-86 57 -179 58q-137 0 -233 -78 q-92 -80 -92 -221q0 -76 31 -139q27 -57 63 -105q-72 -68 -117 -147q-49 -90 -49 -172zM201 584q0 55 22 106q12 23 32.5 50.5t53.5 58.5l240 -217q16 -16 31.5 -39t35.5 -51q35 -53 35 -127q0 -51 -24 -107q-23 -47 -86 -108l-238 217q-16 16 -32.5 38.5t-34.5 51.5 q-35 49 -35 127z" />
<glyph unicode="&#xa8;" d="M123 1116h190v193h-190v-193zM403 1116l191 2v191h-191v-193z" />
<glyph unicode="&#xa9;" horiz-adv-x="1720" d="M72 727q0 -326 229 -557q236 -231 559 -231q326 0 557 231q232 235 232 559q0 322 -232 557q-231 231 -559 232q-322 0 -557 -232q-229 -231 -229 -559zM219 729q0 264 188.5 452.5t452.5 188.5t453 -190q188 -185 188 -453q0 -262 -190 -453q-184 -188 -453 -188 q-262 0 -452 190q-186 184 -187 453zM455 733q0 -205 118 -336q121 -133 297 -133q125 0 222 78q47 39 81.5 92t57.5 135l-137 49q-18 -63 -41 -100t-52 -63q-55 -49 -137 -49q-121 0 -184 94q-68 98 -68 243q0 125 70 209q68 84 192 84q76 0 130 -49q25 -23 43 -54.5 t34 -68.5l148 39q-33 72 -67 118t-79 81q-88 70 -204 69q-190 0 -310 -129q-115 -125 -114 -309z" />
<glyph unicode="&#xaa;" horiz-adv-x="604" d="M27 969q0 -66 57 -117q29 -23 63.5 -35t75.5 -12q29 0 54.5 7t54.5 17q35 16 59 35q6 -31 23 -43q18 -14 35 -14q20 0 40.5 8t40.5 19q8 4 14.5 8t12.5 8q10 6 18.5 12.5t22.5 16.5v108q-14 -8 -25.5 -15t-23.5 -16q-31 -20 -47 -26l-6 22v312q0 84 -62 133 q-57 45 -155 45q-66 0 -132 -27q-33 -14 -53 -25.5t-35 -25.5v-119q16 12 34 24.5t40 24.5q39 25 72 35q16 4 32.5 8t34.5 4q55 0 84 -22q10 -8 17.5 -24.5t7.5 -45.5v-45q-68 -4 -105 -12q-23 -4 -42 -9t-41 -12q-66 -23 -115 -71q-51 -49 -51 -131zM141 973q0 41 29 63 q39 35 84 47q29 10 51.5 14.5t38.5 6.5q10 2 19.5 1t17.5 -1v-137q-12 -10 -27.5 -19.5t-31.5 -19.5q-39 -23 -86 -23q-25 0 -42.5 7.5t-31.5 17.5q-20 14 -21 43z" />
<glyph unicode="&#xab;" horiz-adv-x="1075" d="M20 473l410 -487h193l-410 487l403 488h-190zM455 473l409 -487h193l-410 487l404 488h-191z" />
<glyph unicode="&#xac;" horiz-adv-x="1376" d="M168 0h104v973l404 -494l-53 -51v-563l-283 291l-57 -56l594 -618l59 57l-285 295l594 2l76 74h-621l-4 565l406 498v-973h102v1128h-98l-418 -512l-420 512h-100v-1128zM463 1004l37 -72q29 23 46 35t36 24q16 10 37.5 23.5t52.5 34.5q-2 -39 -2 -66q0 -25 -1 -46.5 t-3 -42t-7 -50.5h76q-4 31 -5 51t-3 41.5t-3 47.5t-3 65q31 -20 52.5 -34t37.5 -24q18 -12 35.5 -24.5t46.5 -34.5l39 72q-29 10 -48.5 19t-39 18.5t-43 21.5t-56.5 31q33 16 56.5 28.5t43 21.5l39 18t48.5 20l-39 69q-29 -23 -47.5 -35t-34.5 -22q-16 -12 -37.5 -25.5 t-52.5 -31.5q2 37 3 62.5t3 47t3 43t5 51.5h-76q4 -31 6.5 -52t3.5 -42.5t1 -48.5q0 -25 2 -61q-31 18 -52.5 31.5t-37.5 25.5q-16 10 -35 22.5t-47 34.5l-37 -69q27 -10 47 -19.5t38.5 -18.5t41 -21.5t57.5 -28.5q-35 -18 -57.5 -30.5t-41 -22t-39 -18.5t-46.5 -19z" />
<glyph unicode="&#xad;" horiz-adv-x="673" d="M68 492h536v126h-536v-126z" />
<glyph unicode="&#xae;" horiz-adv-x="1720" d="M72 727q0 -326 229 -557q236 -231 559 -231q326 0 557 231q232 235 232 559q0 322 -232 557q-231 231 -559 232q-322 0 -557 -232q-229 -231 -229 -559zM219 729q0 264 188.5 452.5t452.5 188.5t453 -190q188 -185 188 -453q0 -262 -190 -453q-184 -188 -453 -188 q-262 0 -452 190q-186 184 -187 453zM528 291h150v354h51q111 0 172 -74q29 -37 66 -104.5t82 -175.5h178l-72 166q-16 35 -32.5 68.5t-39.5 68.5q-33 49 -92 82q47 10 82 33.5t62 54.5q47 63 47 143q0 104 -74 172q-39 35 -100.5 51.5t-145.5 16.5h-334v-856zM678 774v242 h145q49 0 86 -8.5t64 -20.5q20 -10 31.5 -30.5t11.5 -55.5q0 -61 -41 -92q-20 -16 -62.5 -25.5t-113.5 -9.5h-121z" />
<glyph unicode="&#xaf;" d="M59 1145l596 2v156h-596v-158z" />
<glyph unicode="&#xb0;" horiz-adv-x="860" d="M119 1128q0 -127 92 -219t221 -92q123 0 219 92q90 90 90 221q0 129 -90 220q-96 92 -221 92q-127 0 -219 -92.5t-92 -221.5zM252 1130q0 72 53 125q49 53 127 54q72 0 125 -54q51 -49 51 -127q0 -74 -51 -124q-53 -53 -127 -54q-76 0 -125 54q-53 49 -53 126z" />
<glyph unicode="&#xb2;" horiz-adv-x="673" d="M43 1231q51 41 77.5 59.5t49.5 28.5q47 20 100 20q76 0 127 -41q49 -37 49 -94q0 -55 -30 -110q-16 -31 -36 -60.5t-44 -58.5q-33 -41 -65.5 -74t-63.5 -61q-33 -29 -70 -60.5t-84 -72.5v-54l598 2v101h-379q2 2 8.5 8t10.5 8q25 25 48 49.5t46 52.5q23 23 46.5 51.5 t47.5 65.5q14 23 29.5 45.5t28.5 50.5q29 63 28 117q0 104 -86 172q-84 66 -203 66q-39 0 -73.5 -7.5t-65.5 -17.5q-51 -20 -94 -55v-131z" />
<glyph unicode="&#xb3;" horiz-adv-x="673" d="M74 688q25 -10 48 -16t52 -15q59 -14 127 -14q66 0 117 16.5t94 49.5q86 67 86 176q0 74 -55 129q-33 33 -84 51q59 23 84 53q43 51 43 113q0 49 -21.5 87t-62.5 66q-78 57 -201 58q-41 0 -74.5 -5t-62.5 -16q-23 -10 -43.5 -18t-40.5 -21v-106q37 18 57.5 26.5 t44.5 18.5q20 8 47 13t62 5q78 0 131 -36q27 -18 37 -36t10 -40q0 -47 -51 -78q-59 -37 -137 -37h-33v-102h39q94 0 145 -39q47 -35 47 -94q0 -55 -49 -93q-51 -39 -135 -39q-63 0 -113 13q-23 6 -46 13t-62 20v-103z" />
<glyph unicode="&#xb4;" d="M195 1040h124l363 373h-240z" />
<glyph unicode="&#xb5;" horiz-adv-x="1196" d="M207 -389h149v436q41 -41 101 -65q70 -27 141 -27q76 0 156 45q49 27 90 88v-115h149v973h-149v-663q-33 -61 -103 -119q-72 -61 -161 -62q-109 0 -166.5 70t-57.5 201v573h-149v-1335z" />
<glyph unicode="&#xb6;" horiz-adv-x="1398" d="M98 1020q0 -203 131 -326q119 -113 320 -119v-1034h182v1735h213v-1735h182v1735h195v190h-723q-227 0 -362 -120q-137 -119 -138 -326z" />
<glyph unicode="&#xb7;" horiz-adv-x="604" d="M158 582l182 2v252h-182v-254z" />
<glyph unicode="&#xb8;" d="M197 -371l118 -14q96 0 162 49q66 53 66 129q0 63 -45 113q-16 18 -35 28.5t-41 14.5l24 94h-112l-60 -197q55 0 79 -3t36 -13q23 -12 23 -39q0 -25 -23 -37q-14 -8 -34.5 -13t-49.5 -3l-92 6z" />
<glyph unicode="&#xb9;" horiz-adv-x="673" d="M276 1434l3 -781l118 2l-2 779h-119z" />
<glyph unicode="&#xba;" horiz-adv-x="761" d="M45 1124q0 -137 96.5 -227t239.5 -90q139 0 237 92q97 88 97 225q0 139 -97 228q-96 90 -237 90q-137 0 -240 -92q-96 -90 -96 -226zM164 1124q0 86 65 148q61 61 152 61q88 0 151 -63q62 -62 62 -146q0 -88 -62 -147q-61 -61 -151 -62q-90 0 -154 64q-63 61 -63 145z " />
<glyph unicode="&#xbb;" horiz-adv-x="1075" d="M18 -14h193l410 487l-406 488h-190l403 -488zM453 -14h192l410 487l-406 488h-190l403 -488z" />
<glyph unicode="&#xbc;" horiz-adv-x="1792" d="M172 -82h143l1115 1524h-146zM367 1434l2 -781l118 2l-2 779h-118zM889 254h409v-281h117v283h123v94h-123v412h-61l-465 -453v-55zM1069 348l229 223v-223h-229z" />
<glyph unicode="&#xbd;" horiz-adv-x="1792" d="M145 -82h142l1116 1524h-146zM340 1434l2 -781l119 2l-2 779h-119zM1014 551q51 41 77.5 59.5t49.5 28.5q47 20 100 20q76 0 127 -41q49 -37 49 -94q0 -55 -31 -110q-16 -31 -35.5 -60.5t-41.5 -58.5q-35 -41 -68 -74t-63 -61q-33 -29 -70 -60.5t-84 -72.5v-54h598v103 h-379q2 2 9.5 8t9.5 8q25 25 48 49.5t46 53.5q23 23 47 51t47 65q14 23 29.5 45.5t27.5 51.5q29 63 29 116q0 104 -86 172q-84 66 -203 66q-39 0 -73.5 -7t-65.5 -18q-51 -20 -94 -55v-131z" />
<glyph unicode="&#xbe;" horiz-adv-x="1792" d="M150 688q25 -10 48 -16t52 -15q59 -14 127 -14q66 0 117 16.5t94 49.5q86 67 86 176q0 74 -56 129q-33 33 -83 51q59 23 83 53q43 51 44 113q0 49 -22 87t-62 66q-78 57 -201 58q-41 0 -75 -5t-62 -16q-23 -10 -43.5 -18t-40.5 -21v-106q37 18 57 26.5t45 18.5 q20 8 47 13t62 5q78 0 131 -36q27 -18 37 -36t10 -40q0 -47 -51 -78q-59 -37 -138 -37h-32v-102h38q94 0 146 -39q47 -35 47 -94q0 -55 -49 -93q-51 -39 -135 -39q-63 0 -113 13q-23 6 -46.5 13t-61.5 20v-103zM238 -82h143l1114 1524h-145zM967 254h409v-281h117v283h123 v94h-123v412h-63l-463 -453v-55zM1147 348l229 223v-223h-229z" />
<glyph unicode="&#xbf;" horiz-adv-x="604" d="M47 -160q0 -61 16.5 -116.5t53.5 -102.5q35 -51 89 -74.5t126 -23.5q47 0 92 16q10 4 41 19.5t52.5 26t25.5 12.5l-54 137q-12 -6 -33.5 -18.5t-44 -23.5t-44 -20.5t-33.5 -9.5q-57 0 -94 49q-37 45 -37 119q0 82 39 166q20 41 46.5 89t61.5 103q27 43 44.5 78t27.5 64 q18 55 18 121q0 49 -28 110q-14 25 -29.5 48.5t-44.5 56.5l-70 -62q18 -37 26.5 -57.5t12.5 -30.5q2 -10 3 -20.5t1 -20.5q0 -39 -12 -82q-8 -20 -22.5 -45.5t-36.5 -60.5q-49 -72 -87 -131.5t-61 -102.5q-45 -90 -45 -213zM233 741l185 2v250h-185v-252z" />
<glyph unicode="&#xc0;" horiz-adv-x="1433" d="M2 -27h170l221 486h649l222 -486h166l-666 1461h-92zM389 1880l363 -371h125l-248 371h-240zM457 600l260 569l260 -569h-520z" />
<glyph unicode="&#xc1;" horiz-adv-x="1433" d="M2 -27h170l221 486h649l222 -486h166l-666 1461h-92zM457 600l260 569l260 -569h-520zM643 1507h123l364 373h-241z" />
<glyph unicode="&#xc2;" horiz-adv-x="1433" d="M2 -27h170l221 486h649l222 -486h166l-666 1461h-92zM389 1468h135l193 211l192 -211l138 2l-256 388h-148zM457 600l260 569l260 -569h-520z" />
<glyph unicode="&#xc3;" horiz-adv-x="1433" d="M2 -27h170l221 486h649l222 -486h166l-666 1461h-92zM356 1542h115q4 45 11 61.5t16 22.5q20 16 37 16q35 0 155 -49q119 -53 193 -53q98 0 147 70q23 33 34 74t11 104h-110q-6 -43 -13.5 -60.5t-15.5 -23.5q-18 -16 -35 -16q-39 0 -158 49q-123 53 -192 53 q-47 0 -85 -16.5t-63 -53.5q-23 -33 -35 -73.5t-12 -104.5zM457 600l260 569l260 -569h-520z" />
<glyph unicode="&#xc4;" horiz-adv-x="1433" d="M2 -27h170l221 486h649l222 -486h166l-666 1461h-92zM457 600l260 569l260 -569h-520zM483 1563h191v192h-191v-192zM764 1563l190 2v190h-190v-192z" />
<glyph unicode="&#xc6;" horiz-adv-x="1859" d="M8 -27h176l412 662h371v-662h829v144h-670v516l637 2v139h-637v508h656v141h-871zM688 776l279 453v-453h-279z" />
<glyph unicode="&#xc7;" horiz-adv-x="1456" d="M96 698q0 -326 223 -534q168 -158 404 -195l-37 -123q55 0 78.5 -3t36.5 -13q23 -12 22 -39q0 -25 -22 -37q-14 -8 -35 -13t-49 -3l-90 6l-19 -115l119 -14q96 0 162 49q66 53 65 129q0 45 -26 86q-23 35 -66 51q12 0 28.5 15.5t31.5 17.5q23 2 46 6t48 8q47 6 95 16.5 t97 27t94.5 35.5t86.5 44v170q-74 -41 -133.5 -68.5t-122.5 -49.5q-121 -45 -269 -46q-264 0 -434 166q-166 162 -166 426q0 252 170 422q86 84 190.5 127t233.5 43q133 0 250 -39q63 -20 124.5 -45.5t139.5 -72.5v182q-63 33 -123.5 55.5t-128.5 38.5q-129 33 -243 33 q-336 0 -558 -213q-223 -211 -223 -531z" />
<glyph unicode="&#xc8;" horiz-adv-x="1054" d="M137 -27h830v144h-670v516l637 2v139h-637v508h655v141h-815v-1450zM283 1870l364 -373l123 2l-248 371h-239z" />
<glyph unicode="&#xc9;" horiz-adv-x="1054" d="M135 -27h830v144h-670v516l637 2v139h-637v508h655v141h-815v-1450zM451 1487h122l365 373h-242z" />
<glyph unicode="&#xca;" horiz-adv-x="1054" d="M137 -27h830v144h-670v516l637 2v139h-637v508h655v141h-815v-1450zM199 1489h135l192 211l193 -211l137 2l-258 387h-145z" />
<glyph unicode="&#xcb;" horiz-adv-x="1054" d="M137 -27h830v144h-670v516l637 2v139h-637v508h655v141h-815v-1450zM293 1563h190v192h-190v-192zM573 1563l191 2v190h-191v-192z" />
<glyph unicode="&#xcc;" horiz-adv-x="446" d="M-16 1860l364 -373l125 2l-248 371h-241zM147 -27h158v1450h-158v-1450z" />
<glyph unicode="&#xcd;" horiz-adv-x="446" d="M147 -27h158v1450h-158v-1450zM154 1507h125l364 373h-242z" />
<glyph unicode="&#xce;" horiz-adv-x="446" d="M-104 1468h137l190 211l195 -211l137 2l-258 388h-145zM143 -27h158v1450h-158v-1450z" />
<glyph unicode="&#xcf;" horiz-adv-x="446" d="M-10 1563h190v192h-190v-192zM141 -27h158v1450h-158v-1450zM270 1563l191 2v190h-191v-192z" />
<glyph unicode="&#xd0;" horiz-adv-x="1591" d="M2 629h211v-656h537q358 0 561 203q100 102 151 231t51 289q0 338 -213 533q-104 98 -245.5 144t-319.5 48l-524 9v-660h-209v-141zM371 115v516h454v141h-454v510h354q283 0 451 -162q170 -160 170 -424h-3q0 -266 -169 -422q-172 -160 -453 -159h-350z" />
<glyph unicode="&#xd1;" horiz-adv-x="1658" d="M174 -27h160v1180l1022 -1180h131v1450h-160v-1181q-123 145 -243.5 284.5t-243.5 274.5q-135 150 -266.5 303t-270.5 319h-129v-1450zM477 1542h113q4 45 11 61.5t15 22.5q20 16 37 16q35 0 156 -49q123 -53 192 -53q98 0 148 70q23 33 35 74t12 104h-113 q-6 -43 -13 -60.5t-15 -23.5q-16 -16 -35 -16q-39 0 -158 49q-119 53 -192 53q-47 0 -85 -16.5t-63 -53.5q-23 -33 -34 -73.5t-11 -104.5z" />
<glyph unicode="&#xd2;" horiz-adv-x="1769" d="M121 698q0 -158 55 -291t166 -239q219 -213 543 -213t545 215q221 211 221 528t-221 531q-219 213 -545 213q-324 0 -545 -215q-219 -211 -219 -529zM289 698q0 244 174 418t422 174q250 0 422 -174q176 -176 176 -418t-176 -417q-172 -174 -422 -175q-250 0 -424 175 q-172 172 -172 417zM580 1880l362 -373l125 2l-248 371h-239z" />
<glyph unicode="&#xd3;" horiz-adv-x="1769" d="M121 698q0 -158 55 -291t166 -239q219 -213 543 -213t545 215q221 211 221 528t-221 531q-219 213 -545 213q-324 0 -545 -215q-219 -211 -219 -529zM289 698q0 244 174 418t422 174q250 0 422 -174q176 -176 176 -418t-176 -417q-172 -174 -422 -175q-250 0 -424 175 q-172 172 -172 417zM809 1507h125l362 373h-239z" />
<glyph unicode="&#xd4;" horiz-adv-x="1769" d="M121 698q0 -158 55 -291t166 -239q219 -213 543 -213t545 215q221 211 221 528t-221 531q-219 213 -545 213q-324 0 -545 -215q-219 -211 -219 -529zM289 698q0 244 174 418t422 174q250 0 422 -174q176 -176 176 -418t-176 -417q-172 -174 -422 -175q-250 0 -424 175 q-172 172 -172 417zM553 1489h137l191 211l194 -211l137 2l-264 387h-139z" />
<glyph unicode="&#xd5;" horiz-adv-x="1769" d="M121 698q0 -158 55 -291t166 -239q219 -213 543 -213t545 215q221 211 221 528t-221 531q-219 213 -545 213q-324 0 -545 -215q-219 -211 -219 -529zM289 698q0 244 174 418t422 174q250 0 422 -174q176 -176 176 -418t-176 -417q-172 -174 -422 -175q-250 0 -424 175 q-172 172 -172 417zM524 1542h115q4 45 10 61.5t15 22.5q20 16 36 16q35 0 156 -49q123 -53 193 -53q100 0 149 70q23 33 34 74t11 104h-110q-8 -43 -14.5 -60.5t-16.5 -23.5q-16 -16 -35 -16q-35 0 -158 49q-119 53 -192 53q-47 0 -84 -16.5t-64 -53.5q-23 -33 -34 -73.5 t-11 -104.5z" />
<glyph unicode="&#xd6;" horiz-adv-x="1769" d="M121 698q0 -158 55 -291t166 -239q219 -213 543 -213t545 215q221 211 221 528t-221 531q-219 213 -545 213q-324 0 -545 -215q-219 -211 -219 -529zM289 698q0 244 174 418t422 174q250 0 422 -174q176 -176 176 -418t-176 -417q-172 -174 -422 -175q-250 0 -424 175 q-172 172 -172 417zM651 1563h191v192h-191v-192zM932 1563l190 2v190h-190v-192z" />
<glyph unicode="&#xd7;" horiz-adv-x="1419" d="M262 373l103 -103l346 346l346 -346l100 103l-346 346l346 346l-102 102l-346 -346l-347 346l-100 -102l346 -346z" />
<glyph unicode="&#xd8;" horiz-adv-x="1769" d="M121 698q0 -301 201 -512l8 -8l-133 -149l116 -84l127 141q186 -131 445 -131q324 0 545 215q221 211 221 528q0 299 -203 508l139 154l-119 84l-127 -144q-190 141 -456 142q-324 0 -545 -215q-219 -211 -219 -529zM289 698q0 244 174 418t422 174q201 1 348 -110 l-793 -877q-152 164 -151 395zM549 207l788 876q146 -162 146 -385q0 -242 -176 -417q-172 -174 -422 -175q-193 0 -336 101z" />
<glyph unicode="&#xd9;" horiz-adv-x="1501" d="M141 596q0 -285 170 -463q172 -178 441 -178q272 0 440 186q170 182 170 465v817h-160v-809q0 -119 -31.5 -210t-91.5 -160q-121 -137 -325 -138q-209 0 -332 134q-121 133 -121 364v819h-160v-827zM504 1860l364 -373l125 2l-248 371h-241z" />
<glyph unicode="&#xda;" horiz-adv-x="1501" d="M141 596q0 -285 170 -463q172 -178 441 -178q272 0 440 186q170 182 170 465v817h-160v-809q0 -119 -31.5 -210t-91.5 -160q-121 -137 -325 -138q-209 0 -332 134q-121 133 -121 364v819h-160v-827zM674 1487h123l364 373h-239z" />
<glyph unicode="&#xdb;" horiz-adv-x="1501" d="M141 596q0 -285 170 -463q172 -178 441 -178q272 0 440 186q170 182 170 465v817h-160v-809q0 -119 -31.5 -210t-91.5 -160q-121 -137 -325 -138q-209 0 -332 134q-121 133 -121 364v819h-160v-827zM420 1468h137l191 211l194 -211l137 2l-258 388h-147z" />
<glyph unicode="&#xdc;" horiz-adv-x="1501" d="M141 596q0 -285 170 -463q172 -178 441 -178q272 0 440 186q170 182 170 465v817h-160v-809q0 -119 -31.5 -210t-91.5 -160q-121 -137 -325 -138q-209 0 -332 134q-121 133 -121 364v819h-160v-827zM516 1563h191v192h-191v-192zM797 1563l190 2v190h-190v-192z" />
<glyph unicode="&#xdd;" horiz-adv-x="1253" d="M-25 1423l572 -684v-766h160v766l571 682h-197l-452 -538l-457 540h-197zM549 1487h125l362 373h-239z" />
<glyph unicode="&#xde;" horiz-adv-x="1097" d="M131 -27h160v330h252q223 0 350 100q129 105 129 295q0 195 -131 299q-129 100 -352 101h-248v325h-160v-1450zM291 444v512h256q145 0 229 -71q80 -66 80 -185q0 -125 -82 -188q-84 -68 -239 -68h-244z" />
<glyph unicode="&#xdf;" horiz-adv-x="1075" d="M115 -27h151v945q0 129 17.5 205.5t50.5 111.5q68 74 174 74t182 -60q35 -27 54.5 -70.5t19.5 -109.5q0 -96 -51 -159.5t-123 -63.5h-43v-139q94 -10 145 -36t78 -65q55 -84 55 -198q0 -129 -65 -220q-63 -86 -174 -86q-18 0 -36 3.5t-34 7.5t-31.5 9t-50.5 17v-157 q27 -8 41 -11.5t29 -7.5q16 -4 33.5 -6t40.5 -2q184 0 296 137q109 134 109 316q0 160 -78 260q-61 78 -143 110q80 45 112 123q45 100 46 176q0 160 -117 262q-113 102 -289 103q-170 0 -287 -113q-113 -113 -112 -342v-1014z" />
<glyph unicode="&#xe0;" horiz-adv-x="1038" d="M76 434q0 -104 31.5 -189t99.5 -155q135 -135 338 -135q84 0 164 22q29 8 54 16.5t52 18.5v-43h150v977h-148v-49q-33 16 -64.5 28.5t-64.5 22.5q-66 16 -123 17q-215 0 -354 -152q-135 -143 -135 -379zM215 1413l365 -373l122 2l-245 371h-242zM231 436q0 166 101 273 q102 109 254 108q43 0 78.5 -7t68.5 -22q57 -27 84 -43v-577q-45 -25 -100 -47q-61 -25 -154 -25q-78 0 -136 23.5t-105 70.5q-90 90 -91 246z" />
<glyph unicode="&#xe1;" horiz-adv-x="1019" d="M70 434q0 -209 133 -344q131 -135 338 -135q84 0 164 22q27 8 53 16.5t51 18.5v-43h149v977h-147v-49q-57 31 -127 51q-66 16 -123 17q-215 0 -356 -152q-135 -147 -135 -379zM225 436q0 166 103 273q98 109 254 108q78 0 147 -29q51 -23 82 -43v-577 q-23 -12 -47.5 -24.5t-52.5 -22.5q-61 -25 -152 -25q-152 0 -242 94q-92 88 -92 246zM379 1040h125l362 373h-239z" />
<glyph unicode="&#xe2;" horiz-adv-x="1060" d="M80 434q0 -209 133 -344q131 -135 338 -135q84 0 164 22q29 8 54.5 16.5t49.5 18.5v-43h150v977h-148v-49q-57 31 -127 51q-66 16 -123 17q-215 0 -354 -152q-137 -145 -137 -379zM219 1022h135l193 211l192 -211l138 2l-256 387h-148zM236 436q0 166 102 273 q98 109 254 108q80 0 147 -29q51 -23 82 -43v-577q-23 -12 -47 -24.5t-53 -22.5q-61 -25 -152 -25q-152 0 -241 94q-92 92 -92 246z" />
<glyph unicode="&#xe3;" horiz-adv-x="1036" d="M74 434q0 -209 133 -344q131 -135 338 -135q84 0 164 22q29 8 54 16.5t50 18.5v-43h150v977h-148v-49q-57 31 -127 51q-66 16 -123 17q-215 0 -354 -152q-137 -145 -137 -379zM180 1096h115q4 45 11 61.5t13 22.5q23 16 39 16q33 0 156 -49q119 -53 193 -53q98 0 147 69 q23 33 34 74t11 104h-111q-6 -43 -13 -60t-15 -24q-18 -16 -35 -16q-39 0 -158 49q-123 53 -192 53q-47 0 -85 -16t-63 -53q-23 -33 -35 -74t-12 -104zM229 436q0 166 103 273q98 109 254 108q80 0 147 -29q51 -23 82 -43v-577q-23 -12 -47.5 -24.5t-52.5 -22.5 q-61 -25 -152 -25q-152 0 -241 94q-92 92 -93 246z" />
<glyph unicode="&#xe4;" horiz-adv-x="1054" d="M90 434q0 -209 133 -344q131 -135 338 -135q84 0 164 22q27 8 53.5 21.5t50.5 24.5v-54h150v977h-148v-59q-59 33 -126 55q-63 23 -125 23q-213 0 -355 -152q-135 -147 -135 -379zM246 436q0 166 102 273q98 109 254 108q78 0 146 -29q29 -12 49 -27.5t34 -25.5v-557 q-23 -12 -47 -29.5t-53 -27.5q-61 -25 -153 -25q-78 0 -136.5 23.5t-105.5 70.5q-90 90 -90 246zM311 1116h191v193h-191v-193zM592 1116l192 2v191h-192v-193z" />
<glyph unicode="&#xe6;" horiz-adv-x="1613" d="M49 434q0 -209 133 -344q131 -135 338 -135q84 0 164 22q29 8 54.5 21.5t52.5 24.5v-54h149v94q16 -16 41 -36.5t43 -30.5q78 -41 170 -41q109 0 199 45q43 20 77.5 43t69.5 49v184q-51 -49 -84 -75.5t-72 -53.5q-72 -45 -155 -45q-123 0 -209 101q-63 74 -82 172v94h621 q0 119 -27 206t-80 154q-111 135 -278 136q-92 0 -166 -39q-16 -8 -36 -27.5t-34 -30.5v78h-147v-59q-63 35 -125 55q-68 23 -125 23q-215 0 -355 -152q-137 -145 -137 -379zM205 436q0 84 26.5 151.5t75.5 121.5q102 109 254 108q43 0 79 -7t69 -22q29 -12 48 -27.5 t36 -25.5l-2 -557q-20 -12 -46 -29.5t-55 -27.5q-59 -25 -151 -25q-152 0 -242 94q-92 92 -92 246zM950 600q10 35 22.5 65.5t28.5 53.5q68 98 177 98q90 0 141 -63q47 -55 61 -156v2h-430z" />
<glyph unicode="&#xe7;" horiz-adv-x="897" d="M76 459q0 -229 129 -367q88 -92 215 -119l-37 -127q53 0 77.5 -3t37.5 -13q20 -12 20 -39q0 -25 -22 -37q-12 -8 -34 -13t-50 -3l-90 6l-19 -115l121 -14q94 0 159.5 49t65.5 129q0 51 -26 86q-27 39 -66 51q6 0 17.5 14.5t19.5 16.5q12 2 24.5 3t24.5 1q31 4 58.5 9.5 t56.5 13.5q25 6 42.5 12t33.5 10v160q-43 -18 -73 -28.5t-61 -20.5q-61 -18 -135 -19q-80 0 -140 25t-103 72q-90 96 -91 260q0 158 91 260q86 98 231 98q72 0 129 -20q29 -10 58.5 -20.5t76.5 -33.5v168q-41 14 -71.5 23.5t-61.5 15.5q-57 14 -133 15q-215 0 -348 -152 q-127 -145 -127 -354z" />
<glyph unicode="&#xe8;" horiz-adv-x="1030" d="M78 473q0 -223 139 -373q141 -145 358 -145q117 0 218 47q43 18 78.5 41t70.5 49v182q-51 -47 -88 -73.5t-82 -50.5q-84 -47 -188 -48q-78 0 -139.5 27t-112.5 76q-94 94 -101 227v37l730 -2q0 123 -31 210t-90 152q-123 135 -314 136q-197 0 -323 -146 q-125 -139 -125 -346zM254 600q20 68 59 117q80 100 215 100q59 0 102.5 -17.5t74.5 -47.5q53 -53 75 -154v2h-526zM266 1413l365 -373l125 2l-248 371h-242z" />
<glyph unicode="&#xe9;" horiz-adv-x="1030" d="M78 473q0 -223 139 -373q141 -145 358 -145q117 0 218 47q43 18 78.5 41t70.5 49v182q-51 -47 -88 -73.5t-82 -50.5q-84 -47 -188 -48q-78 0 -139.5 27t-112.5 76q-94 94 -101 227v37l730 -2q0 123 -31 210t-90 152q-123 135 -314 136q-197 0 -323 -146 q-125 -139 -125 -346zM254 600q20 68 59 117q80 100 215 100q59 0 102.5 -17.5t74.5 -47.5q53 -53 75 -154v2h-526zM436 1040h123l365 373h-240z" />
<glyph unicode="&#xea;" horiz-adv-x="1030" d="M78 473q0 -223 139 -373q141 -145 358 -145q117 0 218 47q43 18 78.5 41t70.5 49v182q-51 -47 -88 -73.5t-82 -50.5q-84 -47 -188 -48q-78 0 -139.5 27t-112.5 76q-94 94 -101 227v37l730 -2q0 123 -31 210t-90 152q-123 135 -314 136q-197 0 -323 -146 q-125 -139 -125 -346zM182 1022h137l191 211l195 -211l137 2l-258 387h-148zM254 600q20 68 59 117q80 100 215 100q59 0 102.5 -17.5t74.5 -47.5q53 -53 75 -154v2h-526z" />
<glyph unicode="&#xeb;" horiz-adv-x="1030" d="M78 473q0 -223 139 -373q141 -145 358 -145q117 0 218 47q43 18 78.5 41t70.5 49v182q-51 -47 -88 -73.5t-82 -50.5q-84 -47 -188 -48q-78 0 -139.5 27t-112.5 76q-94 94 -101 227v37l730 -2q0 123 -31 210t-90 152q-123 135 -314 136q-197 0 -323 -146 q-125 -139 -125 -346zM254 600q20 68 59 117q80 100 215 100q59 0 102.5 -17.5t74.5 -47.5q53 -53 75 -154v2h-526zM279 1116h190v193h-190v-193zM559 1116l191 2v191h-191v-193z" />
<glyph unicode="&#xec;" horiz-adv-x="403" d="M-39 1413l363 -373l125 2l-248 371h-240zM131 -27h150v973h-150v-973z" />
<glyph unicode="&#xed;" horiz-adv-x="403" d="M49 1040h123l365 373h-240zM133 -27h150v973h-150v-973z" />
<glyph unicode="&#xee;" horiz-adv-x="403" d="M-127 1022h135l193 211l192 -211l137 2l-256 387h-147zM127 -27h149v973h-149v-973z" />
<glyph unicode="&#xef;" horiz-adv-x="403" d="M-33 1116h191v193h-191v-193zM127 -27h149v973h-149v-973zM248 1116l190 2v191h-190v-193z" />
<glyph unicode="&#xf0;" horiz-adv-x="1202" d="M80 455q0 -215 151 -359q150 -143 377 -143q231 0 375 158q143 151 143 397q0 309 -165 553q-51 74 -136 151l226 105l-56 115l-278 -134q-43 33 -104.5 64t-153.5 65l-60 -114q53 -25 93 -47.5t69 -38.5l-233 -109l51 -114l305 141q33 -25 55.5 -46.5t38.5 -37.5 q82 -92 127 -205q-74 61 -143 84q-74 25 -152 25q-233 0 -381 -146q-150 -143 -149 -364zM225 453q0 158 106.5 268t272.5 110q162 0 264 -104q103 -102 103 -258q0 -168 -103 -274q-98 -106 -262 -107q-164 0 -272 107q-109 102 -109 258z" />
<glyph unicode="&#xf1;" horiz-adv-x="1054" d="M127 -27h149v668q23 35 49.5 65.5t59.5 57.5q63 53 166 53q111 0 168 -76q29 -35 44 -90t15 -127v-551h150v582q0 92 -24.5 168t-78.5 131q-104 111 -274 111q-96 0 -176 -45q-53 -31 -101 -97v123h-147v-973zM170 1096h113q6 45 12 61.5t14 22.5q20 16 37 16 q35 0 156 -49q123 -53 192 -53q100 0 150 69q23 33 34 74t11 104h-111q-8 -43 -15 -60t-15 -24q-16 -16 -35 -16q-35 0 -158 49q-119 53 -193 53q-47 0 -83.5 -16t-63.5 -53q-23 -33 -34 -74t-11 -104z" />
<glyph unicode="&#xf2;" horiz-adv-x="1165" d="M88 459q0 -209 143 -359q139 -145 353 -145q211 0 354 145q139 150 139 359q0 213 -141 360q-141 145 -352 146q-215 0 -355 -146q-141 -147 -141 -360zM244 459q0 152 100 254q98 104 240 104q139 0 239 -106q99 -102 99 -252q0 -147 -99 -252q-102 -104 -239 -105 q-139 0 -240 107q-100 100 -100 250zM340 1413l362 -373l125 2l-247 371h-240z" />
<glyph unicode="&#xf3;" horiz-adv-x="1165" d="M88 459q0 -209 143 -359q139 -145 353 -145q211 0 354 145q139 150 139 359q0 213 -141 360q-141 145 -352 146q-215 0 -355 -146q-141 -147 -141 -360zM244 459q0 152 100 254q98 104 240 104q139 0 239 -106q99 -102 99 -252q0 -147 -99 -252q-102 -104 -239 -105 q-139 0 -240 107q-100 100 -100 250zM508 1040h125l362 373h-239z" />
<glyph unicode="&#xf4;" horiz-adv-x="1165" d="M88 459q0 -209 143 -359q139 -145 353 -145q211 0 354 145q139 150 139 359q0 213 -141 360q-141 145 -352 146q-215 0 -355 -146q-141 -147 -141 -360zM244 459q0 152 100 254q98 104 240 104q139 0 239 -106q99 -102 99 -252q0 -147 -99 -252q-102 -104 -239 -105 q-139 0 -240 107q-100 100 -100 250zM254 1022h137l193 211l192 -211l137 2l-258 387h-145z" />
<glyph unicode="&#xf5;" horiz-adv-x="1165" d="M88 459q0 -209 143 -359q139 -145 353 -145q211 0 354 145q139 150 139 359q0 213 -141 360q-141 145 -352 146q-215 0 -355 -146q-141 -147 -141 -360zM223 1096h115q4 45 10 61.5t14 22.5q23 16 39 16q33 0 156 -49q119 -53 193 -53q47 0 84.5 17t62.5 52q23 33 34 74 t11 104h-111q-8 -43 -14 -60t-14 -24q-18 -16 -35 -16q-23 0 -60.5 12.5t-99.5 36.5q-119 53 -190 53q-47 0 -85 -16t-65 -53q-23 -33 -34 -74t-11 -104zM244 459q0 152 100 254q98 104 240 104q139 0 239 -106q99 -102 99 -252q0 -147 -99 -252q-102 -104 -239 -105 q-139 0 -240 107q-100 100 -100 250z" />
<glyph unicode="&#xf6;" horiz-adv-x="1165" d="M88 459q0 -209 143 -359q139 -145 353 -145q211 0 354 145q139 150 139 359q0 213 -141 360q-141 145 -352 146q-215 0 -355 -146q-141 -147 -141 -360zM244 459q0 152 100 254q98 104 240 104q139 0 239 -106q99 -102 99 -252q0 -147 -99 -252q-102 -104 -239 -105 q-139 0 -240 107q-100 100 -100 250zM350 1116h191v193h-191v-193zM631 1116l190 2v191h-190v-193z" />
<glyph unicode="&#xf7;" horiz-adv-x="1419" d="M147 647h1125v144h-1125v-144zM629 272h162v226h-162v-226zM629 940l162 2v223h-162v-225z" />
<glyph unicode="&#xf8;" horiz-adv-x="1165" d="M84 -16l104 -80l117 135q119 -84 281 -84q104 0 193 36t161 109q102 104 121 256q12 129 -37 234q0 4 9 19.5t20.5 31.5t20.5 31.5t9 19.5q0 25 -10 53.5t-26.5 56t-35 51.5t-34.5 40l37 80l-41 33l-109 -123q-119 82 -278 82q-104 0 -193.5 -36t-161.5 -110 q-139 -145 -139 -360q0 -201 117 -332zM248 459q0 154 98 254q100 104 240 104q100 0 176 -53l-449 -516q-66 90 -65 211zM408 156l448 516q70 -92 70 -213q0 -150 -101 -252q-98 -104 -239 -105q-102 0 -178 54z" />
<glyph unicode="&#xf9;" horiz-adv-x="1054" d="M127 352q0 -193 102.5 -295t286.5 -102q84 0 164 45q51 27 98 90v-117h150v973h-150v-663q-31 -59 -106 -119q-74 -61 -168 -62q-109 0 -168.5 70t-59.5 201v573h-149v-594zM281 1413l364 -373l125 2l-248 371h-241z" />
<glyph unicode="&#xfa;" horiz-adv-x="1054" d="M115 352q0 -190 104 -295q102 -102 287 -102q80 0 164 45q53 29 96 90v-117h149v973h-149v-663q-33 -61 -104 -119q-74 -61 -168 -62q-111 0 -170.5 70t-59.5 201v573h-149v-594zM438 1040h125l363 373h-240z" />
<glyph unicode="&#xfb;" horiz-adv-x="1054" d="M127 352q0 -193 102.5 -295t286.5 -102q84 0 164 45q51 27 98 90v-117h150v973h-150v-663q-31 -59 -106 -119q-74 -61 -168 -62q-109 0 -168.5 70t-59.5 201v573h-149v-594zM197 1022h137l190 211l195 -211l137 2l-258 387h-145z" />
<glyph unicode="&#xfc;" horiz-adv-x="1054" d="M127 352q0 -193 102.5 -295t286.5 -102q84 0 164 45q51 27 98 90v-117h150v973h-150v-663q-31 -59 -106 -119q-74 -61 -168 -62q-109 0 -168.5 70t-59.5 201v573h-149v-594zM293 1116h190v193h-190v-193zM573 1116l191 2v191h-191v-193z" />
<glyph unicode="&#xfd;" horiz-adv-x="897" d="M-14 946l401 -770l-334 -674h158l711 1442h-158l-299 -610l-315 612h-164zM367 1040h122l365 373h-240z" />
<glyph unicode="&#xfe;" horiz-adv-x="1097" d="M119 -498h149v510q27 -12 52.5 -22t52.5 -17q70 -18 155 -18q195 0 334 154q139 149 139 352q0 221 -139 362.5t-354 141.5q-35 0 -70 -5.5t-71 -15.5q-53 -12 -99 -37v516h-149v-1921zM268 162v598q23 14 76 33q55 25 139 24q154 0 256 -104q103 -98 103 -254t-97 -256 q-92 -100 -249 -101q-41 0 -77 7.5t-67 17.5q-25 10 -46 17.5t-38 17.5z" />
<glyph unicode="&#xff;" horiz-adv-x="897" d="M-14 946l401 -770l-334 -674h158l711 1442h-158l-299 -610l-315 612h-164zM209 1116h190v193h-190v-193zM489 1116l191 2v191h-191v-193z" />
<glyph unicode="&#x152;" horiz-adv-x="1927" d="M102 707q0 -317 217 -527q217 -207 543 -207h967v144h-676v516l643 2v139h-643v508h662v141h-957q-319 0 -539 -206q-217 -203 -217 -510zM270 698q0 127 44 228.5t130 187.5q174 168 435 168h114v-1165h-108q-266 0 -441 164q-174 168 -174 417z" />
<glyph unicode="&#x153;" horiz-adv-x="1792" d="M102 459q0 -211 134 -357q135 -147 331 -147q141 0 256 63q43 27 80 60t66 74q51 -104 141 -148q100 -49 221 -49q102 0 197 45q43 20 76.5 43t64.5 49v184q-51 -49 -84 -75.5t-72 -53.5q-72 -45 -157 -45q-127 0 -215 101q-80 92 -86 229v37h633q0 119 -26 206t-77 154 q-102 135 -268 136q-117 0 -209 -50q-76 -39 -143 -131q-63 86 -152 131q-96 49 -240 50q-203 0 -337 -148q-133 -145 -134 -358zM258 459q0 150 94 256q92 102 226 102q129 0 225 -104q94 -102 94 -254q0 -147 -94 -254q-92 -102 -225 -103q-131 0 -226 105 q-94 102 -94 252zM1073 600q20 76 51 119q68 98 179 98q92 0 145 -63q47 -55 61 -156v2h-436z" />
<glyph unicode="&#x178;" horiz-adv-x="1253" d="M-25 1423l572 -684v-766h160v766l571 682h-197l-452 -538l-457 540h-197zM391 1563h191v192h-191v-192zM672 1563l190 2v190h-190v-192z" />
<glyph unicode="&#x2c6;" d="M29 1022h137l190 211l195 -211l137 2l-258 387h-145z" />
<glyph unicode="&#x2dc;" d="M-2 1096h115q4 45 10 61.5t14 22.5q23 16 39 16q33 0 156 -49q119 -53 192 -53q47 0 85 17t63 52q23 33 34 74t11 104h-111q-8 -43 -14 -60t-14 -24q-18 -16 -35 -16q-23 0 -61 12.5t-99 36.5q-119 53 -190 53q-47 0 -85 -16t-65 -53q-23 -33 -34 -74t-11 -104z" />
<glyph unicode="&#x2000;" horiz-adv-x="944" />
<glyph unicode="&#x2001;" horiz-adv-x="1888" />
<glyph unicode="&#x2002;" horiz-adv-x="944" />
<glyph unicode="&#x2003;" horiz-adv-x="1888" />
<glyph unicode="&#x2004;" horiz-adv-x="629" />
<glyph unicode="&#x2005;" horiz-adv-x="472" />
<glyph unicode="&#x2006;" horiz-adv-x="314" />
<glyph unicode="&#x2007;" horiz-adv-x="314" />
<glyph unicode="&#x2008;" horiz-adv-x="236" />
<glyph unicode="&#x2009;" horiz-adv-x="377" />
<glyph unicode="&#x200a;" horiz-adv-x="104" />
<glyph unicode="&#x2010;" horiz-adv-x="673" d="M68 492h536v126h-536v-126z" />
<glyph unicode="&#x2011;" horiz-adv-x="673" d="M68 492h536v126h-536v-126z" />
<glyph unicode="&#x2012;" horiz-adv-x="673" d="M68 492h536v126h-536v-126z" />
<glyph unicode="&#x2013;" horiz-adv-x="1075" d="M-12 453l1099 2v116h-1099v-118z" />
<glyph unicode="&#x2014;" horiz-adv-x="2150" d="M12 453l2126 2v116h-2126v-118z" />
<glyph unicode="&#x2018;" horiz-adv-x="380" d="M92 936h184v252h-40q2 23 4 40t6 29q2 6 10 15q8 12 12 16q13 10 29 33v127q-51 -35 -90 -64.5t-66 -68.5q-49 -80 -49 -211v-168z" />
<glyph unicode="&#x2019;" horiz-adv-x="380" d="M82 915q53 35 92 65t64 69q27 41 38 93t11 118v167h-185v-251h43q-2 -23 -4 -40.5t-6 -29.5q-2 -6 -10 -14q-4 -6 -14 -17q-6 -6 -12.5 -14t-16.5 -19v-127z" />
<glyph unicode="&#x201a;" horiz-adv-x="380" d="M98 -27h41q0 -43 -10 -69q-4 -16 -11 -31.5t-20 -32.5v-127q55 35 84 67t51 66q50 80 50 211v168h-185v-252z" />
<glyph unicode="&#x201c;" horiz-adv-x="851" d="M104 936h185v252h-41q0 23 2 40t6 29q2 6 10 15q4 4 7 8t8 8q6 6 12 14.5t16 18.5v127q-51 -35 -91 -64.5t-64 -68.5q-49 -80 -50 -211v-168zM553 936h184v252h-41q0 23 2 40t7 29q2 6 10 15q4 4 7 8t7 8q6 6 12.5 14.5t16.5 18.5v127q-51 -35 -91 -64.5t-65 -68.5 q-49 -80 -49 -211v-168z" />
<glyph unicode="&#x201d;" horiz-adv-x="851" d="M94 915q51 35 91 65t65 69q49 80 49 211v167h-184v-251h41q0 -43 -11 -70q0 -6 -8 -14q-4 -4 -7 -8.5t-7 -8.5q-6 -6 -13.5 -14t-15.5 -19v-127zM543 915q51 35 91 65t64 69q50 80 50 211v167h-185v-251h41q0 -43 -10 -70q0 -6 -8 -14q-4 -4 -7.5 -8.5t-7.5 -8.5 q-6 -6 -13 -14t-15 -19v-127z" />
<glyph unicode="&#x201e;" horiz-adv-x="851" d="M98 -160v-127q51 35 90 63.5t64 67.5q51 84 51 213v168h-184v-252h41q0 -23 -2 -40t-6 -27q0 -6 -11 -17q-4 -6 -14 -16q-6 -6 -12 -13t-17 -20zM539 -160v-127q51 35 90 63.5t63 67.5q51 84 51 213v168h-184v-252h41q0 -23 -2 -40t-6 -27q0 -6 -10 -17q-4 -6 -15 -16 q-6 -6 -12 -13t-16 -20z" />
<glyph unicode="&#x2022;" horiz-adv-x="1075" d="M262 698q0 -115 82 -196q80 -80 195 -80q113 0 194 82q80 79 80 194t-82 197q-80 80 -194 80q-113 0 -195 -82q-80 -80 -80 -195z" />
<glyph unicode="&#x2026;" horiz-adv-x="2150" d="M301 -27h182v254h-182v-254zM983 -27h182v254h-182v-254zM1665 -27h182v254h-182v-254z" />
<glyph unicode="&#x202f;" horiz-adv-x="377" />
<glyph unicode="&#x2039;" horiz-adv-x="604" d="M2 473l410 -487h190l-407 487l403 488h-190z" />
<glyph unicode="&#x203a;" horiz-adv-x="604" d="M0 -14h193l407 487l-403 488h-193l406 -488z" />
<glyph unicode="&#x205f;" horiz-adv-x="472" />
<glyph unicode="&#x25fc;" horiz-adv-x="942" d="M0 0v942h942v-942h-942z" />
</font>
</defs>
</svg>
