<?xml version="1.0" standalone="no"?>
<!DOCTYPE svg PUBLIC "-//W3C//DTD SVG 1.1//EN" "http://www.w3.org/Graphics/SVG/1.1/DTD/svg11.dtd" >
<svg xmlns="http://www.w3.org/2000/svg">
<metadata></metadata>
<defs>
<font id="cabin_condensedregular" horiz-adv-x="1337" >
<font-face units-per-em="2048" ascent="1638" descent="-410" />
<missing-glyph horiz-adv-x="397" />
<glyph horiz-adv-x="2048" />
<glyph horiz-adv-x="2048" />
<glyph unicode="&#xd;" horiz-adv-x="2048" />
<glyph unicode=" "  horiz-adv-x="397" />
<glyph unicode="&#x09;" horiz-adv-x="397" />
<glyph unicode="&#xa0;" horiz-adv-x="397" />
<glyph unicode="!" horiz-adv-x="444" d="M113 1536h219l-47 -1126h-127zM133 0v176h178v-176h-178z" />
<glyph unicode="&#x22;" horiz-adv-x="698" d="M63 1536h189l-37 -614h-117zM446 1536h187l-37 -614h-115z" />
<glyph unicode="#" horiz-adv-x="1263" d="M59 442l70 172h201l78 252h-218l54 172h225l129 396h152l-129 -396h219l129 396h153l-129 -396h197l-53 -172h-203l-80 -252h223l-71 -172h-211l-150 -465h-153l149 465h-219l-152 -465h-151l149 465h-209zM481 614h217l82 252h-219z" />
<glyph unicode="$" horiz-adv-x="911" d="M66 975q0 49 16 101t54 96.5t100.5 77t154.5 42.5l-29 240h170l-28 -240q92 -6 169 -28.5t113 -46.5l-16 -197q-74 41 -153.5 69.5t-145.5 28.5q-37 0 -74 -5t-66.5 -19.5t-48 -37t-18.5 -57.5q0 -55 43 -87.5t107.5 -56.5t139.5 -47.5t139.5 -63t107.5 -102t43 -163.5 q0 -41 -12.5 -91t-49.5 -95t-103.5 -80t-174.5 -45l28 -234h-170l29 232q-106 6 -187 28.5t-122 49.5l24 223q47 -47 131.5 -83t198.5 -36q86 0 136.5 26.5t50.5 102.5q0 59 -41 96t-103.5 64t-134.5 51.5t-134.5 59t-103 88t-40.5 139.5z" />
<glyph unicode="%" horiz-adv-x="1482" d="M63 1055q0 94 21.5 166.5t57.5 122t85 75t105 25.5q113 0 186.5 -95.5t73.5 -275.5q0 -190 -74.5 -290.5t-193.5 -100.5q-117 0 -189 96t-72 277zM180 1055q0 -123 43 -195t103 -72q66 0 108.5 77t42.5 208q0 121 -44 193.5t-103 72.5t-104.5 -77.5t-45.5 -206.5z M276 -25l744 1459h151l-741 -1459h-154zM895 344q0 94 21.5 167t57.5 122t85 74.5t104 25.5q111 0 185.5 -95t74.5 -276q0 -190 -74.5 -290.5t-193.5 -100.5q-117 0 -188.5 96.5t-71.5 276.5zM1010 344q0 -123 44 -194.5t103 -71.5q66 0 109 76.5t43 207.5q0 121 -45.5 194 t-102.5 73q-59 0 -105 -78t-46 -207z" />
<glyph unicode="&#x26;" horiz-adv-x="1105" d="M57 332q0 119 57.5 219t161.5 199q-66 111 -99.5 193.5t-33.5 154.5q0 80 29 143.5t77 107.5t111.5 67.5t133.5 23.5q131 0 197.5 -75t66.5 -183q0 -74 -23.5 -139.5t-62.5 -123t-88 -104.5t-99 -86l297 -399q14 27 22.5 79t13.5 110.5t8 112.5t3 87h170q0 -45 -4 -106.5 t-15 -131t-30.5 -141.5t-52.5 -135l168 -205h-201l-67 94q-72 -80 -149 -110.5t-181 -30.5q-109 0 -186.5 29.5t-127 81t-73 121t-23.5 147.5zM242 346q0 -53 12 -99t41 -80t75 -54.5t111 -20.5q78 0 131.5 34t89.5 89l-340 426q-53 -51 -86.5 -127t-33.5 -168zM317 1094 q0 -47 18.5 -111.5t72.5 -151.5q43 47 78.5 84t60 73t39 73t14.5 84q0 74 -34 113.5t-89 39.5q-66 0 -113 -50t-47 -154z" />
<glyph unicode="'" horiz-adv-x="346" d="M76 1536h194l-34 -614h-127z" />
<glyph unicode="(" horiz-adv-x="501" d="M80 629q0 162 13 293t39 239.5t61.5 199.5t78.5 175h166q-88 -172 -149.5 -393t-61.5 -514t61.5 -514t149.5 -394h-166q-43 82 -78.5 174.5t-61.5 201t-39 239.5t-13 293z" />
<glyph unicode=")" horiz-adv-x="501" d="M63 -279q88 172 148.5 393.5t60.5 514.5t-60 514t-149 393h164q45 -84 81 -175t61.5 -199.5t39 -239.5t13.5 -293t-13.5 -293t-39 -239.5t-61.5 -201t-81 -174.5h-164z" />
<glyph unicode="*" horiz-adv-x="790" d="M70 1307l57 84l250 -177l-39 320h117l-43 -320l252 177l57 -86l-279 -129l205 -236l-84 -66l-166 273l-166 -279l-81 66l198 240z" />
<glyph unicode="+" horiz-adv-x="794" d="M72 487v177h250v262h151v-262h250v-177h-250v-278h-151v278h-250z" />
<glyph unicode="," horiz-adv-x="415" d="M111 -197l59 179l-57 18v176h192v-176l-151 -223z" />
<glyph unicode="-" horiz-adv-x="718" d="M86 487v177h547v-177h-547z" />
<glyph unicode="." horiz-adv-x="415" d="M119 0v176h184v-176h-184z" />
<glyph unicode="/" horiz-adv-x="970" d="M41 -174l655 1608h203l-657 -1608h-201z" />
<glyph unicode="0" horiz-adv-x="1241" d="M102 692q0 174 41 316.5t113 243t168 155.5t207 55q109 0 202 -52t160.5 -148.5t106.5 -231.5t39 -299q0 -174 -38 -314.5t-107.5 -239.5t-167 -152.5t-216.5 -53.5q-115 0 -208 51.5t-159.5 144.5t-103.5 226t-37 299zM301 692q0 -276 88 -410.5t223 -134.5 q72 0 133.5 35t105.5 107.5t68.5 182.5t24.5 259q0 137 -25.5 241.5t-69.5 174.5t-101.5 104.5t-120.5 34.5t-122 -37t-104 -110.5t-72.5 -185t-27.5 -261.5z" />
<glyph unicode="1" horiz-adv-x="645" d="M78 1210q33 14 68.5 37t69.5 52.5t62.5 63.5t45.5 71h147v-1434h-197v1153q-53 -59 -92 -85t-80 -40z" />
<glyph unicode="2" horiz-adv-x="927" d="M92 0q172 289 273.5 473t152.5 298t65.5 175.5t14.5 102.5q0 113 -52 172t-145 59q-57 0 -102 -18.5t-80 -47t-60.5 -62.5t-41.5 -62l-25 174q8 16 36 49t72 66.5t105.5 58t140.5 24.5q96 0 162 -35.5t106 -93t56 -127t16 -137.5q0 -72 -19 -156t-62 -190.5t-111 -240.5 t-164 -306h401v-176h-739z" />
<glyph unicode="3" horiz-adv-x="950" d="M66 80l47 180q61 -51 130.5 -82t151.5 -31q45 0 90 13.5t81 45.5t58.5 88t22.5 142q0 51 -10 99.5t-39 85t-81 59t-134 22.5h-139l16 156h74q154 0 211 62.5t57 173.5q0 102 -49 147t-150 45q-78 0 -136 -26.5t-91 -57.5l-33 166q23 25 95.5 59.5t187.5 34.5 q117 0 190.5 -35.5t114.5 -90t56.5 -119t15.5 -123.5q0 -82 -32 -153t-109 -146q51 -25 86.5 -64t57 -87t32 -101.5t10.5 -104.5q0 -119 -38 -206t-101.5 -145t-143.5 -87t-166 -29q-59 0 -115.5 12.5t-101.5 30t-75.5 36t-40.5 30.5z" />
<glyph unicode="4" horiz-adv-x="1024" d="M33 389l567 1045h160v-869h149v-176h-149v-389h-197v389h-530zM313 565h250v520z" />
<glyph unicode="5" horiz-adv-x="946" d="M88 51l45 182q51 -39 121 -62.5t137 -23.5q53 0 102.5 25t86 68t59.5 103t23 132q0 63 -16.5 110.5t-56.5 79t-105.5 47t-164.5 15.5h-165l75 707h562l-19 -177h-395l-33 -356q137 -2 235.5 -27.5t161 -77t91 -129t28.5 -184.5q0 -117 -39 -212t-104.5 -161.5 t-149.5 -102.5t-172 -36q-49 0 -101 8.5t-95 19.5t-74 25.5t-37 26.5z" />
<glyph unicode="6" horiz-adv-x="989" d="M102 481q0 115 24 228.5t64.5 219t94 197t113 159t118.5 107.5t115 42l129 -78q-74 -53 -146.5 -114.5t-134 -137.5t-105.5 -168t-61 -205q39 66 100.5 97.5t129.5 31.5q82 0 150.5 -29.5t117.5 -83t76.5 -130t27.5 -171.5q0 -104 -30.5 -191t-87 -150.5t-136.5 -98.5 t-176 -35q-174 0 -278.5 134.5t-104.5 375.5zM297 408q0 -59 17.5 -108.5t46 -84.5t66.5 -54.5t81 -19.5q100 0 160.5 83t60.5 212q0 121 -51.5 189.5t-149.5 68.5q-49 0 -91 -20.5t-73.5 -58t-49 -91t-17.5 -116.5z" />
<glyph unicode="7" horiz-adv-x="899" d="M76 1257v177h803l-527 -1434h-200l448 1257h-524z" />
<glyph unicode="8" horiz-adv-x="1050" d="M94 387q0 92 44 192.5t173 190.5q-84 86 -114.5 168t-30.5 168q0 63 17.5 126.5t59.5 115t112.5 82t176.5 30.5q100 0 169 -28.5t111 -74.5t59.5 -104.5t17.5 -115.5t-10.5 -100.5t-33 -82.5t-57 -77.5t-81.5 -83.5q123 -57 186 -148.5t63 -238.5q0 -74 -25.5 -151 t-79.5 -139.5t-139 -103.5t-202 -41q-111 0 -189.5 37t-129 97.5t-74 134t-23.5 147.5zM291 387q0 -123 60.5 -181.5t166.5 -58.5q109 0 176.5 72t67.5 189q0 55 -18.5 101t-51.5 82t-75 61.5t-87 39.5q-98 -25 -168.5 -99.5t-70.5 -205.5zM336 1094q0 -72 44 -132.5 t136 -99.5q102 37 145.5 106.5t43.5 147.5q0 80 -44.5 125t-136.5 45q-94 0 -141 -50t-47 -142z" />
<glyph unicode="9" horiz-adv-x="991" d="M102 985q0 100 30 187.5t86 152t135 101t177 36.5q78 0 148 -24.5t123 -84t85 -158.5t32 -249q0 -229 -53.5 -406.5t-133.5 -297t-170 -181t-164 -61.5l-135 78q55 33 127 82t138.5 120.5t116.5 171t63 236.5q-18 -29 -47 -50.5t-62 -36.5t-65.5 -22.5t-57.5 -7.5 q-168 0 -270.5 101.5t-102.5 312.5zM293 995q0 -41 9 -86t32.5 -83t62 -62.5t97.5 -24.5q96 0 163.5 77t67.5 210q0 68 -18.5 118t-48 83t-67.5 49t-77 16q-55 0 -96 -25.5t-68.5 -67.5t-42 -95t-14.5 -109z" />
<glyph unicode=":" horiz-adv-x="462" d="M139 0v176h185v-176h-185zM139 725v176h185v-176h-185z" />
<glyph unicode=";" horiz-adv-x="460" d="M111 -197l59 179l-57 18v176h192v-178l-151 -221zM113 725v176h202v-176h-202z" />
<glyph unicode="&#x3c;" horiz-adv-x="786" d="M57 582l377 422h207l-379 -422l379 -422h-207z" />
<glyph unicode="=" horiz-adv-x="864" d="M106 328v155h652v-155h-652zM106 651v156h652v-156h-652z" />
<glyph unicode="&#x3e;" horiz-adv-x="786" d="M145 160l377 422l-377 422h205l379 -422l-379 -422h-205z" />
<glyph unicode="?" horiz-adv-x="780" d="M53 1399q37 57 113 97t168 40t160.5 -36t114.5 -92t69.5 -123.5t23.5 -131.5q0 -98 -45 -187t-100 -174t-100 -166t-45 -161v-55h-121q-6 82 -6 92q0 94 37.5 171t84 149.5t85 150.5t38.5 176q0 66 -17 113t-46 77.5t-65.5 46t-75.5 15.5q-41 0 -77 -14.5t-65.5 -36 t-50 -46t-33.5 -42.5zM260 0v176h186v-176h-186z" />
<glyph unicode="@" horiz-adv-x="1243" d="M72 348q0 168 54 311.5t145 249t211 165t253 59.5q104 0 185 -37t137.5 -104.5t86.5 -163t30 -214.5q0 -78 -13.5 -153.5t-43.5 -135t-78 -96t-115 -36.5q-33 0 -54.5 17t-21.5 87q0 90 31.5 202.5t66.5 276.5q-35 41 -88 75t-125 34q-84 0 -164 -50.5t-144.5 -131 t-103 -183t-38.5 -207.5q0 -45 8 -87t27.5 -73.5t50 -51t73.5 -19.5q39 0 82 15.5t86 46t82 74.5t68 101q0 -10 -2 -29.5t-2 -41.5q0 -25 5 -53.5t16 -52t30.5 -40t50.5 -16.5q25 0 55.5 11.5t61.5 29.5t60.5 42t49.5 48q-41 -88 -102 -160.5t-136 -125t-161 -81t-178 -28.5 q-201 0 -318.5 138t-117.5 388zM424 354q0 84 32.5 158t81 129t105 87t105.5 32q16 0 42.5 -6t36.5 -39q-12 -82 -48 -170t-83 -161t-99 -120t-95 -47q-41 0 -59.5 39t-18.5 98z" />
<glyph unicode="A" horiz-adv-x="1103" d="M14 0l441 1434h192l440 -1434h-200l-113 387h-446l-113 -387h-201zM391 563h320l-160 598z" />
<glyph unicode="B" horiz-adv-x="1075" d="M106 0v1434h302q106 0 193 -12.5t148.5 -51.5t94.5 -108.5t33 -182.5q0 -90 -19.5 -159.5t-83.5 -155.5q115 -53 162 -137t47 -201q0 -137 -39 -221t-100.5 -129t-139 -60.5t-153.5 -15.5h-445zM299 176h193q68 0 121 7t91.5 31t59 70t20.5 124t-19.5 128t-51 77.5 t-74.5 38t-92 10.5h-248v-486zM299 838h213q31 0 62.5 5t57 27.5t41 68.5t15.5 126q0 68 -16.5 106.5t-45 58t-68.5 25t-85 5.5h-174v-422z" />
<glyph unicode="C" horiz-adv-x="1073" d="M61 717q0 170 46.5 308t127 235.5t193.5 149.5t246 52q96 0 188 -24.5t158 -59.5l-21 -180q-76 29 -152.5 58.5t-172.5 29.5q-98 0 -174 -44t-127 -121t-77 -181t-26 -223t26 -223.5t77 -181t126.5 -121t176.5 -44.5q94 0 171 29t152 57l21 -180q-68 -35 -159 -58.5 t-185 -23.5q-133 0 -246 52.5t-194.5 149.5t-128 235.5t-46.5 308.5z" />
<glyph unicode="D" horiz-adv-x="1267" d="M135 0v1434h459q133 0 244.5 -48.5t193.5 -140.5t127 -225t45 -303t-45 -303t-127 -225.5t-193.5 -140.5t-244.5 -48h-459zM328 176h266q98 0 174 39t126 110.5t75.5 171t25.5 220.5t-25.5 220t-75.5 171t-126 110.5t-174 38.5h-266v-1081z" />
<glyph unicode="E" horiz-adv-x="978" d="M135 0v1434h768v-177h-573v-419h450v-176h-450v-486h590v-176h-785z" />
<glyph unicode="F" horiz-adv-x="921" d="M135 0v1434h756v-177h-563v-419h434v-176h-434v-662h-193z" />
<glyph unicode="G" horiz-adv-x="1169" d="M61 719q0 170 46.5 307t127 234.5t194.5 149.5t249 52q45 0 96 -6t100.5 -17.5t93.5 -25.5t79 -33l-21 -170q-74 31 -166 53.5t-176 22.5q-106 0 -184 -44t-129.5 -121t-76 -181t-24.5 -223q0 -123 27 -227.5t81 -180.5t135 -119t192 -43q39 0 91 8.5t99 30.5v357h-170 v176h362v-639q-35 -23 -86 -42.5t-108 -34.5t-116.5 -23.5t-110.5 -8.5q-129 0 -240 52.5t-191.5 149.5t-127 235.5t-46.5 310.5z" />
<glyph unicode="H" horiz-adv-x="1302" d="M135 0v1434h193v-592h647v592h192v-1434h-192v657h-647v-657h-193z" />
<glyph unicode="I" horiz-adv-x="497" d="M152 0v1434h192v-1434h-192z" />
<glyph unicode="J" horiz-adv-x="495" d="M-2 -238h22q82 0 109 55.5t27 176.5v1440h192v-1500q0 -139 -72.5 -212.5t-216.5 -73.5h-43z" />
<glyph unicode="K" horiz-adv-x="1114" d="M170 0v1434h192v-1434h-192zM420 760l444 674h209l-444 -674l444 -760h-209z" />
<glyph unicode="L" horiz-adv-x="880" d="M135 0v1434h193v-1258h540v-176h-733z" />
<glyph unicode="M" horiz-adv-x="1454" d="M96 0l158 1434h160l325 -746l322 746h162l155 -1434h-200l-101 1049l-338 -744l-342 744l-100 -1049h-201z" />
<glyph unicode="N" horiz-adv-x="1234" d="M135 0v1434h199l573 -1074v1074h193v-1434h-160l-612 1133v-1133h-193z" />
<glyph unicode="O" d="M61 717q0 170 45.5 308t127 235.5t192.5 149.5t244 52q131 0 242.5 -52t192.5 -149.5t126 -235.5t45 -308t-45 -308.5t-126 -235.5t-192.5 -149.5t-242.5 -52.5q-133 0 -244 52.5t-192.5 149.5t-127 235.5t-45.5 308.5zM270 717q0 -119 26 -223.5t76 -181t124.5 -121 t173.5 -44.5q98 0 173 44.5t125 121t74.5 181t24.5 223.5t-24.5 223t-74.5 181t-125 121t-173 44t-173 -44t-125 -121t-76 -181t-26 -223z" />
<glyph unicode="P" horiz-adv-x="1034" d="M152 0v1434h374q104 0 190.5 -15.5t149 -63.5t97 -136.5t34.5 -231.5q0 -139 -38.5 -232t-98 -149.5t-130.5 -80t-134 -23.5h-248v-502h-196zM348 676h217q127 0 181.5 79t54.5 224q0 76 -13.5 130t-44 87t-82 48.5t-126.5 15.5h-187v-584z" />
<glyph unicode="Q" d="M61 717q0 170 45.5 308t127 235.5t192.5 149.5t244 52q131 0 242.5 -52t192.5 -149.5t126 -235.5t45 -308q0 -135 -29.5 -254t-91.5 -236l107 -100l-105 -121l-119 111q-82 -76 -174 -111t-194 -35q-133 0 -244 52.5t-192.5 149.5t-127 235.5t-45.5 308.5zM270 717 q0 -121 24.5 -224.5t75 -180t125 -121t175.5 -44.5q55 0 116.5 15.5t110.5 66.5l-168 172l107 125l172 -190q45 106 57 200.5t12 180.5q0 119 -26.5 223t-77.5 181t-127 121t-176 44t-175 -44t-125.5 -121t-75 -181t-24.5 -223z" />
<glyph unicode="R" horiz-adv-x="1107" d="M150 0v1434h421q92 0 170 -20.5t134.5 -69t88 -129t31.5 -201.5q0 -133 -59 -238.5t-158 -165.5l283 -610h-203l-266 559h-246v-559h-196zM346 748h223q51 0 94.5 13t72 44t45 82t16.5 127q0 125 -56.5 193.5t-191.5 68.5h-203v-528z" />
<glyph unicode="S" horiz-adv-x="1021" d="M68 1057q0 88 28.5 161.5t85 128t139 85t191.5 30.5q55 0 110.5 -7t107.5 -20.5t96 -32t75 -38.5l-24 -199q-104 66 -189.5 93.5t-152.5 27.5q-113 0 -189 -59.5t-76 -155.5q0 -49 21.5 -84t56.5 -62.5t82 -49t98 -41.5q109 -45 192 -86t138 -92.5t84 -120t29 -168.5 q0 -188 -110.5 -292t-366.5 -104q-129 0 -236.5 26t-171.5 66l25 228q66 -70 169 -107t205 -37q133 0 204 58.5t71 161.5q0 55 -20.5 93t-59.5 69.5t-96.5 59t-128.5 60.5q-92 41 -164 79t-121 82t-75.5 103.5t-26.5 143.5z" />
<glyph unicode="T" horiz-adv-x="974" d="M37 1257v177h901v-177h-354v-1257h-193v1257h-354z" />
<glyph unicode="U" horiz-adv-x="1263" d="M121 608v826h192v-732q0 -106 12.5 -205.5t46.5 -177t96 -125t163 -47.5q100 0 163.5 47.5t97.5 125t46 178t12 204.5v732h193v-826q0 -147 -31 -265t-94.5 -201t-159.5 -127t-227 -44q-129 0 -225.5 44t-160 127t-94 201t-30.5 265z" />
<glyph unicode="V" horiz-adv-x="1159" d="M12 1434h201l369 -1211l364 1211h199l-455 -1434h-217z" />
<glyph unicode="W" horiz-adv-x="1693" d="M18 1434h201l262 -1192l293 1163h156l299 -1161l258 1190h199l-361 -1434h-190l-285 1133l-289 -1133h-196z" />
<glyph unicode="X" horiz-adv-x="1120" d="M18 0l422 715l-413 719h221l305 -560l307 560h211l-426 -695l436 -739h-211l-331 586l-310 -586h-211z" />
<glyph unicode="Y" horiz-adv-x="1058" d="M-2 1434h203l315 -596l315 596h203l-420 -772v-662h-194v662z" />
<glyph unicode="Z" horiz-adv-x="983" d="M14 0l623 1257h-543v177h858l-622 -1258h544v-176h-860z" />
<glyph unicode="[" horiz-adv-x="589" d="M119 -276v1812h452v-139h-284v-1534h284v-139h-452z" />
<glyph unicode="\" horiz-adv-x="968" d="M72 1434h194l656 -1608h-195z" />
<glyph unicode="]" horiz-adv-x="589" d="M18 -137h285v1534h-285v139h453v-1812h-453v139z" />
<glyph unicode="^" horiz-adv-x="899" d="M86 895v217l363 442l362 -442v-217l-362 442z" />
<glyph unicode="_" horiz-adv-x="983" d="M-2 -74h987v-176h-987v176z" />
<glyph unicode="`" horiz-adv-x="534" d="M102 1352v147l330 -194v-84z" />
<glyph unicode="a" horiz-adv-x="888" d="M49 270q0 106 51.5 175t128 109t165.5 56.5t163 18.5q0 72 -11 117t-34 70.5t-55.5 34.5t-75.5 9q-53 0 -108.5 -17.5t-125.5 -72.5l-22 150q66 47 142.5 75.5t162.5 28.5q78 0 136.5 -24.5t97 -81t58 -148.5t19.5 -227v-205q0 -109 14.5 -160t73.5 -51h23l-23 -147h-41 q-98 0 -141 37.5t-69 109.5q-47 -66 -116 -106.5t-151 -40.5q-117 0 -189.5 81.5t-72.5 208.5zM240 281q0 -82 32.5 -118t94.5 -36q49 0 101 37t89 98v240q-150 -8 -233.5 -58.5t-83.5 -162.5z" />
<glyph unicode="b" horiz-adv-x="1007" d="M102 0v1536h185v-641q49 78 113.5 103.5t127.5 25.5q96 0 172 -43t128.5 -115.5t79 -167t26.5 -196.5q0 -111 -28.5 -206t-83 -166t-129.5 -110.5t-167 -39.5q-66 0 -131 36.5t-114 110.5l-11 -127h-168zM276 502q0 -188 68 -273.5t166 -85.5q55 0 99 29t75 77 t47.5 113.5t16.5 139.5q0 76 -16.5 142.5t-47.5 113.5t-75 74.5t-99 27.5q-98 0 -166 -88t-68 -270z" />
<glyph unicode="c" horiz-adv-x="788" d="M49 504q0 111 26.5 205t81 164.5t134.5 110.5t186 40q102 0 162.5 -17.5t101.5 -41.5l-20 -166q-53 29 -108.5 45t-116.5 16q-129 0 -193.5 -94t-64.5 -262q0 -166 64.5 -264.5t193.5 -98.5q61 0 116.5 16.5t108.5 45.5l20 -148q-41 -29 -99.5 -52t-164.5 -23t-186 41.5 t-134.5 114.5t-81 168t-26.5 200z" />
<glyph unicode="d" horiz-adv-x="1007" d="M63 502q0 102 28 196.5t80 167t129 115.5t173 43q61 0 125 -24.5t115 -102.5v639h182v-1536h-168l-10 127q-47 -74 -113.5 -110.5t-130.5 -36.5q-92 0 -168 39.5t-129 110.5t-83 166t-30 206zM252 502q0 -74 15.5 -139.5t46 -113.5t73.5 -77t98 -29q49 0 93.5 19.5 t77 62.5t52 109.5t19.5 161.5q0 182 -71 273t-171 91q-55 0 -98 -27.5t-73.5 -74.5t-46 -113.5t-15.5 -142.5z" />
<glyph unicode="e" horiz-adv-x="899" d="M55 510q0 104 29 198.5t82 164t132 110.5t179 41q82 0 151.5 -28.5t120 -82t79 -133.5t28.5 -180q0 -23 -2 -47.5t-8 -50.5h-602q8 -104 36.5 -173t68.5 -111t90 -58.5t104 -16.5q59 0 129.5 14.5t128.5 45.5l16 -146q-51 -27 -123.5 -52t-167.5 -25q-117 0 -205 41.5 t-147 114.5t-89 169t-30 205zM256 629h412q0 106 -44.5 168.5t-144.5 62.5q-98 0 -150.5 -60.5t-72.5 -170.5z" />
<glyph unicode="f" horiz-adv-x="598" d="M29 860l20 144h119v253q0 123 51 201t154 78q41 0 68.5 -2t48 -5t37 -8t34.5 -12l-22 -155q-29 10 -55.5 14t-45.5 4q-29 0 -45 -9t-25.5 -37t-12.5 -76t-3 -124v-122h215v-144h-215v-860h-184v860h-139z" />
<glyph unicode="g" horiz-adv-x="884" d="M43 -209q0 20 6 50t23.5 63t46 62.5t74.5 49.5q-47 31 -65.5 68t-18.5 59q0 27 20.5 71t75.5 79q-82 78 -113 164t-31 164q0 82 24 155.5t68 129t110.5 87t152.5 31.5q119 0 211 -74q35 25 86 41.5t114 16.5h33l-18 -123h-56q-10 0 -33.5 -3t-45.5 -12q39 -66 53 -125 t14 -114q0 -76 -23.5 -147.5t-67.5 -128t-109.5 -90.5t-151.5 -34q-59 0 -111 19q-14 -12 -23 -27.5t-9 -34.5q0 -39 56 -58t191 -48q49 -10 110.5 -27.5t116 -48.5t91.5 -80t37 -123q0 -61 -28 -117.5t-82 -100.5t-135 -70.5t-185 -26.5q-111 0 -189 28.5t-126 72.5 t-70.5 98.5t-22.5 103.5zM207 -205q0 -70 63.5 -117t180.5 -47q59 0 106 14.5t80 37t50.5 51t17.5 57.5q0 27 -16.5 52.5t-47.5 46t-74 32.5t-94 12q-6 0 -23.5 5.5t-39 11.5t-42 12t-30.5 8q-55 -23 -93 -73t-38 -103zM231 627q0 -119 50.5 -186.5t136.5 -67.5 q45 0 79.5 20.5t58.5 55t36 82t12 102.5q0 119 -51 181.5t-137 62.5q-92 0 -138.5 -70t-46.5 -180z" />
<glyph unicode="h" horiz-adv-x="972" d="M117 0v1536h184v-641q84 129 223 129q96 0 164 -36t110 -100.5t61.5 -153.5t19.5 -197v-537h-185v537q0 178 -43 250.5t-149 72.5q-135 0 -201 -131v-729h-184z" />
<glyph unicode="i" horiz-adv-x="421" d="M119 0v1004h184v-1004h-184zM119 1229v205h184v-205h-184z" />
<glyph unicode="j" horiz-adv-x="421" d="M0 -354q37 4 60.5 14t37 31.5t17.5 59.5t4 99v1154h184v-1223q0 -72 -18.5 -120t-49 -79t-70.5 -46t-83 -21l-64 -11zM119 1229v205h184v-205h-184z" />
<glyph unicode="k" horiz-adv-x="856" d="M123 0v1536h184v-985l301 453h215l-342 -463l348 -541h-217l-305 510v-510h-184z" />
<glyph unicode="l" horiz-adv-x="466" d="M113 221v1315h184v-1208q0 -66 4 -105t18.5 -60.5t38 -28.5t64.5 -7l-23 -147h-61q-61 0 -104.5 20t-70 54t-38.5 78t-12 89z" />
<glyph unicode="m" horiz-adv-x="1525" d="M102 0v1004h148l14 -107q59 78 117.5 102.5t128.5 24.5q37 0 76 -8t75.5 -29.5t70.5 -60.5t61 -103q35 94 109.5 147.5t195.5 53.5q170 0 255 -104.5t85 -327.5v-592h-185v590q0 141 -42 205.5t-144 64.5q-68 0 -107.5 -27.5t-61 -69.5t-29 -90t-7.5 -91v-582h-184v553 q0 92 -12.5 151.5t-37 94.5t-60.5 48t-81 13q-66 0 -118 -31.5t-82 -99.5v-729h-185z" />
<glyph unicode="n" horiz-adv-x="972" d="M102 0v1004h158l10 -107q59 78 123 102.5t125 24.5q98 0 167 -33t113 -94t63.5 -148t19.5 -196v-553h-185v553q0 160 -47 233.5t-157 73.5q-66 0 -120.5 -31.5t-84.5 -99.5v-729h-185z" />
<glyph unicode="o" horiz-adv-x="968" d="M49 502q0 109 30 204t85 165.5t136 111.5t185 41q102 0 183.5 -41t136.5 -111.5t85 -166t30 -203.5q0 -109 -30 -204t-85 -166t-136.5 -111.5t-183.5 -40.5q-104 0 -185 40.5t-136 111.5t-85 166t-30 204zM238 502q0 -170 63.5 -264.5t183.5 -94.5q119 0 182.5 94.5 t63.5 264.5t-63.5 264t-182.5 94q-121 0 -184 -94t-63 -264z" />
<glyph unicode="p" horiz-adv-x="1005" d="M115 -496v1500h151l17 -144q53 78 110.5 121t149.5 43q96 0 172 -43t127 -115.5t77.5 -167t26.5 -196.5q0 -111 -25.5 -206t-76.5 -166t-126 -110.5t-175 -39.5q-63 0 -130 36.5t-114 110.5v-623h-184zM289 502q0 -188 68.5 -273.5t168.5 -85.5q55 0 98.5 29t74 77 t46 113.5t15.5 139.5q0 76 -15.5 142.5t-46 113.5t-74 74.5t-98.5 27.5q-100 0 -168.5 -88t-68.5 -270z" />
<glyph unicode="q" horiz-adv-x="1005" d="M115 502q0 102 26.5 196.5t77.5 167t127 115.5t172 43q92 0 150.5 -43t109.5 -121l19 144h149v-1500h-182v623q-47 -74 -115 -110.5t-129 -36.5q-100 0 -176 39.5t-127 110.5t-76.5 166t-25.5 206zM303 502q0 -74 15.5 -139.5t46 -113.5t73.5 -77t99 -29q98 0 166.5 85 t68.5 274q0 182 -68.5 270t-166.5 88q-55 0 -98.5 -27.5t-74 -74.5t-46 -113.5t-15.5 -142.5z" />
<glyph unicode="r" horiz-adv-x="608" d="M117 0v1004h162l12 -166q118 202 267 202h1h33l-39 -202h-66q-27 0 -54 -11.5t-52 -30t-44.5 -41t-29.5 -46.5v-709h-190z" />
<glyph unicode="s" horiz-adv-x="737" d="M68 68l18 178q16 -14 45 -32.5t63.5 -34t76.5 -26t85 -10.5q84 0 121 33t37 92q0 39 -15.5 66.5t-40 47t-54 32t-58.5 20.5q-45 14 -92 32.5t-85 50.5t-62.5 81t-24.5 125q0 57 16.5 111.5t54 96.5t100 67.5t153.5 25.5q86 0 149 -21.5t102 -44.5l-20 -167 q-35 37 -93.5 62.5t-129.5 25.5q-68 0 -113 -32t-45 -104q0 -35 13.5 -59.5t39 -41.5t63.5 -31.5t85 -30.5q37 -12 79 -32t78.5 -53.5t61 -86t24.5 -129.5q0 -49 -13 -102.5t-50 -97.5t-102.5 -71.5t-169.5 -27.5q-111 0 -187 31.5t-110 56.5z" />
<glyph unicode="t" horiz-adv-x="610" d="M35 860l16 144h123v247l182 19v-266h213v-144h-213v-528q0 -72 4.5 -113t20.5 -61.5t48 -25.5t89 -5h49l-16 -147h-148q-61 0 -105 20t-71.5 54t-40 77t-12.5 88v641h-139z" />
<glyph unicode="u" horiz-adv-x="972" d="M94 420v584h185v-533q0 -160 44 -244t144 -84q59 0 106.5 28t79.5 87v746h183v-1004h-166l-13 111q-80 -131 -221 -131q-176 0 -259 106.5t-83 333.5z" />
<glyph unicode="v" horiz-adv-x="866" d="M12 1004h193l231 -801l230 801h192l-332 -1004h-180z" />
<glyph unicode="w" horiz-adv-x="1282" d="M23 1004h198l160 -801l174 770h172l176 -770l162 801h197l-258 -1004h-181l-180 741l-182 -741h-180z" />
<glyph unicode="x" horiz-adv-x="847" d="M27 0l292 500l-288 504h213l192 -398l178 398h217l-284 -488l291 -516h-213l-195 395l-190 -395h-213z" />
<glyph unicode="y" horiz-adv-x="946" d="M25 1004h204l250 -746l238 746h205l-539 -1500h-195l199 541z" />
<glyph unicode="z" horiz-adv-x="831" d="M37 0l430 860h-412v144h733l-430 -861h418v-143h-739z" />
<glyph unicode="{" horiz-adv-x="559" d="M39 629q72 53 103.5 122.5t31.5 182.5q0 72 -7 152.5t-7 142.5q0 70 18.5 125t63.5 94t116.5 61.5t180.5 26.5v-141q-84 -4 -131.5 -21.5t-70 -57.5t-26.5 -106.5t-4 -165.5q0 -41 2 -87t2 -89q0 -33 -4 -62.5t-16 -58t-37 -57t-66 -61.5q41 -31 66 -58.5t37 -53 t16 -52.5t4 -57q0 -45 -2 -92.5t-2 -100.5q0 -98 4 -164.5t26.5 -106.5t70 -58.5t131.5 -20.5v-141q-209 8 -294 85t-85 220q0 61 7 142t7 155q0 104 -28.5 176.5t-106.5 126.5z" />
<glyph unicode="|" horiz-adv-x="389" d="M113 -428v1964h163v-1964h-163z" />
<glyph unicode="}" horiz-adv-x="559" d="M39 -135q84 2 131 20.5t69.5 58.5t27.5 106.5t5 164.5q0 53 -3 100t-3 93q0 31 4 57.5t16.5 52t37 53t65.5 58.5q-41 33 -65.5 61.5t-37 57t-16.5 58.5t-4 62q0 43 3 89.5t3 86.5q0 98 -5 165t-27.5 107t-69.5 57.5t-131 21.5v141q109 -4 181.5 -26.5t116.5 -61.5 t62.5 -94.5t18.5 -124.5q0 -61 -6 -142t-6 -153q0 -113 30.5 -182.5t102.5 -122.5q-78 -53 -105.5 -126t-27.5 -177q0 -74 6 -155t6 -142q0 -143 -85 -220t-294 -85v141z" />
<glyph unicode="~" horiz-adv-x="811" d="M150 389q8 51 29.5 86t49 56.5t58 31.5t59.5 10q33 0 64.5 -15t60.5 -34.5t55.5 -35t51.5 -15.5q41 0 68.5 27.5t43.5 77.5l90 -19q-16 -90 -67 -141t-129 -51q-29 0 -59.5 16t-60.5 35.5t-57.5 36t-50.5 16.5q-47 0 -72.5 -26.5t-35.5 -73.5z" />
<glyph unicode="&#xa1;" horiz-adv-x="444" d="M113 -512h219l-47 1126h-127zM133 848h178v176h-178v-176z" />
<glyph unicode="&#xa2;" horiz-adv-x="833" d="M59 709q0 100 23.5 191t70 162t115 118t156.5 61l-31 291h172l-28 -287q78 -6 126 -21.5t87 -43.5l-15 -160q-53 33 -108.5 50t-110.5 17q-66 0 -116 -29.5t-82.5 -80.5t-49 -120t-16.5 -146q0 -168 68.5 -270.5t197.5 -102.5q109 0 217 65l15 -159q-33 -23 -77 -41.5 t-124 -24.5l16 -241h-172l31 245q-84 12 -150.5 55.5t-114.5 111t-74 158.5t-26 202z" />
<glyph unicode="&#xa3;" horiz-adv-x="921" d="M70 0q47 72 80.5 141.5t56 144t36 159.5t21.5 188h-162l31 176h141v235q0 82 12.5 157t46.5 133.5t95 93t160 34.5q115 0 188.5 -50t95.5 -126l-122 -121q-45 115 -144 115q-51 0 -79.5 -16.5t-43 -51t-17.5 -87t-3 -126.5v-190h332l-33 -176h-309q-4 -78 -8.5 -133.5 t-12.5 -105.5t-22.5 -100t-34.5 -118h440v-176h-745z" />
<glyph unicode="&#xa4;" horiz-adv-x="1071" d="M88 109l131 208q-66 92 -97.5 189.5t-31.5 206.5t32 206t99 189l-133 209l74 49l133 -211q59 41 116.5 59.5t123.5 18.5t123 -18.5t116 -61.5l137 213l72 -49l-133 -211q68 -92 98.5 -189.5t30.5 -203.5q0 -109 -32 -207t-99 -191l135 -206l-74 -50l-135 211 q-59 -43 -116.5 -60t-122.5 -17q-66 0 -122.5 17t-115.5 60l-135 -211zM276 713q0 -82 16.5 -154t49.5 -125t81 -84t112 -31q63 0 111 31t81 84t50.5 125t17.5 154t-17.5 153.5t-50.5 124.5t-81 84t-111 31t-111.5 -31t-81.5 -84t-49.5 -124.5t-16.5 -153.5z" />
<glyph unicode="&#xa5;" horiz-adv-x="1251" d="M70 1434h192l363 -629l362 629h195l-447 -787h293l-43 -110h-264v-127h307l-43 -111h-264v-299h-193v299h-303l39 111h264v127h-303l39 110h250z" />
<glyph unicode="&#xa6;" horiz-adv-x="393" d="M119 334h155v-764h-155v764zM119 631v905h155v-905h-155z" />
<glyph unicode="&#xa7;" horiz-adv-x="804" d="M66 676q0 39 6 84t24.5 87t53 76.5t90.5 57.5q-59 66 -78 119t-19 102q0 63 14.5 123.5t48.5 107t91 75t141 28.5q39 0 78 -7t73 -19.5t61.5 -27t43.5 -28.5l-20 -129q-49 35 -110.5 61.5t-117.5 26.5q-35 0 -65.5 -14.5t-53 -38t-34.5 -55t-12 -68.5q0 -63 33.5 -101 t85 -65t110.5 -52.5t110.5 -66.5t85 -105.5t33.5 -168.5q0 -35 -7 -75t-25.5 -80t-52.5 -75.5t-85 -62.5q31 -35 48.5 -64.5t27.5 -57t13.5 -57.5t3.5 -65q0 -53 -14.5 -109.5t-49.5 -101.5t-92 -73.5t-144 -28.5q-76 0 -147.5 22.5t-103.5 57.5l20 129q49 -35 109.5 -59.5 t119.5 -24.5q72 0 122 41t50 129q0 74 -34.5 112.5t-86 64.5t-112.5 46.5t-112.5 58t-86 100t-34.5 171.5zM205 700q0 -49 22.5 -88t59.5 -69.5t84 -53t96 -40.5q51 20 89 79.5t38 135.5q0 59 -25.5 100t-63.5 68.5t-80 42t-73 22.5q-16 0 -40.5 -9t-48 -31.5t-41 -60.5 t-17.5 -96z" />
<glyph unicode="&#xa8;" horiz-adv-x="743" d="M154 1229v205h143v-205h-143zM446 1229v205h144v-205h-144z" />
<glyph unicode="&#xa9;" horiz-adv-x="1232" d="M70 748q0 154 41 277.5t113.5 210.5t173 135t218.5 48q119 0 219.5 -48t173 -135t113.5 -211t41 -277q0 -152 -41 -276t-113.5 -212t-173 -136t-219.5 -48t-219 48t-172.5 136t-113.5 212t-41 276zM180 748q0 -123 26.5 -229.5t81 -184.5t136.5 -123t192 -45 q111 0 193 45t136 123t81 184.5t27 229.5t-27 228t-81 184t-136 123t-193 44t-192.5 -44t-136 -123t-81 -184.5t-26.5 -227.5zM350 743q0 158 79 250t204 92q43 0 88 -11t80 -27l-17 -123q-37 16 -73.5 27.5t-77.5 11.5q-74 0 -111 -61.5t-37 -158.5q0 -92 37 -155.5 t111 -63.5q41 0 78 11.5t73 29.5l17 -121q-35 -20 -80 -30.5t-88 -10.5q-61 0 -113.5 24t-89.5 69t-58.5 107.5t-21.5 139.5z" />
<glyph unicode="&#xaa;" horiz-adv-x="610" d="M53 1063q0 61 34 100t81 62.5t96 33t78 11.5q-4 43 -19.5 64.5t-64.5 21.5q-39 0 -72.5 -10.5t-76.5 -30.5l-11 123q109 47 203 47q84 0 140.5 -51.5t56.5 -169.5v-164q0 -33 2 -50.5t6 -25.5t11 -9t18 -1h22l-10 -125h-70q-31 0 -63.5 17.5t-46.5 45.5q-25 -31 -71 -47 t-93 -16q-59 0 -104.5 45t-45.5 129zM215 1069q0 -35 13.5 -50t52.5 -15q4 0 23.5 8t39.5 26v129q-10 0 -31.5 -6t-43 -18.5t-38 -30.5t-16.5 -43z" />
<glyph unicode="&#xab;" horiz-adv-x="1069" d="M18 582l263 422h211l-263 -422l263 -422h-211zM477 582l262 422h211l-262 -422l262 -422h-211z" />
<glyph unicode="&#xac;" horiz-adv-x="1001" d="M86 709v122h811v-522h-127v400h-684z" />
<glyph unicode="&#xad;" horiz-adv-x="784" d="M119 471v193h547v-193h-547z" />
<glyph unicode="&#xae;" horiz-adv-x="1232" d="M70 748q0 154 41 277.5t113.5 210.5t173 135t218.5 48q119 0 219.5 -48t173 -135t113.5 -211t41 -277q0 -152 -41 -276t-113.5 -212t-173 -136t-219.5 -48t-219 48t-172.5 136t-113.5 212t-41 276zM180 748q0 -123 26.5 -229.5t81 -185.5t136.5 -124t192 -45 q111 0 193 45t136 124t81 185.5t27 229.5t-27 229t-81 184t-136 123t-193 45t-192.5 -45t-136 -123t-81 -184.5t-26.5 -228.5zM406 430v657h215q45 0 81.5 -9t63.5 -32.5t41 -63.5t14 -99q0 -53 -25.5 -98.5t-64.5 -79.5l127 -275h-133l-113 240h-77v-240h-129zM535 784h57 q59 0 77.5 30t18.5 73q0 47 -18.5 73.5t-73.5 26.5h-61v-203z" />
<glyph unicode="&#xb0;" horiz-adv-x="573" d="M53 1266q0 57 15.5 108t46 90t73.5 60.5t99 21.5q55 0 98 -21.5t73.5 -60.5t46 -90t15.5 -108q0 -59 -15.5 -109.5t-46 -88.5t-73.5 -59.5t-98 -21.5t-98.5 21.5t-74 59.5t-46 88t-15.5 110zM147 1266q0 -43 9.5 -84t28 -72t44 -50.5t58.5 -19.5q35 0 60.5 19.5t43 51.5 t25.5 72t10 83q-2 41 -10 82t-25.5 72.5t-43 52t-60.5 20.5t-60.5 -19.5t-43 -52t-27 -72.5t-9.5 -83z" />
<glyph unicode="&#xb1;" horiz-adv-x="819" d="M84 86v137h651v-137h-651zM84 670v137h258v283h135v-283h258v-137h-258v-295h-135v295h-258z" />
<glyph unicode="&#xb2;" horiz-adv-x="645" d="M90 655q98 156 154.5 254.5t85 159.5t36 93t7.5 52q0 51 -21.5 80t-62.5 29q-35 0 -61.5 -14.5t-48 -34t-35 -40t-19.5 -32.5l-19 133q8 14 27 34t45.5 37t60 28.5t76.5 11.5q57 0 95.5 -19.5t61 -50t31.5 -67.5t9 -72q0 -76 -40 -177.5t-130 -260.5h193v-144h-445z" />
<glyph unicode="&#xb3;" horiz-adv-x="657" d="M90 700l37 136q4 -10 19.5 -20.5t37 -17.5t45 -11.5t43.5 -4.5q55 0 92 23.5t37 83.5q0 53 -20.5 92t-87.5 39h-100l10 113h53q70 0 93.5 29.5t23.5 68.5t-21.5 64.5t-77.5 25.5q-25 0 -59.5 -7t-56.5 -28l-23 109q18 16 63.5 33.5t96.5 17.5q70 0 114 -20.5t68.5 -52.5 t32.5 -67.5t8 -66.5q0 -53 -16.5 -92t-38.5 -62q33 -31 57.5 -76.5t24.5 -113.5q0 -63 -22.5 -111.5t-59.5 -80t-85 -48t-97 -16.5q-33 0 -65 7t-57.5 16.5t-44 19.5t-24.5 18z" />
<glyph unicode="&#xb4;" horiz-adv-x="534" d="M102 1221v84l330 194v-147z" />
<glyph unicode="&#xb5;" horiz-adv-x="1071" d="M131 -496v1500h182v-529q0 -158 42 -246t157 -88q63 0 105 28t83 91v744h181v-656q0 -104 15 -162.5t65 -58.5h34l-24 -147h-60q-139 0 -190 149q-45 -68 -99.5 -110t-127.5 -42q-49 0 -90.5 13.5t-90.5 64.5v-551h-182z" />
<glyph unicode="&#xb6;" horiz-adv-x="1101" d="M57 971q0 84 31 167t93.5 148.5t157.5 106.5t224 41h457v-138h-127v-1296h-115v1296h-147v-1296h-94v498q-123 8 -214.5 52t-149.5 110.5t-87 147.5t-29 163z" />
<glyph unicode="&#xb7;" horiz-adv-x="444" d="M113 436v266h219v-266h-219z" />
<glyph unicode="&#xb8;" horiz-adv-x="534" d="M242 -393l120 270l146 12l-164 -272z" />
<glyph unicode="&#xb9;" horiz-adv-x="481" d="M96 1309q14 2 32.5 14t37 28.5t33 37t18.5 41.5h115v-775h-148v566q-10 -10 -30.5 -20.5t-49.5 -14.5z" />
<glyph unicode="&#xba;" horiz-adv-x="653" d="M53 1188q0 59 18.5 113.5t53.5 95.5t86 64.5t117 23.5q63 0 114.5 -23.5t86 -64.5t53 -95.5t18.5 -113.5t-18.5 -113.5t-53 -95.5t-86 -65.5t-114.5 -24.5q-66 0 -117 24.5t-86 65.5t-53.5 95t-18.5 114zM209 1188q0 -78 30.5 -127t88.5 -49q55 0 85.5 49t30.5 127 t-30.5 127t-85.5 49q-57 0 -88 -49t-31 -127z" />
<glyph unicode="&#xbb;" horiz-adv-x="1069" d="M117 160l264 422l-264 422h211l264 -422l-264 -422h-211zM575 160l263 422l-263 422h211l263 -422l-263 -422h-211z" />
<glyph unicode="&#xbc;" horiz-adv-x="1499" d="M176 1309q14 2 32.5 14t37 28.5t33 37t18.5 41.5h115v-775h-148v566q-10 -10 -30.5 -20.5t-49.5 -14.5zM211 -174l655 1608h203l-657 -1608h-201zM782 213l330 564h125v-447h86v-117h-86v-211h-148v211h-307zM975 330h114v225z" />
<glyph unicode="&#xbd;" horiz-adv-x="1513" d="M176 1309q14 2 32.5 14t37 28.5t33 37t18.5 41.5h115v-775h-148v566q-10 -10 -30.5 -20.5t-49.5 -14.5zM211 -174l655 1608h203l-657 -1608h-201zM891 2q98 156 154.5 254.5t85 159.5t36 93t7.5 52q0 51 -21.5 80t-62.5 29q-35 0 -61.5 -14.5t-48 -34t-35 -40 t-19.5 -32.5l-19 133q8 14 27 34t45.5 37t60 28.5t76.5 11.5q57 0 95.5 -19.5t61 -50t31.5 -67.5t9 -72q0 -76 -40 -177.5t-130 -260.5h193v-144h-445z" />
<glyph unicode="&#xbe;" horiz-adv-x="1808" d="M176 700l37 136q4 -10 19.5 -20.5t37 -17.5t45 -11.5t43.5 -4.5q55 0 92 23.5t37 83.5q0 53 -20.5 92t-87.5 39h-100l10 113h53q70 0 93.5 29.5t23.5 68.5t-21.5 64.5t-77.5 25.5q-25 0 -59.5 -7t-56.5 -28l-23 109q18 16 63.5 33.5t96.5 17.5q70 0 114 -20.5t68.5 -52.5 t32.5 -67.5t8 -66.5q0 -53 -16.5 -92t-38.5 -62q33 -31 57.5 -76.5t24.5 -113.5q0 -63 -22.5 -111.5t-59.5 -80t-85 -48t-97 -16.5q-33 0 -65 7t-57.5 16.5t-44 19.5t-24.5 18zM520 -174l655 1608h203l-657 -1608h-201zM1091 213l330 564h125v-447h86v-117h-86v-211h-148 v211h-307zM1284 330h114v225z" />
<glyph unicode="&#xbf;" horiz-adv-x="780" d="M54 -129q0 98 45 187t100 174t100 166t45 161v55h121q6 -82 6 -92q0 -94 -37.5 -171t-84 -149.5t-85 -150.5t-38.5 -176q0 -66 17 -113t46 -77.5t65.5 -46t75.5 -15.5q41 0 77 14.5t65.5 36t50 46t33.5 42.5l47 -137q-37 -57 -113 -97t-168 -40t-160.5 36t-114.5 92 t-69.5 123.5t-23.5 131.5zM310 848v176h186v-176h-186z" />
<glyph unicode="&#xc0;" horiz-adv-x="1103" d="M14 0l441 1434h192l440 -1434h-200l-113 387h-446l-113 -387h-201zM387 1782v147l330 -194v-84zM391 563h320l-160 598z" />
<glyph unicode="&#xc1;" horiz-adv-x="1103" d="M14 0l441 1434h192l440 -1434h-200l-113 387h-446l-113 -387h-201zM387 1651v84l330 194v-147zM391 563h320l-160 598z" />
<glyph unicode="&#xc2;" horiz-adv-x="1103" d="M14 0l441 1434h192l440 -1434h-200l-113 387h-446l-113 -387h-201zM293 1665v74l258 217l260 -217v-74l-260 168zM391 563h320l-160 598z" />
<glyph unicode="&#xc3;" horiz-adv-x="1103" d="M14 0l441 1434h192l440 -1434h-200l-113 387h-446l-113 -387h-201zM236 1679q8 51 29.5 86t49 56.5t58 32t59.5 10.5q33 0 64.5 -15.5t60.5 -35t55.5 -35t51.5 -15.5q41 0 68.5 28t43.5 77l90 -19q-16 -90 -67 -141t-129 -51q-29 0 -59.5 16.5t-60.5 35.5t-57.5 35.5 t-50.5 16.5q-47 0 -72.5 -26.5t-35.5 -73.5zM391 563h320l-160 598z" />
<glyph unicode="&#xc4;" horiz-adv-x="1103" d="M14 0l441 1434h192l440 -1434h-200l-113 387h-446l-113 -387h-201zM334 1659v205h143v-205h-143zM391 563h320l-160 598zM626 1659v205h144v-205h-144z" />
<glyph unicode="&#xc5;" horiz-adv-x="1103" d="M14 0l441 1434h192l440 -1434h-200l-113 387h-446l-113 -387h-201zM369 1792q0 35 12 68.5t34.5 59.5t57.5 41t78 15q45 0 79 -15t57.5 -41t35.5 -59.5t12 -68.5q0 -72 -47 -127t-137 -55q-88 0 -135 55t-47 127zM391 563h320l-160 598zM459 1792q0 -57 27.5 -90 t64.5 -33q39 0 66.5 33t27.5 90q0 53 -27.5 87t-66.5 34t-65.5 -34t-26.5 -87z" />
<glyph unicode="&#xc6;" horiz-adv-x="1525" d="M-10 0l602 1434h858v-179h-537v-417h414v-176h-414v-486h553v-176h-768v369h-360l-156 -369h-192zM424 557h274v694z" />
<glyph unicode="&#xc7;" horiz-adv-x="1073" d="M61 717q0 170 46.5 308t127 235.5t193.5 149.5t246 52q96 0 188 -24.5t158 -59.5l-21 -180q-76 29 -152.5 58.5t-172.5 29.5q-98 0 -174 -44t-127 -121t-77 -181t-26 -223t26 -223.5t77 -181t126.5 -121t176.5 -44.5q94 0 171 29t152 57l21 -180q-68 -35 -159 -58.5 t-185 -23.5q-133 0 -246 52.5t-194.5 149.5t-128 235.5t-46.5 308.5zM404 -393l120 270l146 12l-164 -272z" />
<glyph unicode="&#xc8;" horiz-adv-x="962" d="M135 0v1434h768v-177h-573v-419h450v-176h-450v-486h590v-176h-785zM317 1782v147l330 -194v-84z" />
<glyph unicode="&#xc9;" horiz-adv-x="962" d="M135 0v1434h768v-177h-573v-419h450v-176h-450v-486h590v-176h-785zM317 1651v84l330 194v-147z" />
<glyph unicode="&#xca;" horiz-adv-x="962" d="M135 0v1434h768v-177h-573v-419h450v-176h-450v-486h590v-176h-785zM221 1665v74l258 217l260 -217v-74l-260 168z" />
<glyph unicode="&#xcb;" horiz-adv-x="962" d="M135 0v1434h768v-177h-573v-419h450v-176h-450v-486h590v-176h-785zM263 1659v205h143v-205h-143zM555 1659v205h144v-205h-144z" />
<glyph unicode="&#xcc;" horiz-adv-x="497" d="M86 1782v147l330 -194v-84zM152 0v1434h192v-1434h-192z" />
<glyph unicode="&#xcd;" horiz-adv-x="497" d="M86 1651v84l330 194v-147zM152 0v1434h192v-1434h-192z" />
<glyph unicode="&#xce;" horiz-adv-x="497" d="M-8 1665v74l258 217l260 -217v-74l-260 168zM152 0v1434h192v-1434h-192z" />
<glyph unicode="&#xcf;" horiz-adv-x="497" d="M33 1659v205h143v-205h-143zM152 0v1434h192v-1434h-192zM325 1659v205h144v-205h-144z" />
<glyph unicode="&#xd0;" horiz-adv-x="1288" d="M-6 641v131h168v662h454q131 0 243 -48.5t194 -140.5t127 -225t45 -303t-45 -303t-127 -225.5t-193.5 -140.5t-243.5 -48h-454v641h-168zM348 178h268q98 0 173 38t125.5 108.5t76 170t25.5 222.5t-25.5 222t-76 170t-125 109.5t-173.5 38.5h-268v-485h225v-131h-225 v-463z" />
<glyph unicode="&#xd1;" horiz-adv-x="1234" d="M135 0v1434h199l573 -1074v1074h193v-1434h-160l-612 1133v-1133h-193zM302 1679q8 51 29.5 86t49 56.5t58 32t59.5 10.5q33 0 64.5 -15.5t60.5 -35t55.5 -35t51.5 -15.5q41 0 68.5 28t43.5 77l90 -19q-16 -90 -67 -141t-129 -51q-29 0 -59.5 16.5t-60.5 35.5t-57.5 35.5 t-50.5 16.5q-47 0 -72.5 -26.5t-35.5 -73.5z" />
<glyph unicode="&#xd2;" d="M61 717q0 170 45.5 308t127 235.5t192.5 149.5t244 52q131 0 242.5 -52t192.5 -149.5t126 -235.5t45 -308t-45 -308.5t-126 -235.5t-192.5 -149.5t-242.5 -52.5q-133 0 -244 52.5t-192.5 149.5t-127 235.5t-45.5 308.5zM270 717q0 -119 26 -223.5t76 -181t124.5 -121 t173.5 -44.5q98 0 173 44.5t125 121t74.5 181t24.5 223.5t-24.5 223t-74.5 181t-125 121t-173 44t-173 -44t-125 -121t-76 -181t-26 -223zM503 1782v147l330 -194v-84z" />
<glyph unicode="&#xd3;" d="M61 717q0 170 45.5 308t127 235.5t192.5 149.5t244 52q131 0 242.5 -52t192.5 -149.5t126 -235.5t45 -308t-45 -308.5t-126 -235.5t-192.5 -149.5t-242.5 -52.5q-133 0 -244 52.5t-192.5 149.5t-127 235.5t-45.5 308.5zM270 717q0 -119 26 -223.5t76 -181t124.5 -121 t173.5 -44.5q98 0 173 44.5t125 121t74.5 181t24.5 223.5t-24.5 223t-74.5 181t-125 121t-173 44t-173 -44t-125 -121t-76 -181t-26 -223zM503 1651v84l330 194v-147z" />
<glyph unicode="&#xd4;" d="M61 717q0 170 45.5 308t127 235.5t192.5 149.5t244 52q131 0 242.5 -52t192.5 -149.5t126 -235.5t45 -308t-45 -308.5t-126 -235.5t-192.5 -149.5t-242.5 -52.5q-133 0 -244 52.5t-192.5 149.5t-127 235.5t-45.5 308.5zM270 717q0 -119 26 -223.5t76 -181t124.5 -121 t173.5 -44.5q98 0 173 44.5t125 121t74.5 181t24.5 223.5t-24.5 223t-74.5 181t-125 121t-173 44t-173 -44t-125 -121t-76 -181t-26 -223zM409 1665v74l258 217l260 -217v-74l-260 168z" />
<glyph unicode="&#xd5;" d="M61 717q0 170 45.5 308t127 235.5t192.5 149.5t244 52q131 0 242.5 -52t192.5 -149.5t126 -235.5t45 -308t-45 -308.5t-126 -235.5t-192.5 -149.5t-242.5 -52.5q-133 0 -244 52.5t-192.5 149.5t-127 235.5t-45.5 308.5zM270 717q0 -119 26 -223.5t76 -181t124.5 -121 t173.5 -44.5q98 0 173 44.5t125 121t74.5 181t24.5 223.5t-24.5 223t-74.5 181t-125 121t-173 44t-173 -44t-125 -121t-76 -181t-26 -223zM355 1679q8 51 29.5 86t49 56.5t58 32t59.5 10.5q33 0 64.5 -15.5t60.5 -35t55.5 -35t51.5 -15.5q41 0 68.5 28t43.5 77l90 -19 q-16 -90 -67 -141t-129 -51q-29 0 -59.5 16.5t-60.5 35.5t-57.5 35.5t-50.5 16.5q-47 0 -72.5 -26.5t-35.5 -73.5z" />
<glyph unicode="&#xd6;" d="M61 717q0 170 45.5 308t127 235.5t192.5 149.5t244 52q131 0 242.5 -52t192.5 -149.5t126 -235.5t45 -308t-45 -308.5t-126 -235.5t-192.5 -149.5t-242.5 -52.5q-133 0 -244 52.5t-192.5 149.5t-127 235.5t-45.5 308.5zM270 717q0 -119 26 -223.5t76 -181t124.5 -121 t173.5 -44.5q98 0 173 44.5t125 121t74.5 181t24.5 223.5t-24.5 223t-74.5 181t-125 121t-173 44t-173 -44t-125 -121t-76 -181t-26 -223zM451 1659v205h143v-205h-143zM743 1659v205h144v-205h-144z" />
<glyph unicode="&#xd7;" horiz-adv-x="755" d="M92 317l205 250l-205 250l82 74l203 -252l207 252l80 -74l-205 -250l205 -250l-80 -73l-207 252l-203 -252z" />
<glyph unicode="&#xd8;" d="M61 717q0 170 45.5 308t127 235.5t192.5 149.5t244 52q76 0 147.5 -19.5t143.5 -66.5l49 90h194l-114 -182q92 -113 139 -254t47 -315q0 -170 -45 -306.5t-126 -232.5t-192.5 -148.5t-244.5 -52.5q-78 0 -152 20.5t-147 67.5l-70 -124h-193l134 215q-86 117 -132.5 255 t-46.5 308zM274 715q0 -94 17.5 -186.5t64.5 -209.5l496 904q-51 33 -94 45t-90 12q-98 0 -172 -43t-123 -120t-74 -180t-25 -222zM477 215q53 -35 98.5 -47t94.5 -12q98 0 171.5 43t123 119.5t74 179t24.5 223.5q0 98 -19.5 206.5t-66.5 194.5z" />
<glyph unicode="&#xd9;" horiz-adv-x="1263" d="M121 608v826h192v-732q0 -106 12.5 -205.5t46.5 -177t96 -125t163 -47.5q100 0 163.5 47.5t97.5 125t46 178t12 204.5v732h193v-826q0 -147 -31 -265t-94.5 -201t-159.5 -127t-227 -44q-129 0 -225.5 44t-160 127t-94 201t-30.5 265zM467 1782v147l330 -194v-84z" />
<glyph unicode="&#xda;" horiz-adv-x="1263" d="M121 608v826h192v-732q0 -106 12.5 -205.5t46.5 -177t96 -125t163 -47.5q100 0 163.5 47.5t97.5 125t46 178t12 204.5v732h193v-826q0 -147 -31 -265t-94.5 -201t-159.5 -127t-227 -44q-129 0 -225.5 44t-160 127t-94 201t-30.5 265zM467 1651v84l330 194v-147z" />
<glyph unicode="&#xdb;" horiz-adv-x="1263" d="M121 608v826h192v-732q0 -106 12.5 -205.5t46.5 -177t96 -125t163 -47.5q100 0 163.5 47.5t97.5 125t46 178t12 204.5v732h193v-826q0 -147 -31 -265t-94.5 -201t-159.5 -127t-227 -44q-129 0 -225.5 44t-160 127t-94 201t-30.5 265zM373 1665v74l258 217l260 -217v-74 l-260 168z" />
<glyph unicode="&#xdc;" horiz-adv-x="1263" d="M121 608v826h192v-732q0 -106 12.5 -205.5t46.5 -177t96 -125t163 -47.5q100 0 163.5 47.5t97.5 125t46 178t12 204.5v732h193v-826q0 -147 -31 -265t-94.5 -201t-159.5 -127t-227 -44q-129 0 -225.5 44t-160 127t-94 201t-30.5 265zM414 1659v205h143v-205h-143z M706 1659v205h144v-205h-144z" />
<glyph unicode="&#xdd;" horiz-adv-x="1058" d="M-2 1434h203l315 -596l315 596h203l-420 -772v-662h-194v662zM364 1651v84l330 194v-147z" />
<glyph unicode="&#xde;" horiz-adv-x="1034" d="M152 0v1434h196v-246h178q104 0 190.5 -15.5t149 -63.5t97 -136t34.5 -232q0 -139 -38.5 -232t-98 -149.5t-130.5 -80t-134 -23.5h-248v-256h-196zM348 430h217q127 0 181.5 79t54.5 224q0 76 -13.5 130.5t-44 87t-82 48t-126.5 15.5h-187v-584z" />
<glyph unicode="&#xdf;" horiz-adv-x="999" d="M23 860l20 144h119v178q0 86 28.5 151.5t75.5 110.5t110.5 68.5t135.5 23.5q63 0 123.5 -18.5t108 -58.5t77 -103.5t29.5 -155.5t-24.5 -162.5t-53.5 -122t-53.5 -86t-24.5 -55.5q0 -25 41 -64.5t91.5 -98t91 -136.5t40.5 -182q0 -86 -32.5 -145.5t-87 -96.5t-125 -54 t-146.5 -17q-29 0 -50 2t-44 4v157q72 0 127 3.5t94 16.5t58.5 43t19.5 85q0 57 -20.5 105t-51 90t-67.5 78t-67.5 70t-51 64.5t-20.5 61.5q0 37 27.5 80t60 95t60.5 116.5t28 144.5q0 53 -13.5 87t-35 54.5t-51 27.5t-60.5 7q-84 0 -124 -52t-40 -198v-1401h-184v1139h-139 z" />
<glyph unicode="&#xe0;" horiz-adv-x="878" d="M49 270q0 106 51.5 175t128 109t165.5 56.5t163 18.5q0 72 -11 117t-34 70.5t-55.5 34.5t-75.5 9q-53 0 -108.5 -17.5t-125.5 -72.5l-22 150q66 47 142.5 75.5t162.5 28.5q78 0 136.5 -24.5t97 -81t58 -148.5t19.5 -227v-205q0 -109 14.5 -160t73.5 -51h23l-23 -147h-41 q-98 0 -141 37.5t-69 109.5q-47 -66 -116 -106.5t-151 -40.5q-117 0 -189.5 81.5t-72.5 208.5zM240 281q0 -82 32.5 -118t94.5 -36q49 0 101 37t89 98v240q-150 -8 -233.5 -58.5t-83.5 -162.5zM272 1352v147l330 -194v-84z" />
<glyph unicode="&#xe1;" horiz-adv-x="878" d="M49 270q0 106 51.5 175t128 109t165.5 56.5t163 18.5q0 72 -11 117t-34 70.5t-55.5 34.5t-75.5 9q-53 0 -108.5 -17.5t-125.5 -72.5l-22 150q66 47 142.5 75.5t162.5 28.5q78 0 136.5 -24.5t97 -81t58 -148.5t19.5 -227v-205q0 -109 14.5 -160t73.5 -51h23l-23 -147h-41 q-98 0 -141 37.5t-69 109.5q-47 -66 -116 -106.5t-151 -40.5q-117 0 -189.5 81.5t-72.5 208.5zM240 281q0 -82 32.5 -118t94.5 -36q49 0 101 37t89 98v240q-150 -8 -233.5 -58.5t-83.5 -162.5zM272 1221v84l330 194v-147z" />
<glyph unicode="&#xe2;" horiz-adv-x="878" d="M49 270q0 106 51.5 175t128 109t165.5 56.5t163 18.5q0 72 -11 117t-34 70.5t-55.5 34.5t-75.5 9q-53 0 -108.5 -17.5t-125.5 -72.5l-22 150q66 47 142.5 75.5t162.5 28.5q78 0 136.5 -24.5t97 -81t58 -148.5t19.5 -227v-205q0 -109 14.5 -160t73.5 -51h23l-23 -147h-41 q-98 0 -141 37.5t-69 109.5q-47 -66 -116 -106.5t-151 -40.5q-117 0 -189.5 81.5t-72.5 208.5zM180 1235v74l258 217l260 -217v-74l-260 168zM240 281q0 -82 32.5 -118t94.5 -36q49 0 101 37t89 98v240q-150 -8 -233.5 -58.5t-83.5 -162.5z" />
<glyph unicode="&#xe3;" horiz-adv-x="878" d="M49 270q0 106 51.5 175t128 109t165.5 56.5t163 18.5q0 72 -11 117t-34 70.5t-55.5 34.5t-75.5 9q-53 0 -108.5 -17.5t-125.5 -72.5l-22 150q66 47 142.5 75.5t162.5 28.5q78 0 136.5 -24.5t97 -81t58 -148.5t19.5 -227v-205q0 -109 14.5 -160t73.5 -51h23l-23 -147h-41 q-98 0 -141 37.5t-69 109.5q-47 -66 -116 -106.5t-151 -40.5q-117 0 -189.5 81.5t-72.5 208.5zM119 1249q8 51 29.5 86t49 56.5t58 32t59.5 10.5q33 0 64.5 -15.5t60.5 -35t55.5 -35t51.5 -15.5q41 0 68.5 28t43.5 77l90 -19q-16 -90 -67 -141t-129 -51q-29 0 -59.5 16.5 t-60.5 35.5t-57.5 35.5t-50.5 16.5q-47 0 -72.5 -26.5t-35.5 -73.5zM240 281q0 -82 32.5 -118t94.5 -36q49 0 101 37t89 98v240q-150 -8 -233.5 -58.5t-83.5 -162.5z" />
<glyph unicode="&#xe4;" horiz-adv-x="878" d="M49 270q0 106 51.5 175t128 109t165.5 56.5t163 18.5q0 72 -11 117t-34 70.5t-55.5 34.5t-75.5 9q-53 0 -108.5 -17.5t-125.5 -72.5l-22 150q66 47 142.5 75.5t162.5 28.5q78 0 136.5 -24.5t97 -81t58 -148.5t19.5 -227v-205q0 -109 14.5 -160t73.5 -51h23l-23 -147h-41 q-98 0 -141 37.5t-69 109.5q-47 -66 -116 -106.5t-151 -40.5q-117 0 -189.5 81.5t-72.5 208.5zM222 1229v205h143v-205h-143zM240 281q0 -82 32.5 -118t94.5 -36q49 0 101 37t89 98v240q-150 -8 -233.5 -58.5t-83.5 -162.5zM514 1229v205h144v-205h-144z" />
<glyph unicode="&#xe5;" horiz-adv-x="878" d="M49 270q0 106 51.5 175t128 109t165.5 56.5t163 18.5q0 72 -11 117t-34 70.5t-55.5 34.5t-75.5 9q-53 0 -108.5 -17.5t-125.5 -72.5l-22 150q66 47 142.5 75.5t162.5 28.5q78 0 136.5 -24.5t97 -81t58 -148.5t19.5 -227v-205q0 -109 14.5 -160t73.5 -51h23l-23 -147h-41 q-98 0 -141 37.5t-69 109.5q-47 -66 -116 -106.5t-151 -40.5q-117 0 -189.5 81.5t-72.5 208.5zM240 281q0 -82 32.5 -118t94.5 -36q49 0 101 37t89 98v240q-150 -8 -233.5 -58.5t-83.5 -162.5zM256 1362q0 35 12 68.5t34.5 59.5t57.5 41t78 15q45 0 79 -15t57.5 -41 t35.5 -59.5t12 -68.5q0 -72 -47 -127t-137 -55q-88 0 -135 55t-47 127zM346 1362q0 -57 27.5 -90t64.5 -33q39 0 66.5 33t27.5 90q0 53 -27.5 87t-66.5 34t-65.5 -34t-26.5 -87z" />
<glyph unicode="&#xe6;" horiz-adv-x="1398" d="M35 242q0 117 53 190.5t131 115.5t168 59.5t164 21.5q-10 123 -51 177t-138 54q-57 0 -109 -15.5t-116 -43.5l-16 143q154 80 293 80q39 0 81 -9t80.5 -36t68.5 -75t44 -126q14 68 47 115t76 76.5t93 42t104 12.5q154 0 248 -105.5t94 -304.5q0 -33 -3.5 -60.5 t-7.5 -51.5h-577q8 -190 86 -282.5t188 -92.5q61 0 123 20.5t127 55.5l23 -142q-59 -35 -129 -58t-162 -23q-129 0 -217 53t-135 178q-51 -121 -142.5 -180.5t-214.5 -59.5q-135 0 -204.5 74t-69.5 197zM225 258q0 -72 36 -101.5t87 -29.5q37 0 76 14.5t70.5 47t52 86 t20.5 131.5v43.5t-2 52.5q-55 0 -114.5 -12.5t-109.5 -41t-83 -75.5t-33 -115zM772 629h408q0 123 -44.5 177t-136.5 54q-86 0 -145 -54t-82 -177z" />
<glyph unicode="&#xe7;" horiz-adv-x="788" d="M49 504q0 111 26.5 205t81 164.5t134.5 110.5t186 40q102 0 162.5 -17.5t101.5 -41.5l-20 -166q-53 29 -108.5 45t-116.5 16q-129 0 -193.5 -94t-64.5 -262q0 -166 64.5 -264.5t193.5 -98.5q61 0 116.5 16.5t108.5 45.5l20 -148q-41 -29 -99.5 -52t-164.5 -23t-186 41.5 t-134.5 114.5t-81 168t-26.5 200zM314 -393l120 270l146 12l-164 -272z" />
<glyph unicode="&#xe8;" horiz-adv-x="907" d="M55 510q0 104 29 198.5t82 164t132 110.5t179 41q82 0 151.5 -28.5t120 -82t79 -133.5t28.5 -180q0 -23 -2 -47.5t-8 -50.5h-602q8 -104 36.5 -173t68.5 -111t90 -58.5t104 -16.5q59 0 129.5 14.5t128.5 45.5l16 -146q-51 -27 -123.5 -52t-167.5 -25q-117 0 -205 41.5 t-147 114.5t-89 169t-30 205zM256 629h412q0 106 -44.5 168.5t-144.5 62.5q-98 0 -150.5 -60.5t-72.5 -170.5zM288 1352v147l330 -194v-84z" />
<glyph unicode="&#xe9;" horiz-adv-x="907" d="M55 510q0 104 29 198.5t82 164t132 110.5t179 41q82 0 151.5 -28.5t120 -82t79 -133.5t28.5 -180q0 -23 -2 -47.5t-8 -50.5h-602q8 -104 36.5 -173t68.5 -111t90 -58.5t104 -16.5q59 0 129.5 14.5t128.5 45.5l16 -146q-51 -27 -123.5 -52t-167.5 -25q-117 0 -205 41.5 t-147 114.5t-89 169t-30 205zM256 629h412q0 106 -44.5 168.5t-144.5 62.5q-98 0 -150.5 -60.5t-72.5 -170.5zM288 1221v84l330 194v-147z" />
<glyph unicode="&#xea;" horiz-adv-x="907" d="M55 510q0 104 29 198.5t82 164t132 110.5t179 41q82 0 151.5 -28.5t120 -82t79 -133.5t28.5 -180q0 -23 -2 -47.5t-8 -50.5h-602q8 -104 36.5 -173t68.5 -111t90 -58.5t104 -16.5q59 0 129.5 14.5t128.5 45.5l16 -146q-51 -27 -123.5 -52t-167.5 -25q-117 0 -205 41.5 t-147 114.5t-89 169t-30 205zM194 1235v74l258 217l260 -217v-74l-260 168zM256 629h412q0 106 -44.5 168.5t-144.5 62.5q-98 0 -150.5 -60.5t-72.5 -170.5z" />
<glyph unicode="&#xeb;" horiz-adv-x="907" d="M55 510q0 104 29 198.5t82 164t132 110.5t179 41q82 0 151.5 -28.5t120 -82t79 -133.5t28.5 -180q0 -23 -2 -47.5t-8 -50.5h-602q8 -104 36.5 -173t68.5 -111t90 -58.5t104 -16.5q59 0 129.5 14.5t128.5 45.5l16 -146q-51 -27 -123.5 -52t-167.5 -25q-117 0 -205 41.5 t-147 114.5t-89 169t-30 205zM234 1229v205h143v-205h-143zM256 629h412q0 106 -44.5 168.5t-144.5 62.5q-98 0 -150.5 -60.5t-72.5 -170.5zM526 1229v205h144v-205h-144z" />
<glyph unicode="&#xec;" horiz-adv-x="421" d="M49 1352v147l330 -194v-84zM119 0v1004h184v-1004h-184z" />
<glyph unicode="&#xed;" horiz-adv-x="421" d="M49 1221v84l330 194v-147zM119 0v1004h184v-1004h-184z" />
<glyph unicode="&#xee;" horiz-adv-x="421" d="M-45 1235v74l258 217l260 -217v-74l-260 168zM119 0v1004h184v-1004h-184z" />
<glyph unicode="&#xef;" horiz-adv-x="421" d="M-4 1229v205h143v-205h-143zM119 0v1004h184v-1004h-184zM288 1229v205h144v-205h-144z" />
<glyph unicode="&#xf0;" horiz-adv-x="901" d="M35 412q0 78 22.5 159.5t68.5 148t115.5 109.5t166.5 43q84 0 138 -37.5t85 -74.5q-4 45 -16.5 100t-31 109.5t-41 101.5t-48.5 76q-121 -109 -246 -127l-60 113q47 8 101.5 30.5t118.5 75.5q-49 53 -103.5 77.5t-107.5 33.5l63 86q57 0 125 -27t135 -86q35 41 57.5 69.5 t43.5 61.5l98 -24q-29 -43 -56.5 -81t-66.5 -92q53 -61 98 -143t77 -177t49.5 -200.5t17.5 -210.5q0 -166 -39 -272.5t-99.5 -167.5t-133 -86t-138.5 -25q-84 0 -155.5 33t-125 91.5t-83 138t-29.5 174.5zM223 430q0 -59 14.5 -110.5t41 -90.5t65.5 -61.5t90 -22.5 q86 0 143.5 79t57.5 202t-52.5 199.5t-150.5 76.5q-51 0 -90 -22.5t-65.5 -60t-40 -87t-13.5 -102.5z" />
<glyph unicode="&#xf1;" horiz-adv-x="972" d="M102 0v1004h158l10 -107q59 78 123 102.5t125 24.5q98 0 167 -33t113 -94t63.5 -148t19.5 -196v-553h-185v553q0 160 -47 233.5t-157 73.5q-66 0 -120.5 -31.5t-84.5 -99.5v-729h-185zM170 1249q8 51 29.5 86t49 56.5t58 32t59.5 10.5q33 0 64.5 -15.5t60.5 -35t55.5 -35 t51.5 -15.5q41 0 68.5 28t43.5 77l90 -19q-16 -90 -67 -141t-129 -51q-29 0 -59.5 16.5t-60.5 35.5t-57.5 35.5t-50.5 16.5q-47 0 -72.5 -26.5t-35.5 -73.5z" />
<glyph unicode="&#xf2;" horiz-adv-x="968" d="M49 502q0 109 30 204t85 165.5t136 111.5t185 41q102 0 183.5 -41t136.5 -111.5t85 -166t30 -203.5q0 -109 -30 -204t-85 -166t-136.5 -111.5t-183.5 -40.5q-104 0 -185 40.5t-136 111.5t-85 166t-30 204zM238 502q0 -170 63.5 -264.5t183.5 -94.5q119 0 182.5 94.5 t63.5 264.5t-63.5 264t-182.5 94q-121 0 -184 -94t-63 -264zM319 1352v147l330 -194v-84z" />
<glyph unicode="&#xf3;" horiz-adv-x="968" d="M49 502q0 109 30 204t85 165.5t136 111.5t185 41q102 0 183.5 -41t136.5 -111.5t85 -166t30 -203.5q0 -109 -30 -204t-85 -166t-136.5 -111.5t-183.5 -40.5q-104 0 -185 40.5t-136 111.5t-85 166t-30 204zM238 502q0 -170 63.5 -264.5t183.5 -94.5q119 0 182.5 94.5 t63.5 264.5t-63.5 264t-182.5 94q-121 0 -184 -94t-63 -264zM319 1221v84l330 194v-147z" />
<glyph unicode="&#xf4;" horiz-adv-x="968" d="M49 502q0 109 30 204t85 165.5t136 111.5t185 41q102 0 183.5 -41t136.5 -111.5t85 -166t30 -203.5q0 -109 -30 -204t-85 -166t-136.5 -111.5t-183.5 -40.5q-104 0 -185 40.5t-136 111.5t-85 166t-30 204zM225 1235v74l258 217l260 -217v-74l-260 168zM238 502 q0 -170 63.5 -264.5t183.5 -94.5q119 0 182.5 94.5t63.5 264.5t-63.5 264t-182.5 94q-121 0 -184 -94t-63 -264z" />
<glyph unicode="&#xf5;" horiz-adv-x="968" d="M49 502q0 109 30 204t85 165.5t136 111.5t185 41q102 0 183.5 -41t136.5 -111.5t85 -166t30 -203.5q0 -109 -30 -204t-85 -166t-136.5 -111.5t-183.5 -40.5q-104 0 -185 40.5t-136 111.5t-85 166t-30 204zM168 1249q8 51 29.5 86t49 56.5t58 32t59.5 10.5 q33 0 64.5 -15.5t60.5 -35t55.5 -35t51.5 -15.5q41 0 68.5 28t43.5 77l90 -19q-16 -90 -67 -141t-129 -51q-29 0 -59.5 16.5t-60.5 35.5t-57.5 35.5t-50.5 16.5q-47 0 -72.5 -26.5t-35.5 -73.5zM238 502q0 -170 63.5 -264.5t183.5 -94.5q119 0 182.5 94.5t63.5 264.5 t-63.5 264t-182.5 94q-121 0 -184 -94t-63 -264z" />
<glyph unicode="&#xf6;" horiz-adv-x="968" d="M49 502q0 109 30 204t85 165.5t136 111.5t185 41q102 0 183.5 -41t136.5 -111.5t85 -166t30 -203.5q0 -109 -30 -204t-85 -166t-136.5 -111.5t-183.5 -40.5q-104 0 -185 40.5t-136 111.5t-85 166t-30 204zM238 502q0 -170 63.5 -264.5t183.5 -94.5q119 0 182.5 94.5 t63.5 264.5t-63.5 264t-182.5 94q-121 0 -184 -94t-63 -264zM267 1229v205h143v-205h-143zM559 1229v205h144v-205h-144z" />
<glyph unicode="&#xf7;" horiz-adv-x="966" d="M78 502v151h811v-151h-811zM385 41v192h182v-192h-182zM385 901v193h182v-193h-182z" />
<glyph unicode="&#xf8;" horiz-adv-x="989" d="M49 510q0 106 30 202.5t87 168t140 113.5t188 42q33 0 64.5 -5t70.5 -19l30 82h158l-63 -136q94 -88 140 -201.5t46 -248.5q0 -109 -29.5 -204t-87 -165.5t-140.5 -112.5t-187 -42q-35 0 -68 5t-74 17l-30 -78h-152l59 135q-92 86 -137 200t-45 247zM242 508 q0 -66 14 -134.5t49 -168.5l256 674q-29 10 -42 12t-25 2q-61 0 -107.5 -29.5t-79.5 -82t-49 -122t-16 -151.5zM422 139q31 -8 46 -10t28 -2q61 0 107 29.5t79 82t49.5 121t16.5 148.5q0 35 -4.5 80t-11.5 89t-19.5 81t-30.5 57z" />
<glyph unicode="&#xf9;" horiz-adv-x="972" d="M94 420v584h185v-533q0 -160 44 -244t144 -84q59 0 106.5 28t79.5 87v746h183v-1004h-166l-13 111q-80 -131 -221 -131q-176 0 -259 106.5t-83 333.5zM321 1352v147l330 -194v-84z" />
<glyph unicode="&#xfa;" horiz-adv-x="972" d="M94 420v584h185v-533q0 -160 44 -244t144 -84q59 0 106.5 28t79.5 87v746h183v-1004h-166l-13 111q-80 -131 -221 -131q-176 0 -259 106.5t-83 333.5zM321 1221v84l330 194v-147z" />
<glyph unicode="&#xfb;" horiz-adv-x="972" d="M94 420v584h185v-533q0 -160 44 -244t144 -84q59 0 106.5 28t79.5 87v746h183v-1004h-166l-13 111q-80 -131 -221 -131q-176 0 -259 106.5t-83 333.5zM227 1235v74l258 217l260 -217v-74l-260 168z" />
<glyph unicode="&#xfc;" horiz-adv-x="972" d="M94 420v584h185v-533q0 -160 44 -244t144 -84q59 0 106.5 28t79.5 87v746h183v-1004h-166l-13 111q-80 -131 -221 -131q-176 0 -259 106.5t-83 333.5zM269 1229v205h143v-205h-143zM561 1229v205h144v-205h-144z" />
<glyph unicode="&#xfd;" horiz-adv-x="946" d="M25 1004h204l250 -746l238 746h205l-539 -1500h-195l199 541zM309 1221v84l330 194v-147z" />
<glyph unicode="&#xfe;" horiz-adv-x="1007" d="M102 -494v2030h185v-639q51 66 110.5 96.5t137.5 30.5q102 0 181 -42t133 -113.5t83 -166t29 -200.5q0 -104 -28 -199.5t-83 -167.5t-136.5 -113.5t-185.5 -41.5q-156 0 -241 135v-609h-185zM274 502q0 -78 13.5 -146.5t43 -119t75 -80t108.5 -29.5t111.5 28.5t81 79 t50 119t17.5 148.5q0 160 -66.5 259t-193.5 99q-63 0 -108.5 -26.5t-75 -74.5t-43 -113.5t-13.5 -143.5z" />
<glyph unicode="&#xff;" horiz-adv-x="946" d="M25 1004h204l250 -746l238 746h205l-539 -1500h-195l199 541zM254 1229v205h143v-205h-143zM546 1229v205h144v-205h-144z" />
<glyph unicode="&#x152;" horiz-adv-x="1871" d="M61 717q0 170 45.5 308t125 235.5t189 149.5t241.5 52q109 0 207 -44t202 -154v168h725v-175h-534v-419h411v-176h-411v-486h550v-176h-741v170q-104 -111 -202.5 -155t-206.5 -44q-131 0 -241 52.5t-189.5 149.5t-125 235.5t-45.5 308.5zM266 717q0 -121 24.5 -224.5 t74 -180t124 -121t173.5 -44.5q98 0 172.5 44.5t124 121t74 180t24.5 224.5t-24.5 224t-74 180t-124 121t-172.5 44t-173 -44t-124.5 -121t-74 -180t-24.5 -224z" />
<glyph unicode="&#x153;" horiz-adv-x="1574" d="M49 512q0 109 30 202t86 162.5t139 108.5t188 39q102 0 194 -50t139 -159q53 109 141.5 159t182.5 50q82 0 151.5 -27.5t121 -82t79 -132t27.5 -176.5q0 -57 -8 -104h-590q4 -121 31.5 -195t67.5 -113.5t85 -53t86 -13.5q70 0 144.5 21.5t128.5 54.5l14 -158 q-49 -27 -120 -46t-159 -19q-150 0 -239.5 55t-137.5 164q-47 -109 -140 -164t-204 -55q-104 0 -185 41.5t-137 113.5t-86 169t-30 208zM238 502q0 -170 64.5 -264.5t189.5 -94.5q61 0 107 28t78 77t47 115.5t15 144.5q0 76 -16 141.5t-48 111.5t-78 72.5t-105 26.5 q-125 0 -189.5 -94t-64.5 -264zM934 629h407q-4 111 -51 171t-139 60q-90 0 -143.5 -53t-73.5 -178z" />
<glyph unicode="&#x178;" horiz-adv-x="1058" d="M-2 1434h203l315 -596l315 596h203l-420 -772v-662h-194v662zM312 1659v205h143v-205h-143zM604 1659v205h144v-205h-144z" />
<glyph unicode="&#x2c6;" horiz-adv-x="784" d="M133 1235v74l258 217l260 -217v-74l-260 168z" />
<glyph unicode="&#x2dc;" horiz-adv-x="927" d="M150 1249q8 51 29.5 86t49 56.5t58 32t59.5 10.5q33 0 64.5 -15.5t60.5 -35t55.5 -35t51.5 -15.5q41 0 68.5 28t43.5 77l90 -19q-16 -90 -67 -141t-129 -51q-29 0 -59.5 16.5t-60.5 35.5t-57.5 35.5t-50.5 16.5q-47 0 -72.5 -26.5t-35.5 -73.5z" />
<glyph unicode="&#x2000;" horiz-adv-x="988" />
<glyph unicode="&#x2001;" horiz-adv-x="1976" />
<glyph unicode="&#x2002;" horiz-adv-x="988" />
<glyph unicode="&#x2003;" horiz-adv-x="1976" />
<glyph unicode="&#x2004;" horiz-adv-x="658" />
<glyph unicode="&#x2005;" horiz-adv-x="494" />
<glyph unicode="&#x2006;" horiz-adv-x="329" />
<glyph unicode="&#x2007;" horiz-adv-x="329" />
<glyph unicode="&#x2008;" horiz-adv-x="247" />
<glyph unicode="&#x2009;" horiz-adv-x="395" />
<glyph unicode="&#x200a;" horiz-adv-x="109" />
<glyph unicode="&#x2010;" horiz-adv-x="718" d="M86 487v177h547v-177h-547z" />
<glyph unicode="&#x2011;" horiz-adv-x="718" d="M86 487v177h547v-177h-547z" />
<glyph unicode="&#x2012;" horiz-adv-x="718" d="M86 487v177h547v-177h-547z" />
<glyph unicode="&#x2013;" horiz-adv-x="856" d="M86 487v177h684v-177h-684z" />
<glyph unicode="&#x2014;" horiz-adv-x="1017" d="M86 487v177h846v-177h-846z" />
<glyph unicode="&#x2018;" horiz-adv-x="415" d="M111 1137v176l151 223l43 -27l-59 -178l59 -18v-176h-194z" />
<glyph unicode="&#x2019;" horiz-adv-x="415" d="M111 1163l59 178l-57 19v176h192v-176l-151 -223z" />
<glyph unicode="&#x201a;" horiz-adv-x="415" d="M111 -197l59 179l-57 18v176h192v-176l-151 -223z" />
<glyph unicode="&#x201c;" horiz-adv-x="788" d="M111 1137v176l151 223l43 -27l-59 -178l59 -18v-176h-194zM481 1137v176l152 223l43 -27l-62 -178l60 -18v-176h-193z" />
<glyph unicode="&#x201d;" horiz-adv-x="788" d="M111 1163l59 178l-57 19v176h192v-176l-151 -223zM481 1163l60 178l-60 19v176h195v-176l-154 -223z" />
<glyph unicode="&#x201e;" horiz-adv-x="800" d="M111 -197l59 179l-57 18v176h192v-176l-151 -223zM516 -197l59 179l-57 18v176h193v-176l-152 -223z" />
<glyph unicode="&#x2022;" horiz-adv-x="522" d="M70 569q0 45 15 86t41 72t60.5 48.5t75.5 17.5q39 0 74 -17.5t60.5 -48.5t41 -72t15.5 -86q0 -47 -15.5 -87t-41 -70.5t-60.5 -48t-74 -17.5q-41 0 -75.5 17.5t-60.5 48t-41 70.5t-15 87z" />
<glyph unicode="&#x2026;" horiz-adv-x="1247" d="M119 0v176h184v-176h-184zM535 0v176h184v-176h-184zM950 0v176h185v-176h-185z" />
<glyph unicode="&#x202f;" horiz-adv-x="395" />
<glyph unicode="&#x2039;" horiz-adv-x="612" d="M18 582l275 422h221l-276 -422l276 -422h-221z" />
<glyph unicode="&#x203a;" horiz-adv-x="612" d="M98 160l275 422l-275 422h219l277 -422l-277 -422h-219z" />
<glyph unicode="&#x205f;" horiz-adv-x="494" />
<glyph unicode="&#x20ac;" horiz-adv-x="1243" d="M68 440l47 142h168q-4 43 -5.5 78.5t-1.5 95.5h-161l49 141h131q25 119 75 212t120.5 157.5t158.5 98.5t189 34q84 0 165.5 -17.5t147.5 -52.5l-23 -201q-72 35 -139 56.5t-151 21.5q-131 0 -211 -81t-115 -228h451l-52 -141h-419v-44t1 -50.5t2 -46t5 -33.5h428 l-47 -142h-338q47 -111 119.5 -162t175.5 -51q84 0 151.5 21.5t138.5 56.5l23 -201q-66 -35 -147.5 -52t-165.5 -17q-178 0 -316.5 105.5t-204.5 299.5h-249z" />
<glyph unicode="&#x2122;" horiz-adv-x="1308" d="M68 1331v103h473l-15 -103h-172v-641h-110v641h-176zM551 690l84 744h67l175 -367l172 367h67l86 -744h-117l-51 549l-151 -332h-15l-149 334l-53 -551h-115z" />
<glyph unicode="&#x25fc;" horiz-adv-x="1003" d="M0 0v1004h1004v-1004h-1004z" />
</font>
</defs>
</svg>
