<?xml version="1.0" standalone="no"?>
<!DOCTYPE svg PUBLIC "-//W3C//DTD SVG 1.1//EN" "http://www.w3.org/Graphics/SVG/1.1/DTD/svg11.dtd" >
<svg xmlns="http://www.w3.org/2000/svg">
<metadata></metadata>
<defs>
<font id="arvobold_italic" horiz-adv-x="1479" >
<font-face units-per-em="2048" ascent="1638" descent="-410" />
<missing-glyph horiz-adv-x="492" />
<glyph horiz-adv-x="0" />
<glyph unicode="&#xd;" horiz-adv-x="0" />
<glyph unicode=" "  horiz-adv-x="492" />
<glyph unicode="&#x09;" horiz-adv-x="492" />
<glyph unicode="&#xa0;" horiz-adv-x="492" />
<glyph unicode="!" horiz-adv-x="866" d="M246 145q0 37 14 69.5t38 56.5t56.5 38t70.5 14q36 0 68 -14t56 -38t38 -56.5t14 -69.5t-14 -69.5t-38 -56.5t-56 -38t-68 -14q-38 0 -70.5 14t-56.5 38t-38 56.5t-14 69.5zM329 516l204 1061h375l-286 -1061h-293z" />
<glyph unicode="&#x22;" horiz-adv-x="913" d="M246 1059l71 518l289 16l-141 -534h-219zM676 1059l72 518l288 16l-141 -534h-219z" />
<glyph unicode="#" horiz-adv-x="1835" d="M143 287l123 274h199l156 363h-205l123 274h199l128 299h326l-127 -299h320l128 299h326l-128 -299h206l-123 -274h-199l-155 -363h205l-123 -274h-198l-122 -287h-328l122 287h-318l-121 -287h-332l123 287h-205zM795 561h318l155 363h-319z" />
<glyph unicode="$" horiz-adv-x="1292" d="M20 276l60 256h364l-18 -76q-14 -89 37 -142.5t170 -53.5q56 0 100.5 15t76 41.5t48 63t16.5 79.5q0 33 -14 57t-37.5 41.5t-54.5 30.5t-66 24l-172 60q-60 20 -109.5 55.5t-85 83.5t-55.5 108.5t-20 129.5q0 108 35.5 192t100 145t155.5 97.5t201 50.5l53 229h332 l-58 -249q109 -33 174 -96.5t76 -141.5h115l-60 -256h-362l11 49q10 46 0 82.5t-36 61.5t-65 38t-86 13q-49 0 -93 -9.5t-77 -30t-52.5 -52.5t-19.5 -76q0 -39 16.5 -63.5t42.5 -40.5t57.5 -26.5t61.5 -21.5l207 -76q128 -46 187 -139t59 -227q0 -108 -37 -196.5 t-104.5 -154.5t-161 -108t-207.5 -58l-49 -214h-332l53 229q-113 32 -182.5 103.5t-81.5 172.5h-113z" />
<glyph unicode="%" horiz-adv-x="1927" d="M164 -16l1401 1556h383l-1401 -1556h-383zM168 1108q0 92 37.5 174.5t103 144.5t153 98t187.5 36q76 0 139 -27.5t108 -74t70 -107t25 -127.5q0 -89 -36.5 -170.5t-101 -143.5t-152.5 -99.5t-191 -37.5q-77 0 -140 28t-108 74.5t-69.5 106.5t-24.5 125zM461 1145 q0 -40 23.5 -68t68.5 -28q28 0 55.5 11t49 30.5t34.5 45.5t13 56q0 43 -26 67.5t-73 24.5q-29 0 -55.5 -10t-46.5 -28.5t-31.5 -44t-11.5 -56.5zM1104 283q0 60 17 117.5t48.5 108t75.5 93t97.5 73t115.5 47.5t129 17q76 0 138.5 -27.5t107.5 -74t69.5 -108t24.5 -128.5 q0 -90 -36 -171t-100 -142.5t-152.5 -98t-192.5 -36.5q-76 0 -139 27t-108 72.5t-70 105.5t-25 125zM1397 319q0 -37 24.5 -64.5t69.5 -27.5q28 0 55 11t48 30.5t33.5 46t12.5 56.5q0 43 -26.5 67.5t-71.5 24.5q-29 0 -55.5 -10.5t-46.5 -29t-31.5 -45t-11.5 -59.5z" />
<glyph unicode="&#x26;" horiz-adv-x="1300" d="M41 385q0 77 21.5 136.5t62.5 110t100 95t97.5 68t42.5 25.5q-52 71 -70.5 133.5t-18.5 131.5q0 102 35 186.5t98 145t151.5 94t195.5 33.5q84 0 155 -30t122 -79t79.5 -111.5t28.5 -127.5q0 -71 -19.5 -127t-55 -102t-85 -85.5t-109.5 -76.5q-19 -12 -37.5 -23 t-38.5 -22l133 -169q23 45 39 88t27 85h291q-23 -109 -63.5 -215.5t-102.5 -201.5l166 -210l-270 -196l-123 166q-89 -62 -196.5 -97t-237.5 -35q-91 0 -167.5 33.5t-132 89.5t-87 130.5t-31.5 156.5zM358 408q0 -27 9.5 -52t27.5 -44t44.5 -30.5t60.5 -11.5q60 0 115 19.5 t104 52.5l-199 269q-38 -21 -68 -42t-51 -45t-32 -52t-11 -64zM571 1110q0 -28 10 -58.5t59 -92.5q34 17 64 32.5t54 30.5q48 31 69 65t21 82q0 45 -28.5 77t-76.5 32q-35 0 -66 -12.5t-54.5 -35t-37.5 -53t-14 -67.5z" />
<glyph unicode="'" horiz-adv-x="483" d="M246 1059l71 518l289 16l-141 -534h-219z" />
<glyph unicode="(" horiz-adv-x="874" d="M164 328q0 196 47.5 386t138.5 370.5t222.5 352t299.5 332.5l207 -172q-130 -131 -237 -275t-184 -299.5t-119.5 -320t-42.5 -335.5q0 -86 9.5 -177t27.5 -179.5t44.5 -169.5t61.5 -148l-285 -160q-47 81 -82.5 176.5t-59.5 198.5t-36 210t-12 210z" />
<glyph unicode=")" horiz-adv-x="874" d="M-102 -295q130 130 237 274.5t184 300t119.5 320.5t42.5 336q0 86 -9.5 177t-27.5 179t-45 169.5t-61 148.5l285 159q47 -81 82.5 -176.5t59.5 -198.5t36 -209.5t12 -209.5q0 -197 -47.5 -386.5t-138.5 -370.5t-223 -353t-300 -332z" />
<glyph unicode="*" horiz-adv-x="983" d="M102 1204l134 242l208 -74l56 244h264l-56 -248l253 76l22 -256l-248 -74l94 -192l-237 -148l-92 191l-185 -195l-186 170l181 192z" />
<glyph unicode="+" horiz-adv-x="1237" d="M102 449l64 274h366l86 373h297l-86 -373h367l-63 -274h-368l-87 -377h-297l87 377h-366z" />
<glyph unicode="," horiz-adv-x="532" d="M20 -287l185 570l305 -107l-285 -541z" />
<glyph unicode="-" horiz-adv-x="831" d="M143 449l64 274h627l-64 -274h-627z" />
<glyph unicode="." horiz-adv-x="539" d="M102 145q0 37 14 69.5t38 56.5t56.5 38t70.5 14q36 0 68 -14t56 -38t38 -56.5t14 -69.5t-14 -69.5t-38 -56.5t-56 -38t-68 -14q-38 0 -70.5 14t-56.5 38t-38 56.5t-14 69.5z" />
<glyph unicode="/" horiz-adv-x="983" d="M31 0l829 1556h277l-824 -1556h-282z" />
<glyph unicode="0" horiz-adv-x="1360" d="M102 512q0 110 23 229t69 232.5t114 215.5t158 178.5t201 121.5t244 45q122 0 207.5 -41t139 -112.5t78 -168t24.5 -206.5q0 -119 -24 -241t-70.5 -235t-115.5 -212.5t-159 -173t-200.5 -116t-239.5 -42.5q-121 0 -206 40t-139 110.5t-79 167t-25 208.5zM426 547 q0 -55 9.5 -101.5t32.5 -80.5t61 -53t94 -19q59 0 113 32t99.5 85.5t82.5 123.5t63.5 146t40.5 152.5t14 144.5q0 54 -9.5 100t-32 80.5t-60 54t-92.5 19.5q-59 0 -113 -32.5t-100.5 -86.5t-84 -124t-63.5 -146t-40.5 -152.5t-14.5 -142.5z" />
<glyph unicode="1" horiz-adv-x="813" d="M20 0l64 274h174l182 792l-266 -140l82 348l473 246l145 -2l-286 -1244h172l-64 -274h-676z" />
<glyph unicode="2" horiz-adv-x="1137" d="M-41 0l59 260l654 557q54 44 93.5 81t64.5 71.5t37 68.5t12 72q0 25 -9 49t-27 42t-44.5 29t-61.5 11q-49 0 -84.5 -15.5t-61 -42.5t-42 -63t-27.5 -76h-329q27 118 80 210.5t128.5 156t171.5 96.5t207 33q98 0 179 -33t138.5 -89.5t89.5 -131.5t32 -160 q0 -51 -8.5 -98.5t-29.5 -94t-56 -91.5t-87 -90l-515 -445h497l-72 -307h-989z" />
<glyph unicode="3" horiz-adv-x="1204" d="M47 416q2 14 2 31t6 40h342q-9 -52 -2.5 -90.5t25 -63.5t48.5 -37.5t69 -12.5q48 0 93 17t79.5 47t55.5 70t21 85q0 72 -44 110.5t-128 38.5h-139l64 273h141q52 0 94 15t71.5 40.5t45.5 58.5t16 70q0 27 -10 52.5t-30 46t-49.5 32.5t-67.5 12q-37 0 -69 -12.5 t-56.5 -33.5t-41.5 -48.5t-24 -58.5q-3 -11 -4.5 -17.5t-3.5 -17.5l-358 2q21 105 74.5 194t134.5 153.5t186.5 101t230.5 36.5q97 0 179 -30t141.5 -81.5t93 -120t33.5 -144.5q0 -69 -16 -127.5t-46 -105.5t-72 -83.5t-94 -62.5q24 -17 43.5 -42.5t33.5 -57.5t22 -70t8 -78 q0 -118 -52.5 -221t-144 -179.5t-216.5 -120.5t-269 -44q-105 0 -188 34.5t-138.5 93.5t-79.5 138t-10 168z" />
<glyph unicode="4" horiz-adv-x="1251" d="M20 414l56 256l737 846h363l-727 -848h298l68 293l315 4l-69 -297h211l-58 -254h-211l-33 -140h187l-63 -274h-676l63 274h175l33 140h-669z" />
<glyph unicode="5" horiz-adv-x="1163" d="M23 377l329 84q-5 -47 6.5 -84t35.5 -63t58.5 -40t77.5 -14q58 0 107.5 22.5t85.5 60t56 86.5t20 101q0 35 -13 67t-37 56.5t-58.5 39t-78.5 14.5q-32 0 -59.5 -3t-53.5 -9t-51 -15t-53 -21l-258 50l187 807h962l-72 -306h-649l-63 -273q44 14 94 23t113 9q87 0 163 -25 t133 -73.5t90 -119.5t33 -163q0 -139 -52.5 -253t-143.5 -195.5t-212.5 -126t-260.5 -44.5q-92 0 -173 28t-141 80.5t-93.5 128.5t-28.5 171z" />
<glyph unicode="6" horiz-adv-x="1133" d="M61 439q0 60 14 116.5t37.5 107.5t53 97t61.5 86l528 670h387l-444 -541h13q93 0 166.5 -37t125.5 -98t79.5 -138t27.5 -157q0 -114 -47.5 -215t-127 -176.5t-183.5 -119.5t-218 -44q-92 0 -163.5 20.5t-124 55t-88 79.5t-57 95t-31 101.5t-9.5 97.5zM352 453 q0 -36 11 -69.5t33.5 -59.5t57 -41.5t81.5 -15.5q51 0 97.5 21t82 57t57 85.5t21.5 106.5q0 83 -49 132.5t-148 49.5q-113 0 -192 -106q-21 -32 -36.5 -71t-15.5 -89z" />
<glyph unicode="7" horiz-adv-x="1243" d="M80 0l63 274h150q79 118 161.5 240t163.5 241t159 232.5t148 216.5h-391l-40 -172h-328l113 484h1148l-53 -226q-172 -242 -354.5 -499.5t-357.5 -516.5h157l-63 -274h-676z" />
<glyph unicode="8" horiz-adv-x="1196" d="M61 393q0 66 21 126t58.5 112.5t89.5 97t114 78.5q-46 50 -71 110.5t-25 124.5q0 104 48 195.5t131 159.5t194.5 107.5t238.5 39.5q91 0 168 -27t132.5 -77.5t86.5 -124t31 -166.5q0 -57 -18 -109.5t-50.5 -100t-77 -88t-98.5 -72.5q60 -56 94.5 -128t34.5 -151 q0 -105 -49.5 -200t-136.5 -168t-205 -116t-256 -43q-104 0 -188.5 35.5t-143.5 94t-91 134t-32 156.5zM371 432q0 -35 14 -65.5t39.5 -54t61 -37t79.5 -13.5q55 0 106 19.5t91 52t64 75t24 87.5q0 34 -14 64.5t-39.5 53t-61 35.5t-78.5 13q-56 0 -107.5 -18.5t-91.5 -50 t-63.5 -73.5t-23.5 -88zM551 1055q0 -29 11.5 -55t33 -45.5t52 -30.5t67.5 -11q46 0 90 16t78 43t54.5 62.5t20.5 73.5q0 30 -12 56.5t-33.5 47t-51.5 32t-66 11.5q-48 0 -92 -17t-77.5 -45t-54 -64t-20.5 -74z" />
<glyph unicode="9" horiz-adv-x="1118" d="M92 0l448 549h-14q-93 0 -166.5 37t-125.5 98t-79.5 138t-27.5 157q0 76 21.5 147t60 132.5t92.5 112.5t118 87t136 56t148 20q93 0 164 -20.5t123.5 -55t88 -79.5t57 -95t31 -101.5t9.5 -97.5q0 -60 -14 -116t-37.5 -107t-53.5 -97.5t-61 -86.5l-531 -678h-387zM444 987 q0 -83 49 -132.5t148 -49.5q113 0 192 106q21 31 36.5 70t15.5 90q0 36 -11 69.5t-33.5 59.5t-57 41.5t-81.5 15.5q-51 0 -97.5 -21t-82 -57t-57 -85.5t-21.5 -106.5z" />
<glyph unicode=":" horiz-adv-x="600" d="M82 145q0 37 14 69.5t38 56.5t56.5 38t70.5 14q36 0 68 -14t56 -38t38 -56.5t14 -69.5t-14 -69.5t-38 -56.5t-56 -38t-68 -14q-38 0 -70.5 14t-56.5 38t-38 56.5t-14 69.5zM245 907q0 37 14 69.5t38 56.5t56.5 38t70.5 14q36 0 68 -14t56 -38t38 -56.5t14 -69.5 t-14 -69.5t-38 -56.5t-56 -38t-68 -14q-38 0 -70.5 14t-56.5 38t-38 56.5t-14 69.5z" />
<glyph unicode=";" horiz-adv-x="610" d="M-41 -287l184 570l305 -107l-284 -541zM256 907q0 37 14 69.5t38 56.5t56.5 38t70.5 14q36 0 68 -14t56 -38t38 -56.5t14 -69.5t-14 -69.5t-38 -56.5t-56 -38t-68 -14q-38 0 -70.5 14t-56.5 38t-38 56.5t-14 69.5z" />
<glyph unicode="&#x3c;" horiz-adv-x="971" d="M102 465l56 240l813 270l-68 -287l-450 -124l393 -130l-58 -254z" />
<glyph unicode="=" horiz-adv-x="1176" d="M102 252l64 274h872l-63 -274h-873zM217 750l64 274h872l-63 -274h-873z" />
<glyph unicode="&#x3e;" horiz-adv-x="971" d="M41 180l68 287l449 123l-392 131l57 254l686 -285l-55 -239z" />
<glyph unicode="?" horiz-adv-x="1085" d="M205 1118q23 108 69 189t113 135.5t153 82t189 27.5q88 0 164 -28t132.5 -77.5t89 -118.5t32.5 -150q0 -60 -9.5 -115t-35 -106.5t-71.5 -100t-118 -94.5q-38 -25 -71 -44.5t-62 -38.5t-53 -38.5t-43.5 -44t-34 -55t-24.5 -70.5h-320q12 63 28 111t37 85.5t47 67t58.5 56 t71.5 52.5t86 56q50 33 81 63.5t48 59.5t23 58t6 59q0 24 -8 44.5t-22 35t-32 22.5t-39 8t-44.5 -7t-44.5 -25t-38.5 -50t-27.5 -82zM239 145q0 37 14 69.5t38 56.5t56.5 38t70.5 14q36 0 68 -14t56 -38t38 -56.5t14 -69.5t-14 -69.5t-38 -56.5t-56 -38t-68 -14 q-38 0 -70.5 14t-56.5 38t-38 56.5t-14 69.5z" />
<glyph unicode="@" horiz-adv-x="2140" d="M123 346q0 156 41 298t115.5 264.5t180 222t234 170t277 109t309.5 38.5q122 0 230.5 -28.5t199.5 -79.5t163 -121.5t122.5 -156t77 -182.5t26.5 -200q0 -94 -19 -182t-54.5 -165.5t-87.5 -142t-117.5 -111t-144 -72t-167.5 -25.5q-81 0 -139.5 28.5t-91.5 81.5 q-64 -53 -140.5 -80.5t-156.5 -27.5q-95 0 -171 33t-129.5 89t-82.5 130t-29 157q0 93 25 171.5t68 142.5t100 113t122 82t134 50t135 17q74 0 127.5 -18t98.5 -47l12 52h286l-149 -647q-6 -21 -6 -39t6 -31t17 -20.5t28 -7.5q49 0 87 26.5t66 68t47.5 92t31.5 99t17 89 t5 61.5q0 110 -40 207.5t-113.5 171t-177 116t-230.5 42.5q-117 0 -227 -28.5t-206.5 -80.5t-176 -125t-137 -163.5t-89 -195.5t-31.5 -220q0 -129 39.5 -234t111.5 -180t173 -115.5t225 -40.5q99 0 204.5 31.5t211.5 87.5l84 -227q-140 -75 -273.5 -115.5t-267.5 -40.5 q-114 0 -216 28.5t-189 80.5t-157 125t-119.5 163t-76 194t-26.5 218zM879 434q0 -36 12 -65t33.5 -50t51.5 -32t66 -11q29 0 58.5 8t57.5 23t53.5 37t47.5 50l38 162q-7 29 -22 53t-36 41t-47.5 26.5t-56.5 9.5q-48 0 -94 -20.5t-82 -55t-58 -80t-22 -96.5z" />
<glyph unicode="A" d="M-102 0l63 274h128l689 1242h436l114 -1242h192l-64 -274h-612l63 274h84l-16 209h-418l-111 -209h127l-63 -274h-612zM711 772h243l-30 402z" />
<glyph unicode="B" horiz-adv-x="1516" d="M61 0l64 274h153l224 967h-172l63 275h766q96 0 170 -29t124.5 -80.5t76.5 -121.5t26 -152q0 -85 -28 -164.5t-93 -142.5q-48 -45 -118 -79q8 -6 14 -12q51 -47 77 -108t26 -131q0 -124 -40.5 -217t-115.5 -155t-181 -93t-237 -31h-799zM628 274h249q52 0 92.5 15.5 t68 44t42 68t14.5 87.5q0 29 -9 54.5t-26 44t-43 29t-60 10.5h-246zM774 901h232q45 0 84 13.5t67.5 39t45 61t16.5 79.5q0 30 -9.5 56.5t-27.5 47t-45.5 32t-63.5 11.5h-220z" />
<glyph unicode="C" horiz-adv-x="1493" d="M102 608q0 142 36 266.5t99.5 228.5t150 186t188 138.5t213 86.5t225.5 30q91 0 168 -19t141 -54t102.5 -73.5t61.5 -68.5h190l-63 -274h-389q-26 68 -91.5 110.5t-162.5 42.5q-68 0 -132 -21.5t-120.5 -60t-103 -91.5t-80 -116t-52 -133.5t-18.5 -144.5q0 -75 21 -136.5 t60.5 -106t95 -69t124.5 -24.5q55 0 103 15t89.5 41.5t75.5 62t62 76.5l317 -158q-114 -180 -286.5 -276.5t-399.5 -96.5q-136 0 -250.5 46.5t-198 130.5t-130 201.5t-46.5 260.5z" />
<glyph unicode="D" horiz-adv-x="1585" d="M61 0l64 274h155l224 967h-156l64 275h608q137 0 252 -42t198.5 -121.5t130 -195.5t46.5 -264q0 -125 -29 -239.5t-85 -213.5t-138 -180t-188 -139t-235.5 -89.5t-279.5 -31.5h-631zM630 274h107q73 0 141.5 21.5t129 60t111 92.5t87 119.5t56.5 140.5t20 156 q0 105 -26.5 177t-71 116.5t-102.5 64t-121 19.5h-106z" />
<glyph unicode="E" horiz-adv-x="1505" d="M61 0l64 274h155l224 967h-174l63 275h1297l-119 -517h-350l55 242h-421l-76 -326h337l-67 -290h-337l-82 -351h396l61 269h351l-125 -543h-1252z" />
<glyph unicode="F" horiz-adv-x="1450" d="M61 0l64 274h151l224 967h-215l63 275h1305l-119 -517h-348l55 242h-390l-81 -348h363l-68 -291h-363l-76 -328h175l-64 -274h-676z" />
<glyph unicode="G" horiz-adv-x="1575" d="M123 608q0 142 36 266.5t99.5 228.5t150 186t187.5 138.5t212.5 86.5t225.5 30q78 0 152 -16.5t138.5 -46t115 -69t84.5 -83.5h178l-64 -274h-389q-13 31 -36.5 60t-56.5 51t-74.5 35t-90.5 13q-102 0 -194 -48t-161 -128t-110 -183t-41 -214q0 -75 20.5 -138t59 -109.5 t94 -72.5t125.5 -26q65 0 127.5 19.5t115 54t89 78t55.5 88.5h-319l63 274h705l-188 -809h-299l53 228q-40 -64 -103.5 -124.5t-156 -97.5t-189.5 -37q-131 0 -243 46.5t-194.5 130.5t-129.5 201.5t-47 260.5z" />
<glyph unicode="H" horiz-adv-x="1946" d="M61 0l64 274h155l224 967h-172l63 275h676l-63 -275h-153l-72 -309h665l72 309h-170l63 275h676l-64 -275h-155l-224 -967h175l-64 -274h-676l64 274h151l90 388h-666l-90 -388h171l-64 -274h-676z" />
<glyph unicode="I" horiz-adv-x="926" d="M61 0l64 274h155l224 967h-174l63 275h676l-63 -275h-151l-225 -967h171l-64 -274h-676z" />
<glyph unicode="J" horiz-adv-x="782" d="M-82 -223q84 90 132 144.5t97.5 123.5t81.5 160l239 1036h-179l63 275h676l-63 -275h-149l-247 -1069q-42 -81 -75 -124.5t-121 -128.5q-77 -79 -174 -165z" />
<glyph unicode="K" horiz-adv-x="1745" d="M61 0l64 274h155l224 967h-174l63 275h676l-63 -275h-151l-225 -967h171l-64 -274h-676zM772 793l598 450l64 273h618l-63 -275h-134l-642 -477l350 -490h147l-61 -274h-564l64 274z" />
<glyph unicode="L" horiz-adv-x="1317" d="M61 0l64 274h153l224 967h-172l63 275h676l-63 -275h-153l-225 -967h287q36 0 61.5 23.5t35.5 58.5l49 201h338l-127 -557h-1211z" />
<glyph unicode="M" horiz-adv-x="2406" d="M51 0l64 274h136l224 967h-174l64 275h688l181 -1016l619 1016h707l-63 -275h-154l-225 -967h149l-63 -274h-613l64 274h115l189 814l-677 -1070h-301l-199 1082l-199 -826h144l-63 -274h-613z" />
<glyph unicode="N" horiz-adv-x="1786" d="M61 0l64 274h135l223 967h-164l64 275h516l374 -936l154 661h-133l64 275h612l-63 -275h-130l-286 -1241h-344l-386 935l-153 -661h129l-63 -274h-613z" />
<glyph unicode="O" horiz-adv-x="1597" d="M123 608q0 142 36 266.5t99.5 228.5t150 186t187.5 138.5t212.5 86.5t225.5 30q142 0 257.5 -47t197 -131.5t126 -202.5t44.5 -260q0 -139 -33.5 -262t-94.5 -227t-145 -186.5t-185.5 -140t-216 -88t-236.5 -30.5q-136 0 -250.5 46.5t-198 130.5t-130 201.5t-46.5 260.5z M485 641q0 -75 21 -136.5t60.5 -106t95 -69t124.5 -24.5q67 0 131 21.5t120 59.5t103 91t80.5 116t52.5 134t19 145q0 75 -20.5 136.5t-59.5 106t-95 69t-126 24.5q-102 0 -194 -47t-161 -126t-110 -181t-41 -213z" />
<glyph unicode="P" horiz-adv-x="1354" d="M61 0l64 274h155l224 967h-174l63 275h705q104 0 186 -31.5t138.5 -86.5t86 -129.5t29.5 -160.5q0 -110 -35.5 -209t-114 -173.5t-204.5 -118.5t-307 -44h-180l-67 -289h171l-64 -274h-676zM760 834h106q68 0 123.5 14.5t95 44.5t61 75t21.5 107q0 76 -51.5 121 t-154.5 45h-106z" />
<glyph unicode="Q" horiz-adv-x="1556" d="M102 608q0 142 36 266.5t99.5 228.5t150 186t188 138.5t213 86.5t225.5 30q142 0 257.5 -47t197 -131.5t125.5 -202.5t44 -260q0 -139 -33.5 -262t-94.5 -227t-145 -186.5t-185.5 -140t-216.5 -87.5q-41 -11 -82 -18l69 -27q100 -60 162 -61q58 0 103 19t69 52t39 72 l199 -111q-26 -73 -72.5 -132t-107.5 -101t-131.5 -65t-143.5 -23q-38 0 -73 10.5t-69 26.5t-67 34.5t-67 34.5t-70 26.5t-74 10.5q-25 0 -43 -2t-43 -10l58 241q-75 11 -143 38q-114 47 -197.5 131t-130 201.5t-46.5 260.5zM465 641q0 -75 21 -136.5t60.5 -106t95 -69 t124.5 -24.5q67 0 130.5 21.5t120 59.5t103 91t80.5 116t53 134t19 145q0 75 -21 136.5t-60 106t-94.5 69t-125.5 24.5q-68 0 -132 -21.5t-120.5 -60t-103 -91.5t-80 -116t-52 -133.5t-18.5 -144.5z" />
<glyph unicode="R" horiz-adv-x="1483" d="M61 0l64 274h134l225 967h-175l64 275h807q100 0 173 -34t120 -88.5t69.5 -124t22.5 -141.5q0 -98 -28 -175t-87 -137t-116 -88t-81 -39q10 -9 27 -29.5t31 -64t16 -103.5l6 -218h144l-64 -274h-450l24 360q1 20 1 39q0 39 -6 71q-8 46 -32.5 76t-65.5 44t-102 14h-96 l-77 -330h128l-63 -274h-613zM748 874h190q62 0 112.5 12.5t86.5 38.5t55.5 66t19.5 94q0 71 -41.5 113.5t-138.5 42.5h-198z" />
<glyph unicode="S" horiz-adv-x="1268" d="M20 276l60 256h364q-21 -78 -21 -121q0 -13 2 -22q8 -42 33.5 -70t69 -43.5t105.5 -15.5q56 0 100.5 15t76 41.5t48 63t16.5 79.5q0 33 -14 57t-37.5 41.5t-54.5 30.5t-66 24l-172 60q-60 20 -109.5 55.5t-85 83.5t-55.5 108.5t-20 129.5q0 123 46 215.5t128.5 154 t197 92.5t251.5 31q99 0 180 -23t139.5 -61.5t89 -86t37.5 -95.5h115l-60 -256h-362q15 65 15 102q0 16 -3 27q-9 36 -35 62t-65.5 39.5t-87.5 13.5q-49 0 -93 -9.5t-77 -30t-52.5 -52.5t-19.5 -76q0 -39 16.5 -63.5t53 -43t108.5 -45.5l207 -76q128 -46 187 -139t59 -227 q0 -124 -48.5 -221.5t-134.5 -165.5t-205.5 -104t-260.5 -36q-105 0 -191.5 26t-146.5 73.5t-85 101.5t-31 100h-112z" />
<glyph unicode="T" horiz-adv-x="1368" d="M143 1055l107 461h1425l-106 -461h-344l43 186h-194l-225 -967h169l-64 -274h-675l63 274h157l225 967h-194l-43 -186h-344z" />
<glyph unicode="U" horiz-adv-x="1534" d="M206 424q-1 17 -1 35q0 81 20 174l142 608h-150l64 275h612l-64 -275h-116l-146 -629q-15 -70 -14 -118q0 -22 2 -38q9 -56 39 -95.5t74 -57.5t104 -18q58 0 104.5 16.5t83.5 55t65.5 101t49.5 154.5l145 629h-137l64 275h612l-63 -275h-130l-155 -674 q-36 -158 -97 -271.5t-147 -186t-197.5 -106.5t-248.5 -34q-113 0 -207.5 33.5t-163 94t-103.5 146t-41 181.5z" />
<glyph unicode="V" horiz-adv-x="1399" d="M164 1241l63 275h613l-64 -275h-113l62 -784l443 784h-117l63 275h612l-63 -275h-120l-709 -1241h-408l-107 1241h-155z" />
<glyph unicode="W" horiz-adv-x="2046" d="M158 1241l63 275h613l-64 -275h-125l39 -829l530 1104h361l16 -1100l417 825h-157l64 275h612l-63 -275h-119l-649 -1241h-410l-8 975l-477 -975h-410l-69 1241h-164z" />
<glyph unicode="X" horiz-adv-x="1618" d="M-41 0l64 274h121l584 512l-297 455h-173l64 275h675l-63 -275h-117l156 -239l272 239h-100l63 275h676l-63 -275h-125l-558 -491l312 -476h170l-64 -274h-675l63 274h118l-170 260l-295 -260h101l-63 -274h-676z" />
<glyph unicode="Y" horiz-adv-x="1393" d="M184 1241l64 275h612l-63 -275h-105l133 -328l25 26l262 302h-88l63 275h613l-64 -275h-101l-594 -626l-79 -341h170l-63 -274h-676l63 274h160l82 361l-280 606h-134z" />
<glyph unicode="Z" horiz-adv-x="1320" d="M20 0l71 313l956 928h-405l-59 -262h-344l125 537h1163l-72 -314l-974 -928h430l59 258h348l-123 -532h-1175z" />
<glyph unicode="[" horiz-adv-x="772" d="M-41 -289l492 2124h567l-57 -246h-224l-377 -1630h224l-58 -248h-567z" />
<glyph unicode="\" horiz-adv-x="829" d="M164 1589h235l185 -1677h-242z" />
<glyph unicode="]" horiz-adv-x="711" d="M-246 -289l58 248h223l377 1630h-224l58 246h567l-491 -2124h-568z" />
<glyph unicode="^" horiz-adv-x="1073" d="M102 725l600 791h230l219 -791h-248l-138 524l-394 -524h-269z" />
<glyph unicode="_" horiz-adv-x="1083" d="M-82 -346l59 256h1024l-59 -256h-1024z" />
<glyph unicode="`" horiz-adv-x="774" d="M168 1464v25h326l196 -311h-229z" />
<glyph unicode="a" horiz-adv-x="1391" d="M102 438q0 96 25 179.5t69 153t104.5 123.5t132 91t151 56.5t161.5 19.5q46 0 78.5 -6t74.5 -18t98 -52l12 51h340l-177 -762h191l-64 -274h-530l18 79q-37 -39 -98 -66q-65 -29 -153 -29q-81 0 -159 29t-138.5 86.5t-98 142.5t-37.5 196zM440 485q0 -48 15 -84t41 -60 t60 -36t73 -12q33 0 67.5 8.5t66.5 26t60 44.5l44 55l50 216q-12 23 -31 44.5t-47.5 37.5t-62 24.5t-67.5 8.5q-54 0 -103 -21.5t-85.5 -58t-58.5 -86.5t-22 -107z" />
<glyph unicode="b" horiz-adv-x="1327" d="M102 0l296 1282h-197l63 274h537l-136 -589q37 38 97 65q65 29 153 29q85 0 163 -29.5t138 -87t96 -142.5t36 -196q0 -137 -50.5 -251.5t-137.5 -197t-204.5 -128t-250.5 -45.5q-37 0 -74 6t-71 16.5t-62 24.5q-25 12 -43 26l-13 -57h-340zM534 400q11 -23 27 -41 q22 -23 50.5 -39t61.5 -24.5t68 -8.5q54 0 103 21.5t85.5 58t58.5 86t22 106.5q0 48 -15 84t-41 60t-60 36.5t-73 12.5q-33 0 -67.5 -8.5t-66.5 -26.5t-60 -45q-24 -23 -43 -53z" />
<glyph unicode="c" horiz-adv-x="1171" d="M102 436q0 143 51.5 259.5t138.5 199t201.5 127.5t241.5 45q80 0 148 -23t123 -63q25 -18 47 -39h192l-63 -274h-330q-16 42 -59 68t-93 26q-56 0 -105.5 -22.5t-86.5 -62t-58.5 -92t-21.5 -112.5q0 -45 14.5 -80.5t38.5 -61t56 -39t67 -13.5q83 0 138.5 38.5t91.5 100.5 l272 -148q-32 -62 -84 -116t-121 -94t-152.5 -62.5t-177.5 -22.5q-101 0 -186.5 36.5t-148.5 99t-98.5 146.5t-35.5 179z" />
<glyph unicode="d" horiz-adv-x="1405" d="M102 438q0 96 25 179.5t69 153t104.5 123.5t132 91t151 56.5t161.5 19.5q35 0 72 -5.5t71.5 -15.5t63.5 -24q26 -12 43 -27l68 293h-207l64 274h546l-295 -1282h191l-64 -274h-530l18 78q-16 -18 -38 -34q-25 -18 -58 -32t-72 -22t-83 -8q-102 0 -182.5 37t-136 99.5 t-85 145t-29.5 174.5zM453 496q0 -43 13.5 -78t36.5 -59.5t55 -38t69 -13.5q72 0 138 36q61 33 102 89l52 226q-9 18 -23 34q-22 24 -51 40t-62.5 24t-67.5 8q-54 0 -101.5 -20.5t-83.5 -56.5t-56.5 -85t-20.5 -106z" />
<glyph unicode="e" horiz-adv-x="1178" d="M102 432q0 143 51.5 260t138.5 200.5t201.5 129t241.5 45.5q101 0 186 -35.5t146.5 -95t96 -137.5t34.5 -162q0 -20 -2 -45t-6 -51.5t-10 -52.5t-13 -48h-739q2 -24 8 -46q10 -38 33.5 -66.5t61.5 -45t92 -16.5q40 0 73.5 8t63.5 22.5t57.5 34.5t54.5 44l220 -193 q-101 -108 -233 -158.5t-284 -50.5q-98 0 -184 32t-150 91.5t-101.5 144.5t-37.5 191zM464 666h433q-2 27 -17.5 52.5t-41 45.5t-60 32.5t-76.5 12.5q-50 0 -95.5 -15t-80 -43.5t-55.5 -70.5q-4 -7 -7 -14z" />
<glyph unicode="f" horiz-adv-x="801" d="M31 -471l284 1214h-200l67 293h202l40 170q22 97 67 167.5t106.5 116.5t137.5 67.5t160 21.5q58 0 105 -9.5t81.5 -23.5t57 -30.5t30.5 -30.5l-184 -232q-17 17 -37.5 26t-58.5 9q-45 0 -84 -30t-53 -89l-31 -133h221l-68 -293h-222l-283 -1214h-338z" />
<glyph unicode="g" horiz-adv-x="1303" d="M-20 -338l176 264q60 -43 138 -71.5t169 -28.5q51 0 99 9t89 34t72 68.5t47 111.5l7 30q-37 -32 -101 -55q-67 -24 -150 -24q-79 0 -156.5 28t-138.5 83t-99 137t-38 190q0 134 49.5 248t136 197.5t204 130.5t253.5 47q39 0 77.5 -6.5t72.5 -17t100 -48.5l17 72h339 l-235 -1018q-35 -153 -97.5 -252.5t-147 -157.5t-189.5 -81t-225 -23q-159 0 -275.5 36.5t-193.5 96.5zM438 492q0 -48 15 -84t41 -60t60 -36.5t73 -12.5q33 0 66.5 8.5t65 26t58.5 44.5q22 21 40 49l54 232q-35 54 -68 71.5t-66 25.5t-70 8q-54 0 -103 -21.5t-85.5 -58 t-58.5 -86t-22 -106.5z" />
<glyph unicode="h" horiz-adv-x="1370" d="M94 0l296 1282h-187l63 274h537l-140 -604l1 1q45 35 93 60.5t99 39.5t105 14q87 0 152.5 -29.5t104 -85t48.5 -134.5q3 -24 3 -50q0 -59 -16 -129l-84 -365h191l-64 -274h-532l129 557q6 26 6 50q1 9 -1 19q-4 32 -16.5 54.5t-34 34.5t-48.5 12q-51 0 -126 -39 q-40 -21 -83 -53l-146 -635h-350z" />
<glyph unicode="i" horiz-adv-x="778" d="M143 762l64 274h532l-176 -762h191l-64 -274h-532l176 762h-191zM434 1370q0 37 13.5 69.5t37.5 56.5t56.5 38t70.5 14q36 0 68 -14t56 -38t38 -56.5t14 -69.5t-14 -69.5t-38 -56.5t-56 -38t-68 -14q-38 0 -70.5 14t-56.5 38t-37.5 56.5t-13.5 69.5z" />
<glyph unicode="j" horiz-adv-x="707" d="M-72 -469l39 264q33 0 64 11t57 33t45.5 54t28.5 74l184 795h-233l63 274h569l-239 -1038q-29 -126 -80 -214.5t-123.5 -145t-166.5 -82t-208 -25.5zM414 1370q0 37 13.5 69.5t37.5 56.5t56.5 38t70.5 14q36 0 68 -14t56 -38t38 -56.5t14 -69.5t-14 -69.5t-38 -56.5 t-56 -38t-68 -14q-38 0 -70.5 14t-56.5 38t-37.5 56.5t-13.5 69.5z" />
<glyph unicode="k" horiz-adv-x="1311" d="M102 0l296 1282h-199l63 274h539l-202 -874h114l159 169l43 185h457l-63 -274h-140l-235 -223l135 -265h156l-64 -274h-301l-196 406h-129l-93 -406h-340z" />
<glyph unicode="l" horiz-adv-x="729" d="M102 0l296 1282h-199l63 274h539l-296 -1282h189l-63 -274h-529z" />
<glyph unicode="m" horiz-adv-x="2083" d="M139 0l176 762h-172l64 274h518l-19 -93q56 43 104 67t99 37.5t105 13.5q132 0 213 -66q53 -43 77 -108q78 76 167 123q96 51 204 51q87 0 152.5 -29t104.5 -83q39 -55 49 -133q3 -24 3 -49q0 -59 -16 -128l-84 -365h189l-64 -274h-530l129 557q6 26 6 50q0 9 -2 19 q-4 32 -16 54.5t-33.5 34.5t-49.5 12q-51 0 -126 -39q-38 -20 -81 -52l-147 -636h-350l129 557q6 27 6 51v18q-4 32 -16.5 54.5t-34 34.5t-49.5 12q-51 0 -126 -39q-39 -20 -82 -52l-147 -636h-350z" />
<glyph unicode="n" horiz-adv-x="1421" d="M143 762l64 274h526l-16 -85v1q45 34 93 58t99 37.5t105 13.5q87 0 152 -29t104 -83q40 -55 50 -133q3 -25 2 -51q0 -58 -15 -126l-85 -365h189l-63 -274h-531l129 557q6 27 6 51v18q-4 32 -16.5 54.5t-34 34.5t-49.5 12q-51 0 -126 -39q-39 -20 -81 -52l-147 -636h-351 l176 762h-180z" />
<glyph unicode="o" horiz-adv-x="1182" d="M102 436q0 143 51.5 259.5t138.5 199t201.5 127.5t241.5 45q98 0 183.5 -36t148.5 -98.5t99 -147t36 -181.5q0 -137 -48.5 -252t-133 -199t-200 -131t-249.5 -47q-101 0 -186.5 36.5t-148.5 99t-98.5 146.5t-35.5 179zM428 473q0 -44 13 -80.5t36.5 -63t56 -41 t70.5 -14.5q52 0 101 22.5t87.5 62t61.5 93t23 115.5q0 51 -14.5 88.5t-38.5 62.5t-56 37.5t-68 12.5q-57 0 -106.5 -23.5t-86 -63.5t-58 -93.5t-21.5 -114.5z" />
<glyph unicode="p" horiz-adv-x="1366" d="M41 -471l286 1233h-188l64 274h520l-11 -73q37 40 99 68q66 30 154 30q84 0 162 -29.5t138 -87t96 -142.5t36 -196q0 -96 -25 -179.5t-69 -152.5t-104.5 -123t-132 -91t-151 -56.5t-161.5 -19.5q-37 0 -74 6t-71 16.5t-62 24.5q-26 12 -44 26l-59 -254h201l-63 -274h-541 zM583 401q10 -23 26 -41q22 -24 51 -40t63 -24.5t68 -8.5q54 0 102.5 21.5t85 58t58.5 86t22 106.5q0 48 -15 84t-41 60t-60 36.5t-73 12.5q-33 0 -67.5 -8.5t-66.5 -26.5t-60 -45q-23 -22 -42 -51z" />
<glyph unicode="q" horiz-adv-x="1317" d="M109 438q0 96 24.5 179.5t68.5 153t104.5 123.5t132 91t151 56.5t162.5 19.5q34 0 71 -6t71 -16.5t63 -24.5q27 -13 46 -29l15 51h336l-285 -1233h182l-63 -274h-522l127 551q-36 -40 -99 -67q-65 -29 -153 -29q-81 0 -158.5 29t-138 86.5t-98 142.5t-37.5 196zM446 485 q0 -48 15 -84t41 -60t60 -36t73 -12q33 0 67.5 8.5t66.5 26t60 44.5q24 23 43 53l51 218q-12 23 -29 42q-21 24 -49.5 40t-62 24.5t-67.5 8.5q-54 0 -103 -21.5t-85.5 -58t-58.5 -86.5t-22 -107z" />
<glyph unicode="r" horiz-adv-x="1145" d="M143 762l64 274h530l-20 -90q41 37 98 62q63 28 148 28h284l-94 -403h-326l25 104q-34 0 -62.5 -7t-55 -21t-51.5 -35q-17 -14 -34 -31l-86 -369h217l-63 -274h-559l176 762h-191z" />
<glyph unicode="s" horiz-adv-x="1018" d="M31 66l63 274h299q-7 -43 -1.5 -62.5t22.5 -35t43 -23.5t59 -8q69 0 109.5 25t40.5 67q0 25 -18 43t-66 31l-131 33q-71 18 -124.5 50.5t-89.5 74.5t-54.5 91.5t-18.5 100.5q0 84 37.5 148t101.5 106.5t147 64t175 21.5q66 0 121.5 -11.5t98.5 -31.5q25 -11 45 -23h210 l-64 -274h-270q-5 46 -44 65q-41 21 -106 21q-27 0 -51.5 -4.5t-42.5 -14t-28.5 -24t-10.5 -33.5q0 -15 12.5 -31t47.5 -24l164 -35q77 -17 131 -48t88 -71t49.5 -85.5t15.5 -90.5q0 -103 -42 -175.5t-110.5 -118.5t-154.5 -67.5t-174 -21.5q-147 0 -234 40q-48 23 -80 57 h-165z" />
<glyph unicode="t" horiz-adv-x="890" d="M82 762l63 274h193l59 248l383 164l-98 -412h190l-63 -274h-192l-87 -371q-13 -49 -13 -81v-8q2 -33 21.5 -47.5t45.5 -14.5q21 0 45.5 4t52.5 12l4 -229q-32 -12 -63 -22t-65.5 -16.5t-73 -10t-83.5 -3.5q-72 0 -126.5 16.5t-86.5 55.5t-38 105q-1 14 -1 29q0 57 19 134 l105 447h-191z" />
<glyph unicode="u" horiz-adv-x="1356" d="M111 762l63 274h488l-136 -585q-6 -27 -6 -50q0 -13 2 -27q6 -34 25 -59t49.5 -38t69.5 -13q32 0 64 11t60.5 30.5t55.5 49.5l94 407h-158l64 274h477l-177 -762h191l-63 -274h-500l19 81q-31 -25 -65 -44q-43 -24 -94 -36.5t-112 -12.5q-102 0 -183.5 39t-114.5 101 q-32 63 -40 136q-2 17 -2 35q0 59 19 127l77 336h-167z" />
<glyph unicode="v" horiz-adv-x="1133" d="M41 762l63 274h512l-63 -274h-81l69 -421l258 421h-88l63 274h512l-63 -274h-96l-492 -762h-338l-141 762h-115z" />
<glyph unicode="w" horiz-adv-x="1780" d="M31 762l63 274h512l-63 -274h-67l24 -316l340 590h334l61 -630l205 356h-92l63 274h512l-63 -274h-96l-459 -762h-336l-66 614h-4l-360 -614h-324l-82 762h-102z" />
<glyph unicode="x" horiz-adv-x="1237" d="M10 0l64 274h75l328 264l-175 224h-122l64 274h512l-64 -274h-80l89 -104l136 104h-63l64 274h512l-64 -274h-101l-305 -246l189 -242h107l-64 -274h-498l64 274h73l-97 118l-157 -118h74l-63 -274h-498z" />
<glyph unicode="y" horiz-adv-x="1126" d="M-20 -471l73 274h136l126 200l-167 759h-105l63 274h512l-63 -274h-77l66 -393l246 393h-85l63 274h512l-63 -274h-81l-634 -959h125l-74 -274h-573z" />
<glyph unicode="z" horiz-adv-x="1150" d="M25 0l37 164l574 606h-206l-36 -156h-260l96 422h907l-41 -180l-578 -588h222l43 183h260l-103 -451h-915z" />
<glyph unicode="{" horiz-adv-x="817" d="M118 629l45 190q100 9 146 22.5t70.5 37.5t41.5 64.5t32 104.5l91 396q8 32 16 61.5t26 74.5t52 89t77 71.5t95.5 39.5t114.5 12q94 0 143 -4l49 -4l-75 -328q-23 -1 -42 -3t-35 -6q-23 -6 -39.5 -16t-28.5 -28t-20.5 -45t-17.5 -66l-86 -370q-9 -41 -22 -73t-43.5 -67 t-90.5 -60q26 -16 48 -44t23 -77t-12 -99l-87 -379q-10 -45 -11.5 -74t10 -46t38.5 -24.5t74 -9.5l-72 -307q-103 -8 -197 -8q-25 0 -47.5 2t-52.5 8t-59.5 22.5t-48 43.5t-26.5 65.5t-6 70.5t6.5 60.5t7.5 44t7 31.5l74 322q20 86 26 139.5t1 85.5t-21 46t-41 19t-133 15z " />
<glyph unicode="|" horiz-adv-x="631" d="M61 -270l461 1999h273l-461 -1999h-273z" />
<glyph unicode="}" horiz-adv-x="938" d="M-102 -338l75 328q23 1 42 3t38.5 7t36 15t28.5 28t20.5 45t17.5 66l86 370q28 90 72.5 137.5t83.5 62.5q-65 55 -69.5 105.5t3.5 84.5t94 409q10 45 11.5 74t-10 46t-38.5 24.5t-74 9.5l72 307l51.5 4t145.5 4q70 -4 100 -10t59.5 -22.5t48 -43.5t26.5 -65.5t4.5 -84.5 t-19.5 -122l-74 -322q-20 -86 -26 -139.5t-1 -85.5t21 -46t41 -19t133 -15l-45 -190q-100 -9 -150.5 -23t-70.5 -37.5t-37 -64t-32 -104.5l-90 -418q-7 -30 -32 -100t-59 -111t-77.5 -67t-97 -37t-116.5 -11q-94 0 -192 8z" />
<glyph unicode="~" horiz-adv-x="905" d="M-8 512q0 30 5 66t16.5 72.5t31.5 70.5t50 60.5t72 42.5t97 16q24 0 55.5 -11t66.5 -27t72 -35t71.5 -35t64 -26t51.5 -10q47 0 69.5 27.5t30.5 87.5l185 -41q0 -45 -12.5 -100.5t-45.5 -104.5t-90 -84t-147 -35q-55 0 -108 23.5t-101.5 50t-90.5 48.5t-75 22 q-19 0 -36 -5.5t-30 -19t-21 -35.5t-9 -55z" />
<glyph horiz-adv-x="0" />
<glyph unicode="&#xa1;" horiz-adv-x="948" d="M184 -543l287 1061h293l-205 -1061h-375zM491 889q0 37 14 69.5t38 56.5t56 38t68 14q38 0 70.5 -14t56.5 -38t38 -56.5t14 -69.5t-14 -69.5t-38 -56.5t-56.5 -38t-70.5 -14q-36 0 -68 14t-56 38t-38 56.5t-14 69.5z" />
<glyph unicode="&#xa2;" horiz-adv-x="1171" d="M102 436q0 122 38 225t104 182.5t155.5 132.5t192.5 76l65 277h332l-70 -299q75 -33 134 -88h192l-63 -274h-330q-16 42 -59 68t-93 26q-56 0 -105.5 -22.5t-86.5 -62t-58.5 -92t-21.5 -112.5q0 -45 14.5 -80.5t38.5 -61t56 -39t67 -13.5q83 0 138.5 38.5t91.5 100.5 l272 -148q-27 -53 -69 -100.5t-97 -85t-120.5 -63.5t-140.5 -37l-52 -226h-332l61 266q-58 28 -105 71t-80 96t-51 115t-18 130z" />
<glyph unicode="&#xa3;" horiz-adv-x="1180" d="M61 0l64 274h161q26 54 43 118t14.5 99.5t-8.5 92.5h-183l57 245h99l-1 45q0 145 43 254.5t115.5 183t167 110t198.5 36.5q107 0 188.5 -27.5t134 -82.5t74 -137.5t7.5 -192.5l-326 -12q8 40 3.5 69.5t-17.5 49.5t-33.5 30t-44.5 10q-29 0 -56.5 -11t-48.5 -35t-33.5 -63 t-12.5 -95q3 -95 7 -132h267l-57 -245h-171q-1 -76 -29 -158t-79 -152h420l-63 -274h-900z" />
<glyph unicode="&#xa4;" horiz-adv-x="1497" d="M61 299l236 206q-14 37 -20.5 76t-6.5 81q0 101 34 192t94 167l-142 208l303 229l149 -217q52 19 106.5 29t111.5 10t108.5 -13.5t97.5 -37.5l254 223l213 -248l-253 -221q14 -38 22 -79t8 -83q0 -102 -35 -193.5t-96 -168.5l133 -191l-303 -227l-140 199 q-52 -18 -106 -27.5t-110 -9.5q-58 0 -111 13.5t-100 39.5l-234 -203zM563 694q0 -43 14.5 -80t40.5 -64t63.5 -42.5t82.5 -15.5q60 0 117 24t101.5 65t71.5 95t27 115q0 43 -14.5 80.5t-41 65t-63.5 43t-81 15.5q-61 0 -118 -24.5t-101.5 -65.5t-71.5 -95.5t-27 -115.5z " />
<glyph unicode="&#xa5;" horiz-adv-x="1511" d="M184 356l58 248h362l15 72h-361l57 248h173l-161 317h-126l63 275h613l-64 -275h-113l139 -317l282 317h-81l64 275h612l-63 -275h-111l-323 -317h145l-57 -248h-348l-16 -72h347l-57 -248h-347l-19 -82h182l-64 -274h-676l64 274h155l19 82h-363z" />
<glyph unicode="&#xa6;" horiz-adv-x="647" d="M-37 -268l172 749h272l-172 -749h-272zM249 979l174 750h273l-175 -750h-272z" />
<glyph unicode="&#xa7;" horiz-adv-x="1223" d="M-61 -203l63 275h369l-18 -77l-3 -19t3.5 -49t26 -51t53 -32.5t81.5 -11.5q44 0 78 11.5t57.5 31t36 46t12.5 56.5q0 25 -11.5 41.5t-30 28.5t-41 20.5t-44.5 16.5l-196 68q-51 18 -92.5 50.5t-70.5 78t-44.5 103.5t-15.5 126q0 123 51.5 210.5t139.5 143.5 q-30 45 -47 102.5t-17 129.5q0 110 44.5 194.5t121.5 141.5t181.5 86.5t223.5 29.5q97 0 174.5 -22t132.5 -57.5t86.5 -81t37.5 -91.5h108l-64 -274h-371l18 78q4 37 -4.5 67t-28.5 51t-50 32.5t-68 11.5q-35 0 -67.5 -7.5t-57 -23.5t-39 -41t-14.5 -60q0 -30 14.5 -48.5 t37 -30t50.5 -19.5t54 -18l143 -52q67 -25 116 -51t80.5 -63.5t46.5 -91t15 -133.5q0 -53 -13 -103.5t-37 -97t-58.5 -87.5t-77.5 -76q29 -42 45 -99.5t16 -124.5q0 -111 -45 -203.5t-124.5 -159.5t-188.5 -104t-236 -37q-83 0 -156.5 18t-130.5 52.5t-94.5 83.5t-49.5 112 h-111zM518 547q0 -24 9.5 -40.5t24.5 -27.5t34.5 -19t40.5 -15l71 -26q30 6 53.5 19.5t39 32.5t24 41.5t8.5 48.5q0 28 -14 46.5t-44 34.5l-92 36q-29 -1 -57 -8.5t-50 -22.5t-35 -39.5t-13 -60.5z" />
<glyph unicode="&#xa8;" horiz-adv-x="940" d="M47 1343q0 37 13.5 69.5t37.5 57t56.5 38.5t70.5 14q36 0 68 -14t56 -38.5t38 -57t14 -69.5t-14 -69.5t-38 -56.5t-56 -38t-68 -14q-38 0 -70.5 14t-56.5 38t-37.5 56.5t-13.5 69.5zM526 1343q0 37 14 69.5t38 57t56.5 38.5t70.5 14q36 0 68 -14t56 -38.5t38 -57 t14 -69.5t-14 -69.5t-38 -56.5t-56 -38t-68 -14q-38 0 -70.5 14t-56.5 38t-38 56.5t-14 69.5z" />
<glyph unicode="&#xa9;" horiz-adv-x="1919" d="M102 831q0 118 30.5 227.5t86 204.5t133.5 173t173 133.5t204.5 86t228.5 30.5q118 0 228 -30.5t205.5 -86t174 -133.5t134.5 -173t86.5 -204.5t30.5 -227.5q0 -119 -30.5 -228.5t-86.5 -204.5t-134.5 -173t-174 -133.5t-205.5 -86t-228 -30.5q-119 0 -228.5 30.5 t-204.5 86t-173 133.5t-133.5 173t-86 204.5t-30.5 228.5zM330 831q0 -88 22 -169t62.5 -151t97.5 -127.5t127 -98t150.5 -62.5t168.5 -22t169 22t150.5 62.5t126.5 98t97.5 127.5t62.5 151t22 169t-22 169t-62.5 150.5t-97.5 127t-126.5 98t-150.5 62.5t-169 22 q-87 0 -168 -22t-151 -62.5t-127 -98t-97.5 -127t-62.5 -150.5t-22 -169zM472 831q0 104 39 194.5t106.5 157.5t158 106t193.5 39q112 0 207.5 -43t164.5 -117l-193 -195q-32 42 -78.5 64.5t-100.5 22.5q-49 0 -90 -17.5t-71.5 -49t-48.5 -73.5t-18 -89t18 -89t48.5 -73 t71.5 -48.5t90 -17.5q53 0 99 20.5t81 62.5l190 -191q-70 -74 -164.5 -117.5t-205.5 -43.5q-103 0 -193.5 39t-158 106.5t-106.5 157.5t-39 194z" />
<glyph unicode="&#xaa;" horiz-adv-x="1032" d="M205 1038q0 57 25.5 102.5t71.5 77.5t109.5 49t139.5 17q51 0 95.5 -4.5t81.5 -11.5q0 1 0.5 2t0.5 2q10 49 -27 74.5t-106 25.5q-63 0 -117.5 -11.5t-111.5 -37.5l-39 137q86 53 173.5 80t180.5 27q49 0 94.5 -8.5t82.5 -26.5t64 -46.5t40 -67.5q5 -16 7.5 -33t2.5 -37 q0 -28 -4.5 -62t-12.5 -72.5t-18 -79t-21 -81.5h95l-47 -211h-332l11 49q-40 -29 -88.5 -47.5t-111.5 -18.5q-57 0 -101 18t-75 47.5t-47 68t-16 79.5zM432 1057q0 -20 19 -39t65 -19q47 0 88 10.5t75 32.5l17 80h-142q-24 0 -46.5 -2.5t-39 -9t-26.5 -19.5t-10 -34z" />
<glyph unicode="&#xab;" horiz-adv-x="1069" d="M123 535l18 73l330 361h240l-355 -424l166 -389h-223zM563 535l19 73l329 361h240l-355 -424l167 -389h-224z" />
<glyph unicode="&#xac;" horiz-adv-x="1821" d="M242 762l63 274h1475l-183 -788h-286l119 514h-1188z" />
<glyph unicode="&#xad;" horiz-adv-x="831" d="M143 449l64 274h627l-64 -274h-627z" />
<glyph unicode="&#xae;" horiz-adv-x="2048" d="M102 831q0 118 30.5 227.5t86 204.5t133.5 173t173 133.5t204.5 86t228.5 30.5q118 0 228 -30.5t205.5 -86t174 -133.5t134.5 -173t86.5 -204.5t30.5 -227.5q0 -119 -30.5 -228.5t-86.5 -204.5t-134.5 -173t-174 -133.5t-205.5 -86t-228 -30.5q-119 0 -228.5 30.5 t-204.5 86t-173 133.5t-133.5 173t-86 204.5t-30.5 228.5zM317 831q0 -90 22.5 -172.5t64 -154t99.5 -130t129.5 -100t153.5 -64t172 -22.5t172.5 22.5t153.5 64t129 100t99.5 130t64 154t22.5 172.5t-22.5 172.5t-64 153.5t-99.5 129.5t-129 100t-153.5 64t-172.5 22.5 q-89 0 -171.5 -22.5t-154 -64t-129.5 -100t-99.5 -129.5t-64 -153.5t-22.5 -172.5zM528 373v212h95v497h-91v211h532q79 0 138 -25t98.5 -64.5t59.5 -87.5t20 -93q0 -52 -17.5 -96t-55.5 -79t-86 -54q35 -14 56 -41t33 -88l15 -80h78v-212h-328l-15 194q-5 63 -14.5 85 t-29.5 34t-69 12h-66v-113h79v-212h-432zM881 900h66q69 0 109 19.5t40 69.5q0 44 -38 68.5t-102 24.5h-75v-182z" />
<glyph unicode="&#xaf;" horiz-adv-x="831" d="M82 1176v215h688v-215h-688z" />
<glyph unicode="&#xb0;" horiz-adv-x="815" d="M102 1397q0 64 24 120t66 98t98 66.5t120 24.5t120 -23.5t97 -65t64.5 -98.5t23.5 -124q0 -65 -23.5 -121.5t-64.5 -99t-97 -67t-120 -24.5q-65 0 -121.5 24.5t-98 67t-65 100t-23.5 122.5zM258 1389q0 -29 12 -56t32 -47.5t46 -32.5t55 -12q34 0 62.5 11t48.5 31 t31.5 48t11.5 62t-11 63t-31 49t-47.5 31.5t-59.5 11.5t-59 -12t-47.5 -33.5t-32 -50.5t-11.5 -63z" />
<glyph unicode="&#xb1;" horiz-adv-x="1298" d="M1 0l63 274h1024l-63 -274h-1024zM152 660l67 297h363l63 296h297l-63 -296h364l-67 -297h-365l-71 -291h-297l71 291h-362z" />
<glyph unicode="&#xb2;" horiz-adv-x="860" d="M205 842l45 192l315 201q25 16 41 31t24.5 27.5t11.5 22.5t3 17q0 14 -10.5 23.5t-32.5 9.5q-20 0 -33 -7.5t-21 -18t-12 -21t-6 -16.5h-225q15 71 49.5 123t82.5 86t106.5 50.5t122.5 16.5q43 0 85.5 -11.5t75.5 -35t53.5 -59.5t20.5 -84q0 -39 -9.5 -68.5t-26.5 -53.5 t-42.5 -44.5t-56.5 -42.5l-190 -133h249l-47 -205h-573z" />
<glyph unicode="&#xb3;" horiz-adv-x="797" d="M167 996q-8 49 5 106h219q-3 -15 -1.5 -29.5t8.5 -26t19.5 -19t31.5 -7.5t35 7.5t28 19t18.5 24.5t6.5 25q0 15 -12 28t-46 13h-102l31 133h112q18 0 29.5 8.5t18 20t9.5 24t3 20.5q0 16 -9 27.5t-30 11.5q-29 0 -52 -15.5t-32 -55.5h-219q10 57 38.5 106.5t73 86t104 57 t132.5 20.5q49 0 91.5 -15.5t73.5 -42.5t48.5 -64t17.5 -79q0 -29 -7.5 -53t-19.5 -44t-26 -35.5t-27 -26.5q15 -16 24 -46t9 -61q0 -53 -29 -103.5t-78.5 -89.5t-114.5 -63t-136 -24q-74 0 -125.5 20.5t-81.5 56.5t-38 85z" />
<glyph unicode="&#xb4;" horiz-adv-x="680" d="M41 1178l215 311h326v-25l-306 -286h-235z" />
<glyph unicode="&#xb5;" horiz-adv-x="1348" d="M0 -471l348 1507h320l-140 -601q-6 -40 1.5 -71.5t26.5 -53.5t48.5 -34t67.5 -12q24 0 48.5 6.5t47.5 18.5t44.5 28.5t39.5 37.5l158 681h319l-176 -762h162l-64 -274h-471l19 81q-27 -22 -56.5 -39.5t-63 -29.5t-71 -18t-80.5 -6q-26 0 -51.5 3t-49.5 8l-108 -470h-319z " />
<glyph unicode="&#xb6;" horiz-adv-x="1446" d="M205 913q0 82 25 159t71 144t111 122t145 95t173 61.5t196 21.5h684l-64 -275h-141l-371 -1603h-293l371 1603h-172l-371 -1603h-293l207 895q-60 19 -110.5 52.5t-88 81t-58.5 109.5t-21 137z" />
<glyph unicode="&#xb7;" horiz-adv-x="539" d="M143 653q0 37 14 69.5t38 56.5t56.5 38t70.5 14q36 0 68 -14t56 -38t38 -56.5t14 -69.5t-14 -69.5t-38 -56.5t-56 -38t-68 -14q-38 0 -70.5 14t-56.5 38t-38 56.5t-14 69.5z" />
<glyph unicode="&#xb8;" horiz-adv-x="705" d="M102 -289q52 12 90.5 32.5t66.5 50t47 69t32 90.5l264 -92q-29 -69 -72 -123.5t-98.5 -93.5t-121 -63.5t-138.5 -33.5z" />
<glyph unicode="&#xb9;" horiz-adv-x="715" d="M184 840l45 194h131l57 250l-157 -67l53 233l269 127h112l-125 -543h121l-45 -194h-461z" />
<glyph unicode="&#xba;" horiz-adv-x="823" d="M205 1167q0 87 33.5 162t93.5 130t141.5 86.5t177.5 31.5q73 0 134.5 -27t106.5 -72t70 -103t25 -120q0 -84 -33.5 -159.5t-93 -131.5t-141 -89t-178.5 -33q-74 0 -135.5 25.5t-106 69.5t-69.5 103t-25 127zM444 1186q0 -25 8.5 -46.5t24 -37t39 -24.5t53.5 -9 q37 0 69 14t56 37t37.5 53t13.5 62q0 24 -8.5 45t-24 36t-38 23.5t-49.5 8.5q-37 0 -70 -13t-57.5 -35t-39 -51.5t-14.5 -62.5z" />
<glyph unicode="&#xbb;" horiz-adv-x="1069" d="M41 156l345 423l-157 390h224l176 -379l-19 -74l-329 -360h-240zM481 156l345 423l-156 390h223l176 -379l-18 -74l-330 -360h-240z" />
<glyph unicode="&#xbc;" horiz-adv-x="2025" d="M-4 -61l1630 1638h301l-1624 -1638h-307zM241 840l45 194h131l57 250l-157 -67l53 233l269 127h112l-125 -543h121l-45 -194h-461zM1109 182l35 166l376 416h216l-380 -422h167l38 166h203l-38 -166h106l-37 -160h-106l-42 -182h-202l41 182h-377z" />
<glyph unicode="&#xbd;" horiz-adv-x="1964" d="M-4 -61l1630 1638h301l-1624 -1638h-307zM241 840l45 194h131l57 250l-157 -67l53 233l269 127h112l-125 -543h121l-45 -194h-461zM1106 0l45 193l322 221q25 17 40 32.5t23.5 27.5t11 20.5t2.5 11.5q0 17 -10.5 24t-30.5 7q-17 0 -29.5 -6t-21.5 -15t-15 -20.5t-9 -22.5 h-226q16 72 50.5 124t82.5 86t106 50.5t122 16.5q45 0 87 -10.5t75 -33.5t53 -59.5t20 -87.5q0 -41 -10.5 -69.5t-24.5 -47t-27 -29t-18 -14.5l-243 -174h250l-52 -225h-573z" />
<glyph unicode="&#xbe;" horiz-adv-x="2025" d="M37 -61l1630 1638h301l-1624 -1638h-307zM171 952q-8 49 5 106h219q-3 -15 -1.5 -29.5t8.5 -26t19.5 -19t31.5 -7.5t35 7.5t28 19t18.5 24.5t6.5 25q0 15 -12 28t-46 13h-102l31 133h112q18 0 29.5 8.5t18 20t9.5 24t3 20.5q0 16 -9 27.5t-30 11.5q-29 0 -52 -15.5 t-32 -55.5h-219q10 57 38.5 106.5t73 86t104 57t132.5 20.5q49 0 91.5 -15.5t73.5 -42.5t48.5 -64t17.5 -79q0 -29 -7.5 -53t-19.5 -44t-26 -35.5t-27 -26.5q15 -16 24 -46t9 -61q0 -53 -29 -103.5t-78.5 -89.5t-114.5 -63t-136 -24q-74 0 -125.5 20.5t-81.5 56.5t-38 85z M1129 182l35 166l376 416h216l-380 -422h167l38 166h203l-38 -166h106l-37 -160h-106l-42 -182h-202l41 182h-377z" />
<glyph unicode="&#xbf;" horiz-adv-x="1044" d="M41 -143q0 60 9.5 115t35 106.5t71 99.5t117.5 94q38 25 71.5 45t62.5 38.5t53 38t43.5 44t34 55t24.5 70.5h320q-12 -63 -28.5 -111t-37 -85.5t-47 -67t-59 -56t-71.5 -52.5t-85 -56q-50 -33 -81 -63.5t-48 -59.5t-23 -57.5t-6 -58.5q0 -25 8 -45.5t21.5 -35t32 -22.5 t39.5 -8t44.5 7t44.5 25t38.5 50t27.5 82l330 -33q-23 -108 -69 -189t-113 -135.5t-153 -82t-189 -27.5q-88 0 -164 28t-132.5 78t-89 119t-32.5 150zM590 889q0 37 14 69.5t38 56.5t56 38t68 14q38 0 70.5 -14t56.5 -38t38 -56.5t14 -69.5t-14 -69.5t-38 -56.5t-56.5 -38 t-70.5 -14q-36 0 -68 14t-56 38t-38 56.5t-14 69.5z" />
<glyph unicode="&#xc0;" d="M-102 0l63 274h128l689 1242h436l114 -1242h192l-64 -274h-612l63 274h84l-16 209h-418l-111 -209h127l-63 -274h-612zM568 1944v25h326l196 -311h-229zM711 772h243l-30 402z" />
<glyph unicode="&#xc1;" d="M-102 0l63 274h128l689 1242h436l114 -1242h192l-64 -274h-612l63 274h84l-16 209h-418l-111 -209h127l-63 -274h-612zM711 772h243l-30 402zM841 1658l215 311h326v-25l-306 -286h-235z" />
<glyph unicode="&#xc2;" d="M-102 0l63 274h128l689 1242h436l114 -1242h192l-64 -274h-612l63 274h84l-16 209h-418l-111 -209h127l-63 -274h-612zM600 1658l357 325h239l197 -325h-248l-96 157l-172 -157h-277zM711 772h243l-30 402z" />
<glyph unicode="&#xc3;" d="M-102 0l63 274h128l689 1242h436l114 -1242h192l-64 -274h-612l63 274h84l-16 209h-418l-111 -209h127l-63 -274h-612zM650 1744q14 54 47.5 94t74.5 67t84.5 40.5t78.5 13.5q42 0 81 -14.5t76.5 -32t73 -32t70.5 -14.5q42 0 74.5 15t58.5 53l158 -70q-15 -45 -42.5 -84 t-63.5 -68.5t-79 -46t-90 -16.5q-52 0 -94 13.5t-79.5 30t-73.5 30.5t-76 14q-45 0 -76 -18.5t-51 -44.5zM711 772h243l-30 402z" />
<glyph unicode="&#xc4;" d="M-102 0l63 274h128l689 1242h436l114 -1242h192l-64 -274h-612l63 274h84l-16 209h-418l-111 -209h127l-63 -274h-612zM711 772h243l-30 402zM716 1821q0 37 13.5 69.5t37.5 57t56.5 38.5t70.5 14q36 0 68 -14t56 -38.5t38 -57t14 -69.5t-14 -69.5t-38 -56.5t-56 -38 t-68 -14q-38 0 -70.5 14t-56.5 38t-37.5 56.5t-13.5 69.5zM1195 1821q0 37 14 69.5t38 57t56.5 38.5t70.5 14q36 0 68 -14t56 -38.5t38 -57t14 -69.5t-14 -69.5t-38 -56.5t-56 -38t-68 -14q-38 0 -70.5 14t-56.5 38t-38 56.5t-14 69.5z" />
<glyph unicode="&#xc5;" d="M-102 0l63 274h128l627 1130q-34 36 -52.5 80.5t-18.5 94.5q0 59 26.5 111t72.5 91t107 61.5t130 22.5t130.5 -22.5t107.5 -61.5t73 -91t27 -111q0 -57 -24.5 -107.5t-68.5 -89.5l102 -1108h192l-64 -274h-612l63 274h84l-16 209h-418l-111 -209h127l-63 -274h-612z M711 772h243l-30 402zM854 1579q0 -24 10 -44.5t27 -35.5t40.5 -24t49.5 -9q27 0 50 9t40 24t26.5 35.5t9.5 44.5q0 23 -9.5 43.5t-26.5 35.5t-40 23.5t-50 8.5q-26 0 -49.5 -8.5t-40.5 -23.5t-27 -35.5t-10 -43.5z" />
<glyph unicode="&#xc6;" horiz-adv-x="2191" d="M-143 0l63 274h137l967 1242h1352l-119 -517h-350l55 242h-421l-76 -326h337l-67 -290h-337l-82 -351h396l62 269h350l-125 -543h-1096l28 121l84 362h-402l-163 -209h146l-64 -274h-675zM837 772h245l104 448z" />
<glyph unicode="&#xc7;" horiz-adv-x="1493" d="M102 608q0 142 36 266.5t99.5 228.5t150 186t188 138.5t213 86.5t225.5 30q91 0 168 -19t141 -54t102.5 -73.5t61.5 -68.5h190l-63 -274h-389q-26 68 -91.5 110.5t-162.5 42.5q-68 0 -132 -21.5t-120.5 -60t-103 -91.5t-80 -116t-52 -133.5t-18.5 -144.5q0 -75 21 -136.5 t60.5 -106t95 -69t124.5 -24.5q55 0 103 15t89.5 41.5t75.5 62t62 76.5l317 -158q-114 -180 -286.5 -276.5t-399.5 -96.5q-136 0 -250.5 46.5t-198 130.5t-130 201.5t-46.5 260.5zM268 -289q52 12 90.5 32.5t66.5 50t47 69t32 90.5l264 -92q-29 -69 -72 -123.5t-98.5 -93.5 t-121 -63.5t-138.5 -33.5z" />
<glyph unicode="&#xc8;" horiz-adv-x="1505" d="M61 0l64 274h155l224 967h-174l63 275h1297l-119 -517h-350l55 242h-421l-76 -326h337l-67 -290h-337l-82 -351h396l61 269h351l-125 -543h-1252zM775 1944v25h326l196 -311h-229z" />
<glyph unicode="&#xc9;" horiz-adv-x="1505" d="M61 0l64 274h155l224 967h-174l63 275h1297l-119 -517h-350l55 242h-421l-76 -326h337l-67 -290h-337l-82 -351h396l61 269h351l-125 -543h-1252zM953 1658l215 311h326v-25l-306 -286h-235z" />
<glyph unicode="&#xca;" horiz-adv-x="1505" d="M61 0l64 274h155l224 967h-174l63 275h1297l-119 -517h-350l55 242h-421l-76 -326h337l-67 -290h-337l-82 -351h396l61 269h351l-125 -543h-1252zM713 1658l357 325h239l197 -325h-248l-96 157l-172 -157h-277z" />
<glyph unicode="&#xcb;" horiz-adv-x="1505" d="M61 0l64 274h155l224 967h-174l63 275h1297l-119 -517h-350l55 242h-421l-76 -326h337l-67 -290h-337l-82 -351h396l61 269h351l-125 -543h-1252zM646 1821q0 37 13.5 69.5t37.5 57t56.5 38.5t70.5 14q36 0 68 -14t56 -38.5t38 -57t14 -69.5t-14 -69.5t-38 -56.5t-56 -38 t-68 -14q-38 0 -70.5 14t-56.5 38t-37.5 56.5t-13.5 69.5zM1125 1821q0 37 14 69.5t38 57t56.5 38.5t70.5 14q36 0 68 -14t56 -38.5t38 -57t14 -69.5t-14 -69.5t-38 -56.5t-56 -38t-68 -14q-38 0 -70.5 14t-56.5 38t-38 56.5t-14 69.5z" />
<glyph unicode="&#xcc;" horiz-adv-x="926" d="M61 0l64 274h155l224 967h-174l63 275h676l-63 -275h-151l-225 -967h171l-64 -274h-676zM426 1944v25h326l196 -311h-229z" />
<glyph unicode="&#xcd;" horiz-adv-x="926" d="M61 0l64 274h155l224 967h-174l63 275h676l-63 -275h-151l-225 -967h171l-64 -274h-676zM604 1658l215 311h326v-25l-306 -286h-235z" />
<glyph unicode="&#xce;" horiz-adv-x="926" d="M61 0l64 274h155l224 967h-174l63 275h676l-63 -275h-151l-225 -967h171l-64 -274h-676zM364 1658l357 325h239l197 -325h-248l-96 157l-172 -157h-277z" />
<glyph unicode="&#xcf;" horiz-adv-x="926" d="M61 0l64 274h155l224 967h-174l63 275h676l-63 -275h-151l-225 -967h171l-64 -274h-676zM297 1821q0 37 13.5 69.5t37.5 57t56.5 38.5t70.5 14q36 0 68 -14t56 -38.5t38 -57t14 -69.5t-14 -69.5t-38 -56.5t-56 -38t-68 -14q-38 0 -70.5 14t-56.5 38t-37.5 56.5 t-13.5 69.5zM776 1821q0 37 14 69.5t38 57t56.5 38.5t70.5 14q36 0 68 -14t56 -38.5t38 -57t14 -69.5t-14 -69.5t-38 -56.5t-56 -38t-68 -14q-38 0 -70.5 14t-56.5 38t-38 56.5t-14 69.5z" />
<glyph unicode="&#xd0;" horiz-adv-x="1585" d="M-20 0l64 274h155l85 366h-196l64 274h195l76 327h-156l64 275h608q137 0 252 -42t198.5 -121.5t130 -195.5t46.5 -264q0 -125 -29 -239.5t-85 -213.5t-138 -180t-188 -139t-235.5 -89.5t-279.5 -31.5h-631zM549 274h107q73 0 141.5 21.5t129 60t111 92.5t87 119.5 t56.5 140.5t20 156q0 105 -26.5 177t-71 116.5t-102.5 64t-121 19.5h-106l-76 -327h252l-64 -274h-252z" />
<glyph unicode="&#xd1;" horiz-adv-x="1786" d="M61 0l64 274h135l223 967h-164l64 275h516l374 -936l154 661h-133l64 275h612l-63 -275h-130l-286 -1241h-344l-386 935l-153 -661h129l-63 -274h-613zM678 1744q14 54 47.5 94t74.5 67t84.5 40.5t78.5 13.5q42 0 81 -14.5t76.5 -32t73 -32t70.5 -14.5q42 0 74.5 15 t58.5 53l158 -70q-15 -45 -42.5 -84t-63.5 -68.5t-79 -46t-90 -16.5q-52 0 -94 13.5t-79.5 30t-73.5 30.5t-76 14q-45 0 -76 -18.5t-51 -44.5z" />
<glyph unicode="&#xd2;" horiz-adv-x="1597" d="M123 608q0 142 36 266.5t99.5 228.5t150 186t187.5 138.5t212.5 86.5t225.5 30q142 0 257.5 -47t197 -131.5t126 -202.5t44.5 -260q0 -139 -33.5 -262t-94.5 -227t-145 -186.5t-185.5 -140t-216 -88t-236.5 -30.5q-136 0 -250.5 46.5t-198 130.5t-130 201.5t-46.5 260.5z M485 641q0 -75 21 -136.5t60.5 -106t95 -69t124.5 -24.5q67 0 131 21.5t120 59.5t103 91t80.5 116t52.5 134t19 145q0 75 -20.5 136.5t-59.5 106t-95 69t-126 24.5q-102 0 -194 -47t-161 -126t-110 -181t-41 -213zM709 1944v25h326l196 -311h-229z" />
<glyph unicode="&#xd3;" horiz-adv-x="1597" d="M123 608q0 142 36 266.5t99.5 228.5t150 186t187.5 138.5t212.5 86.5t225.5 30q142 0 257.5 -47t197 -131.5t126 -202.5t44.5 -260q0 -139 -33.5 -262t-94.5 -227t-145 -186.5t-185.5 -140t-216 -88t-236.5 -30.5q-136 0 -250.5 46.5t-198 130.5t-130 201.5t-46.5 260.5z M485 641q0 -75 21 -136.5t60.5 -106t95 -69t124.5 -24.5q67 0 131 21.5t120 59.5t103 91t80.5 116t52.5 134t19 145q0 75 -20.5 136.5t-59.5 106t-95 69t-126 24.5q-102 0 -194 -47t-161 -126t-110 -181t-41 -213zM887 1658l215 311h326v-25l-306 -286h-235z" />
<glyph unicode="&#xd4;" horiz-adv-x="1597" d="M123 608q0 142 36 266.5t99.5 228.5t150 186t187.5 138.5t212.5 86.5t225.5 30q142 0 257.5 -47t197 -131.5t126 -202.5t44.5 -260q0 -139 -33.5 -262t-94.5 -227t-145 -186.5t-185.5 -140t-216 -88t-236.5 -30.5q-136 0 -250.5 46.5t-198 130.5t-130 201.5t-46.5 260.5z M485 641q0 -75 21 -136.5t60.5 -106t95 -69t124.5 -24.5q67 0 131 21.5t120 59.5t103 91t80.5 116t52.5 134t19 145q0 75 -20.5 136.5t-59.5 106t-95 69t-126 24.5q-102 0 -194 -47t-161 -126t-110 -181t-41 -213zM647 1658l357 325h239l197 -325h-248l-96 157l-172 -157 h-277z" />
<glyph unicode="&#xd5;" horiz-adv-x="1597" d="M123 608q0 142 36 266.5t99.5 228.5t150 186t187.5 138.5t212.5 86.5t225.5 30q142 0 257.5 -47t197 -131.5t126 -202.5t44.5 -260q0 -139 -33.5 -262t-94.5 -227t-145 -186.5t-185.5 -140t-216 -88t-236.5 -30.5q-136 0 -250.5 46.5t-198 130.5t-130 201.5t-46.5 260.5z M485 641q0 -75 21 -136.5t60.5 -106t95 -69t124.5 -24.5q67 0 131 21.5t120 59.5t103 91t80.5 116t52.5 134t19 145q0 75 -20.5 136.5t-59.5 106t-95 69t-126 24.5q-102 0 -194 -47t-161 -126t-110 -181t-41 -213zM514 1744q14 54 47.5 94t74.5 67t84.5 40.5t78.5 13.5 q42 0 81 -14.5t76.5 -32t73 -32t70.5 -14.5q42 0 74.5 15t58.5 53l158 -70q-15 -45 -42.5 -84t-63.5 -68.5t-79 -46t-90 -16.5q-52 0 -94 13.5t-79.5 30t-73.5 30.5t-76 14q-45 0 -76 -18.5t-51 -44.5z" />
<glyph unicode="&#xd6;" horiz-adv-x="1597" d="M123 608q0 142 36 266.5t99.5 228.5t150 186t187.5 138.5t212.5 86.5t225.5 30q142 0 257.5 -47t197 -131.5t126 -202.5t44.5 -260q0 -139 -33.5 -262t-94.5 -227t-145 -186.5t-185.5 -140t-216 -88t-236.5 -30.5q-136 0 -250.5 46.5t-198 130.5t-130 201.5t-46.5 260.5z M485 641q0 -75 21 -136.5t60.5 -106t95 -69t124.5 -24.5q67 0 131 21.5t120 59.5t103 91t80.5 116t52.5 134t19 145q0 75 -20.5 136.5t-59.5 106t-95 69t-126 24.5q-102 0 -194 -47t-161 -126t-110 -181t-41 -213zM580 1821q0 37 13.5 69.5t37.5 57t56.5 38.5t70.5 14 q36 0 68 -14t56 -38.5t38 -57t14 -69.5t-14 -69.5t-38 -56.5t-56 -38t-68 -14q-38 0 -70.5 14t-56.5 38t-37.5 56.5t-13.5 69.5zM1059 1821q0 37 14 69.5t38 57t56.5 38.5t70.5 14q36 0 68 -14t56 -38.5t38 -57t14 -69.5t-14 -69.5t-38 -56.5t-56 -38t-68 -14 q-38 0 -70.5 14t-56.5 38t-38 56.5t-14 69.5z" />
<glyph unicode="&#xd7;" horiz-adv-x="1262" d="M31 301l435 379l-259 377l254 192l247 -359l427 372l188 -215l-453 -393l252 -365l-254 -191l-239 346l-410 -356z" />
<glyph unicode="&#xd8;" horiz-adv-x="1597" d="M-87 -61l306 308q-47 75 -71.5 165.5t-24.5 195.5q0 142 36 266.5t99.5 228.5t150 186t187.5 138.5t213 86.5t225 30q109 0 202 -28t168 -79l139 140h301l-291 -293q51 -78 78.5 -174t27.5 -207q0 -139 -33.5 -262t-94.5 -227t-145 -186.5t-185.5 -140t-216 -88 t-236.5 -30.5q-111 0 -207 30.5t-174 87.5l-147 -148h-307zM485 641q0 -31 3.5 -59t10.5 -54l641 644q-32 17 -69 26.5t-80 9.5q-102 0 -194 -47t-161 -126t-110 -181t-41 -213zM626 348q33 -21 73 -32t87 -11q67 0 131 21.5t120 59.5t103 91t80.5 116t52.5 134t19 145 q0 35 -5 67.5t-14 61.5z" />
<glyph unicode="&#xd9;" horiz-adv-x="1534" d="M205.5 424q-5.5 96 19.5 209l142 608h-150l64 275h612l-64 -275h-116l-146 -629q-21 -100 -12 -155.5t39 -95.5t74 -58t104 -18q58 0 104.5 16.5t83.5 55t65.5 101t49.5 154.5l145 629h-137l64 275h612l-63 -275h-130l-155 -674q-36 -158 -97 -271.5t-147 -186 t-197.5 -106.5t-248.5 -34q-113 0 -207.5 33.5t-163 94t-104 146t-41 181.5zM483 1944v25h326l196 -311h-229z" />
<glyph unicode="&#xda;" horiz-adv-x="1534" d="M205.5 424q-5.5 96 19.5 209l142 608h-150l64 275h612l-64 -275h-116l-146 -629q-21 -100 -12 -155.5t39 -95.5t74 -58t104 -18q58 0 104.5 16.5t83.5 55t65.5 101t49.5 154.5l145 629h-137l64 275h612l-63 -275h-130l-155 -674q-36 -158 -97 -271.5t-147 -186 t-197.5 -106.5t-248.5 -34q-113 0 -207.5 33.5t-163 94t-104 146t-41 181.5zM861 1658l215 311h326v-25l-306 -286h-235z" />
<glyph unicode="&#xdb;" horiz-adv-x="1534" d="M205.5 424q-5.5 96 19.5 209l142 608h-150l64 275h612l-64 -275h-116l-146 -629q-21 -100 -12 -155.5t39 -95.5t74 -58t104 -18q58 0 104.5 16.5t83.5 55t65.5 101t49.5 154.5l145 629h-137l64 275h612l-63 -275h-130l-155 -674q-36 -158 -97 -271.5t-147 -186 t-197.5 -106.5t-248.5 -34q-113 0 -207.5 33.5t-163 94t-104 146t-41 181.5zM621 1658l357 325h239l197 -325h-248l-96 157l-172 -157h-277z" />
<glyph unicode="&#xdc;" horiz-adv-x="1534" d="M205.5 424q-5.5 96 19.5 209l142 608h-150l64 275h612l-64 -275h-116l-146 -629q-21 -100 -12 -155.5t39 -95.5t74 -58t104 -18q58 0 104.5 16.5t83.5 55t65.5 101t49.5 154.5l145 629h-137l64 275h612l-63 -275h-130l-155 -674q-36 -158 -97 -271.5t-147 -186 t-197.5 -106.5t-248.5 -34q-113 0 -207.5 33.5t-163 94t-104 146t-41 181.5zM554 1821q0 37 13.5 69.5t37.5 57t56.5 38.5t70.5 14q36 0 68 -14t56 -38.5t38 -57t14 -69.5t-14 -69.5t-38 -56.5t-56 -38t-68 -14q-38 0 -70.5 14t-56.5 38t-37.5 56.5t-13.5 69.5zM1033 1821 q0 37 14 69.5t38 57t56.5 38.5t70.5 14q36 0 68 -14t56 -38.5t38 -57t14 -69.5t-14 -69.5t-38 -56.5t-56 -38t-68 -14q-38 0 -70.5 14t-56.5 38t-38 56.5t-14 69.5z" />
<glyph unicode="&#xdd;" horiz-adv-x="1393" d="M184 1241l64 275h612l-63 -275h-105l133 -328l25 26l262 302h-88l63 275h613l-64 -275h-101l-594 -626l-79 -341h170l-63 -274h-676l63 274h160l82 361l-280 606h-134zM781 1658l215 311h326v-25l-306 -286h-235z" />
<glyph unicode="&#xde;" horiz-adv-x="1370" d="M61 0l64 274h155l223 967h-173l63 275h525l-37 -158l-36 -158h185q104 0 186 -29.5t139 -82t87.5 -124t30.5 -155.5q0 -86 -32.5 -164t-97 -141t-160.5 -106t-223 -58q-32 -4 -65.5 -6t-59.5 -2h-191l-77 -332h-506zM706 602h128q22 0 42 1.5t39 3.5q46 6 81.5 20.5 t60 37.5t37 54t12.5 72q0 62 -48.5 98.5t-154.5 36.5h-122z" />
<glyph unicode="&#xdf;" d="M20 0l64 274h188l209 906q20 86 70.5 158.5t124.5 125.5t167 83t199 30q94 0 170.5 -29.5t131 -79.5t84.5 -116t30 -138q0 -66 -17 -118t-44 -92.5t-62 -69.5t-71 -49q72 -54 113.5 -138t41.5 -184q0 -141 -50 -248.5t-137 -180t-204 -109.5t-250 -37q-20 0 -48.5 1.5 t-47.5 4.5l68 289q14 -3 32 -5t33 -2q50 0 97 19t84 52.5t59 78.5t22 96q0 34 -11.5 65t-33.5 53.5t-52.5 36t-68.5 13.5h-67l65 289h74q35 0 65.5 14.5t53 39t35 57t12.5 67.5q0 60 -35.5 100.5t-103.5 40.5q-36 0 -68 -12.5t-58 -35t-45 -55t-28 -71.5l-260 -1124h-531z " />
<glyph unicode="&#xe0;" horiz-adv-x="1391" d="M102 438q0 96 25 179.5t69 153t104.5 123.5t132 91t151 56.5t161.5 19.5q46 0 78.5 -6t74.5 -18t98 -52l12 51h340l-177 -762h191l-64 -274h-530l18 79q-37 -39 -98 -66q-65 -29 -153 -29q-81 0 -159 29t-138.5 86.5t-98 142.5t-37.5 196zM378 1464v25h326l196 -311h-229 zM440 485q0 -48 15 -84t41 -60t60 -36t73 -12q33 0 67.5 8.5t66.5 26t60 44.5l44 55l50 216q-12 23 -31 44.5t-47.5 37.5t-62 24.5t-67.5 8.5q-54 0 -103 -21.5t-85.5 -58t-58.5 -86.5t-22 -107z" />
<glyph unicode="&#xe1;" horiz-adv-x="1391" d="M102 438q0 96 25 179.5t69 153t104.5 123.5t132 91t151 56.5t161.5 19.5q46 0 78.5 -6t74.5 -18t98 -52l12 51h340l-177 -762h191l-64 -274h-530l18 79q-37 -39 -98 -66q-65 -29 -153 -29q-81 0 -159 29t-138.5 86.5t-98 142.5t-37.5 196zM440 485q0 -48 15 -84t41 -60 t60 -36t73 -12q33 0 67.5 8.5t66.5 26t60 44.5l44 55l50 216q-12 23 -31 44.5t-47.5 37.5t-62 24.5t-67.5 8.5q-54 0 -103 -21.5t-85.5 -58t-58.5 -86.5t-22 -107zM556 1178l215 311h326v-25l-306 -286h-235z" />
<glyph unicode="&#xe2;" horiz-adv-x="1391" d="M102 438q0 96 25 179.5t69 153t104.5 123.5t132 91t151 56.5t161.5 19.5q46 0 78.5 -6t74.5 -18t98 -52l12 51h340l-177 -762h191l-64 -274h-530l18 79q-37 -39 -98 -66q-65 -29 -153 -29q-81 0 -159 29t-138.5 86.5t-98 142.5t-37.5 196zM316 1178l357 325h239l197 -325 h-248l-96 157l-172 -157h-277zM440 485q0 -48 15 -84t41 -60t60 -36t73 -12q33 0 67.5 8.5t66.5 26t60 44.5l44 55l50 216q-12 23 -31 44.5t-47.5 37.5t-62 24.5t-67.5 8.5q-54 0 -103 -21.5t-85.5 -58t-58.5 -86.5t-22 -107z" />
<glyph unicode="&#xe3;" horiz-adv-x="1391" d="M102 438q0 96 25 179.5t69 153t104.5 123.5t132 91t151 56.5t161.5 19.5q46 0 78.5 -6t74.5 -18t98 -52l12 51h340l-177 -762h191l-64 -274h-530l18 79q-37 -39 -98 -66q-65 -29 -153 -29q-81 0 -159 29t-138.5 86.5t-98 142.5t-37.5 196zM183 1264q14 54 47.5 94 t74.5 67t84.5 40.5t78.5 13.5q42 0 81 -14.5t76.5 -32t73 -32t70.5 -14.5q42 0 74.5 15t58.5 53l158 -70q-15 -45 -42.5 -84t-63.5 -68.5t-79 -46t-90 -16.5q-52 0 -94 13.5t-79.5 30t-73.5 30.5t-76 14q-45 0 -76 -18.5t-51 -44.5zM440 485q0 -48 15 -84t41 -60t60 -36 t73 -12q33 0 67.5 8.5t66.5 26t60 44.5l44 55l50 216q-12 23 -31 44.5t-47.5 37.5t-62 24.5t-67.5 8.5q-54 0 -103 -21.5t-85.5 -58t-58.5 -86.5t-22 -107z" />
<glyph unicode="&#xe4;" horiz-adv-x="1391" d="M102 438q0 96 25 179.5t69 153t104.5 123.5t132 91t151 56.5t161.5 19.5q46 0 78.5 -6t74.5 -18t98 -52l12 51h340l-177 -762h191l-64 -274h-530l18 79q-37 -39 -98 -66q-65 -29 -153 -29q-81 0 -159 29t-138.5 86.5t-98 142.5t-37.5 196zM249 1343q0 37 13.5 69.5 t37.5 57t56.5 38.5t70.5 14q36 0 68 -14t56 -38.5t38 -57t14 -69.5t-14 -69.5t-38 -56.5t-56 -38t-68 -14q-38 0 -70.5 14t-56.5 38t-37.5 56.5t-13.5 69.5zM440 485q0 -48 15 -84t41 -60t60 -36t73 -12q33 0 67.5 8.5t66.5 26t60 44.5l44 55l50 216q-12 23 -31 44.5 t-47.5 37.5t-62 24.5t-67.5 8.5q-54 0 -103 -21.5t-85.5 -58t-58.5 -86.5t-22 -107zM728 1343q0 37 14 69.5t38 57t56.5 38.5t70.5 14q36 0 68 -14t56 -38.5t38 -57t14 -69.5t-14 -69.5t-38 -56.5t-56 -38t-68 -14q-38 0 -70.5 14t-56.5 38t-38 56.5t-14 69.5z" />
<glyph unicode="&#xe5;" horiz-adv-x="1391" d="M102 438q0 96 25 179.5t69 153t104.5 123.5t132 91t151 56.5t161.5 19.5q46 0 78.5 -6t74.5 -18t98 -52l12 51h340l-177 -762h191l-64 -274h-530l18 79q-37 -39 -98 -66q-65 -29 -153 -29q-81 0 -159 29t-138.5 86.5t-98 142.5t-37.5 196zM440 485q0 -48 15 -84t41 -60 t60 -36t73 -12q33 0 67.5 8.5t66.5 26t60 44.5l44 55l50 216q-12 23 -31 44.5t-47.5 37.5t-62 24.5t-67.5 8.5q-54 0 -103 -21.5t-85.5 -58t-58.5 -86.5t-22 -107zM649 1229q0 65 25 123t68 101t101 68t123 25t123 -25t101.5 -68t68.5 -101t25 -123t-25 -123t-68.5 -101.5 t-101.5 -68.5t-123 -25t-123 25t-101 68.5t-68 101.5t-25 123zM841 1229q0 -26 10 -49t27 -40t39.5 -26.5t48.5 -9.5t48.5 9.5t39 26.5t26 40t9.5 49t-9.5 48.5t-26 39t-39 26t-48.5 9.5t-48.5 -9.5t-39.5 -26t-27 -39t-10 -48.5z" />
<glyph unicode="&#xe6;" horiz-adv-x="1849" d="M41 268q0 55 15.5 103.5t45 89.5t72 73.5t97 55.5t119.5 35t140 12q69 0 123.5 -6.5t101.5 -17.5l7 30q9 39 1.5 67.5t-29 47t-56.5 27t-80 8.5q-47 0 -88.5 -4.5t-80.5 -13.5t-76 -22.5t-74 -31.5l-52 194q54 34 109.5 61t112.5 45.5t115.5 28t119.5 9.5 q100 0 181 -25.5t134 -79.5q79 54 172 83.5t195 29.5q100 0 185 -35.5t147 -95t96.5 -137.5t34.5 -162q0 -20 -2 -45t-6 -51.5t-10 -52.5t-13 -48h-739q2 -25 7.5 -47t16.5 -42t27 -35.5t37 -26.5t47.5 -17t58.5 -6q40 0 74 8t64 22.5t57.5 34.5t54.5 44l219 -193 q-50 -54 -108.5 -93t-124 -65t-137 -38.5t-146.5 -12.5q-60 0 -115.5 12t-105 35t-91.5 56.5t-74 76.5q-39 -40 -83 -72.5t-95.5 -56t-113 -36.5t-135.5 -13q-88 0 -154 24t-110 64.5t-66 93.5t-22 111zM330 299q0 -38 27 -63t85 -25q91 0 165.5 29.5t137.5 77.5 q-4 17 -6 34l-4 34q-2 19 -2 36h-203q-36 0 -71.5 -4t-64 -17t-46.5 -37.5t-18 -64.5zM1094 666h434q-2 27 -17.5 52.5t-41 45.5t-60 32.5t-76.5 12.5q-40 0 -77 -9.5t-68.5 -28t-55.5 -45t-38 -60.5z" />
<glyph unicode="&#xe7;" horiz-adv-x="1171" d="M102 436q0 143 51.5 259.5t138.5 199t201.5 127.5t241.5 45q80 0 148 -23t123 -63q25 -18 47 -39h192l-63 -274h-330q-16 42 -59 68t-93 26q-56 0 -105.5 -22.5t-86.5 -62t-58.5 -92t-21.5 -112.5q0 -45 14.5 -80.5t38.5 -61t56 -39t67 -13.5q83 0 138.5 38.5t91.5 100.5 l272 -148q-32 -62 -84 -116t-121 -94t-152.5 -62.5t-177.5 -22.5q-101 0 -186.5 36.5t-148.5 99t-98.5 146.5t-35.5 179zM167 -289q52 12 90.5 32.5t66.5 50t47 69t32 90.5l264 -92q-29 -69 -72 -123.5t-98.5 -93.5t-121 -63.5t-138.5 -33.5z" />
<glyph unicode="&#xe8;" horiz-adv-x="1178" d="M102 432q0 143 51.5 260t138.5 200.5t201.5 129t241.5 45.5q101 0 186 -35.5t146.5 -95t96 -137.5t34.5 -162q0 -20 -2 -45t-6 -51.5t-10 -52.5t-13 -48h-739q2 -24 8 -46q10 -38 33.5 -66.5t61.5 -45t92 -16.5q40 0 73.5 8t63.5 22.5t57.5 34.5t54.5 44l220 -193 q-101 -108 -233 -158.5t-284 -50.5q-98 0 -184 32t-150 91.5t-101.5 144.5t-37.5 191zM464 666h433q-2 27 -17.5 52.5t-41 45.5t-60 32.5t-76.5 12.5q-50 0 -95.5 -15t-80 -43.5t-55.5 -70.5q-4 -7 -7 -14zM530 1464v25h326l196 -311h-229z" />
<glyph unicode="&#xe9;" horiz-adv-x="1178" d="M102 432q0 143 51.5 260t138.5 200.5t201.5 129t241.5 45.5q101 0 186 -35.5t146.5 -95t96 -137.5t34.5 -162q0 -20 -2 -45t-6 -51.5t-10 -52.5t-13 -48h-739q2 -24 8 -46q10 -38 33.5 -66.5t61.5 -45t92 -16.5q40 0 73.5 8t63.5 22.5t57.5 34.5t54.5 44l220 -193 q-101 -108 -233 -158.5t-284 -50.5q-98 0 -184 32t-150 91.5t-101.5 144.5t-37.5 191zM464 666h433q-2 27 -17.5 52.5t-41 45.5t-60 32.5t-76.5 12.5q-50 0 -95.5 -15t-80 -43.5t-55.5 -70.5q-4 -7 -7 -14zM796 1178l215 311h326v-25l-306 -286h-235z" />
<glyph unicode="&#xea;" horiz-adv-x="1178" d="M102 432q0 143 51.5 260t138.5 200.5t201.5 129t241.5 45.5q101 0 186 -35.5t146.5 -95t96 -137.5t34.5 -162q0 -20 -2 -45t-6 -51.5t-10 -52.5t-13 -48h-739q2 -24 8 -46q10 -38 33.5 -66.5t61.5 -45t92 -16.5q40 0 73.5 8t63.5 22.5t57.5 34.5t54.5 44l220 -193 q-101 -108 -233 -158.5t-284 -50.5q-98 0 -184 32t-150 91.5t-101.5 144.5t-37.5 191zM350 1178l357 325h239l197 -325h-248l-96 157l-172 -157h-277zM464 666h433q-2 27 -17.5 52.5t-41 45.5t-60 32.5t-76.5 12.5q-50 0 -95.5 -15t-80 -43.5t-55.5 -70.5q-4 -7 -7 -14z" />
<glyph unicode="&#xeb;" horiz-adv-x="1178" d="M102 432q0 143 51.5 260t138.5 200.5t201.5 129t241.5 45.5q101 0 186 -35.5t146.5 -95t96 -137.5t34.5 -162q0 -20 -2 -45t-6 -51.5t-10 -52.5t-13 -48h-739q2 -24 8 -46q10 -38 33.5 -66.5t61.5 -45t92 -16.5q40 0 73.5 8t63.5 22.5t57.5 34.5t54.5 44l220 -193 q-101 -108 -233 -158.5t-284 -50.5q-98 0 -184 32t-150 91.5t-101.5 144.5t-37.5 191zM464 666h433q-2 27 -17.5 52.5t-41 45.5t-60 32.5t-76.5 12.5q-50 0 -95.5 -15t-80 -43.5t-55.5 -70.5q-4 -7 -7 -14zM477 1342q0 37 13.5 69.5t37.5 57t56.5 38.5t70.5 14q36 0 68 -14 t56 -38.5t38 -57t14 -69.5t-14 -69.5t-38 -56.5t-56 -38t-68 -14q-38 0 -70.5 14t-56.5 38t-37.5 56.5t-13.5 69.5zM956 1342q0 37 14 69.5t38 57t56.5 38.5t70.5 14q36 0 68 -14t56 -38.5t38 -57t14 -69.5t-14 -69.5t-38 -56.5t-56 -38t-68 -14q-38 0 -70.5 14t-56.5 38 t-38 56.5t-14 69.5z" />
<glyph unicode="&#xec;" horiz-adv-x="860" d="M78 762l63 274h564l-177 -762h240l-63 -274h-582l176 762h-221zM157 1464v25h326l196 -311h-229z" />
<glyph unicode="&#xed;" horiz-adv-x="860" d="M78 762l63 274h564l-177 -762h240l-63 -274h-582l176 762h-221zM370 1178l215 311h326v-25l-306 -286h-235z" />
<glyph unicode="&#xee;" horiz-adv-x="860" d="M78 762l63 274h564l-177 -762h240l-63 -274h-582l176 762h-221zM130 1178l357 325h239l197 -325h-248l-96 157l-172 -157h-277z" />
<glyph unicode="&#xef;" horiz-adv-x="860" d="M78 762l63 274h564l-177 -762h240l-63 -274h-582l176 762h-221zM103 1342q0 37 13.5 69.5t37.5 57t56.5 38.5t70.5 14q36 0 68 -14t56 -38.5t38 -57t14 -69.5t-14 -69.5t-38 -56.5t-56 -38t-68 -14q-38 0 -70.5 14t-56.5 38t-37.5 56.5t-13.5 69.5zM582 1342 q0 37 14 69.5t38 57t56.5 38.5t70.5 14q36 0 68 -14t56 -38.5t38 -57t14 -69.5t-14 -69.5t-38 -56.5t-56 -38t-68 -14q-38 0 -70.5 14t-56.5 38t-38 56.5t-14 69.5z" />
<glyph unicode="&#xf0;" horiz-adv-x="1182" d="M102 436q0 95 23.5 178t63.5 151.5t94 122t116 90.5t128 56t131 19q35 0 63.5 0.5t51.5 -1.5q-15 27 -31 52.5t-33 51.5l-170 -56l-86 260l66 21q-47 46 -97 89t-104 86h405q27 -18 52.5 -36t48.5 -38l189 63l85 -261l-71 -24q45 -69 78 -144.5t54.5 -157.5t32 -171 t10.5 -183q0 -58 -13.5 -127t-44 -139t-79 -135.5t-119 -116t-163.5 -81t-212 -30.5q-101 0 -186.5 36.5t-148.5 99t-98.5 146.5t-35.5 179zM428 473q0 -35 8.5 -70.5t29 -64t54 -46.5t84.5 -18q48 0 97 22.5t88 62t63.5 93t24.5 115.5q0 9 -0.5 19t-0.5 20t-0.5 20 t-18 48.5t-63.5 66t-94 27.5q-38 0 -72.5 -10t-65 -29t-55 -45.5t-42.5 -59t-27.5 -71t-9.5 -80.5z" />
<glyph unicode="&#xf1;" horiz-adv-x="1421" d="M143 762l64 274h526l-16 -85v1q45 34 93 58t99 37.5t105 13.5q87 0 152 -29t104 -83t49.5 -132.5t-12.5 -177.5l-85 -365h189l-63 -274h-531l129 557q9 38 5.5 69.5t-16 54t-34 34.5t-49.5 12q-51 0 -126 -39q-39 -20 -81 -52l-147 -636h-351l176 762h-180zM326 1264 q14 54 47.5 94t74.5 67t84.5 40.5t78.5 13.5q42 0 81 -14.5t76.5 -32t73 -32t70.5 -14.5q42 0 74.5 15t58.5 53l158 -70q-15 -45 -42.5 -84t-63.5 -68.5t-79 -46t-90 -16.5q-52 0 -94 13.5t-79.5 30t-73.5 30.5t-76 14q-45 0 -76 -18.5t-51 -44.5z" />
<glyph unicode="&#xf2;" horiz-adv-x="1182" d="M102 436q0 143 51.5 259.5t138.5 199t201.5 127.5t241.5 45q98 0 183.5 -36t148.5 -98.5t99 -147t36 -181.5q0 -137 -48.5 -252t-133 -199t-200 -131t-249.5 -47q-101 0 -186.5 36.5t-148.5 99t-98.5 146.5t-35.5 179zM428 473q0 -44 13 -80.5t36.5 -63t56 -41 t70.5 -14.5q52 0 101 22.5t87.5 62t61.5 93t23 115.5q0 51 -14.5 88.5t-38.5 62.5t-56 37.5t-68 12.5q-57 0 -106.5 -23.5t-86 -63.5t-58 -93.5t-21.5 -114.5zM440 1464v25h326l196 -311h-229z" />
<glyph unicode="&#xf3;" horiz-adv-x="1182" d="M102 436q0 143 51.5 259.5t138.5 199t201.5 127.5t241.5 45q98 0 183.5 -36t148.5 -98.5t99 -147t36 -181.5q0 -137 -48.5 -252t-133 -199t-200 -131t-249.5 -47q-101 0 -186.5 36.5t-148.5 99t-98.5 146.5t-35.5 179zM428 473q0 -44 13 -80.5t36.5 -63t56 -41 t70.5 -14.5q52 0 101 22.5t87.5 62t61.5 93t23 115.5q0 51 -14.5 88.5t-38.5 62.5t-56 37.5t-68 12.5q-57 0 -106.5 -23.5t-86 -63.5t-58 -93.5t-21.5 -114.5zM618 1178l215 311h326v-25l-306 -286h-235z" />
<glyph unicode="&#xf4;" horiz-adv-x="1182" d="M102 436q0 143 51.5 259.5t138.5 199t201.5 127.5t241.5 45q98 0 183.5 -36t148.5 -98.5t99 -147t36 -181.5q0 -137 -48.5 -252t-133 -199t-200 -131t-249.5 -47q-101 0 -186.5 36.5t-148.5 99t-98.5 146.5t-35.5 179zM378 1178l357 325h239l197 -325h-248l-96 157 l-172 -157h-277zM428 473q0 -44 13 -80.5t36.5 -63t56 -41t70.5 -14.5q52 0 101 22.5t87.5 62t61.5 93t23 115.5q0 51 -14.5 88.5t-38.5 62.5t-56 37.5t-68 12.5q-57 0 -106.5 -23.5t-86 -63.5t-58 -93.5t-21.5 -114.5z" />
<glyph unicode="&#xf5;" horiz-adv-x="1182" d="M102 436q0 143 51.5 259.5t138.5 199t201.5 127.5t241.5 45q98 0 183.5 -36t148.5 -98.5t99 -147t36 -181.5q0 -137 -48.5 -252t-133 -199t-200 -131t-249.5 -47q-101 0 -186.5 36.5t-148.5 99t-98.5 146.5t-35.5 179zM245 1264q14 54 47.5 94t74.5 67t84.5 40.5 t78.5 13.5q42 0 81 -14.5t76.5 -32t73 -32t70.5 -14.5q42 0 74.5 15t58.5 53l158 -70q-15 -45 -42.5 -84t-63.5 -68.5t-79 -46t-90 -16.5q-52 0 -94 13.5t-79.5 30t-73.5 30.5t-76 14q-45 0 -76 -18.5t-51 -44.5zM428 473q0 -44 13 -80.5t36.5 -63t56 -41t70.5 -14.5 q52 0 101 22.5t87.5 62t61.5 93t23 115.5q0 51 -14.5 88.5t-38.5 62.5t-56 37.5t-68 12.5q-57 0 -106.5 -23.5t-86 -63.5t-58 -93.5t-21.5 -114.5z" />
<glyph unicode="&#xf6;" horiz-adv-x="1182" d="M102 436q0 143 51.5 259.5t138.5 199t201.5 127.5t241.5 45q98 0 183.5 -36t148.5 -98.5t99 -147t36 -181.5q0 -137 -48.5 -252t-133 -199t-200 -131t-249.5 -47q-101 0 -186.5 36.5t-148.5 99t-98.5 146.5t-35.5 179zM311 1342q0 37 13.5 69.5t37.5 57t56.5 38.5 t70.5 14q36 0 68 -14t56 -38.5t38 -57t14 -69.5t-14 -69.5t-38 -56.5t-56 -38t-68 -14q-38 0 -70.5 14t-56.5 38t-37.5 56.5t-13.5 69.5zM428 473q0 -44 13 -80.5t36.5 -63t56 -41t70.5 -14.5q52 0 101 22.5t87.5 62t61.5 93t23 115.5q0 51 -14.5 88.5t-38.5 62.5t-56 37.5 t-68 12.5q-57 0 -106.5 -23.5t-86 -63.5t-58 -93.5t-21.5 -114.5zM790 1342q0 37 14 69.5t38 57t56.5 38.5t70.5 14q36 0 68 -14t56 -38.5t38 -57t14 -69.5t-14 -69.5t-38 -56.5t-56 -38t-68 -14q-38 0 -70.5 14t-56.5 38t-38 56.5t-14 69.5z" />
<glyph unicode="&#xf7;" horiz-adv-x="1100" d="M50 383l64 275h975l-64 -275h-975zM351 145q0 37 14 69.5t38 56.5t56.5 38t70.5 14q36 0 68 -14t56 -38t38 -56.5t14 -69.5t-14 -69.5t-38 -56.5t-56 -38t-68 -14q-38 0 -70.5 14t-56.5 38t-38 56.5t-14 69.5zM514 907q0 37 14 69.5t38 56.5t56.5 38t70.5 14q36 0 68 -14 t56 -38t38 -56.5t14 -69.5t-14 -69.5t-38 -56.5t-56 -38t-68 -14q-38 0 -70.5 14t-56.5 38t-38 56.5t-14 69.5z" />
<glyph unicode="&#xf8;" horiz-adv-x="1182" d="M-70 -61l243 244q-34 54 -52.5 117t-18.5 132q0 95 23.5 179t65.5 155t100.5 126.5t129 94.5t150.5 59.5t164 20.5q69 0 132 -18.5t117 -52.5l108 108h292l-253 -256q34 -54 52.5 -116.5t18.5 -131.5q0 -91 -22 -173t-62.5 -152t-97.5 -127t-127 -96.5t-151.5 -61 t-170.5 -21.5q-69 0 -131 17.5t-115 49.5l-96 -97h-299zM406 469q0 -32 9 -62l351 353q-14 5 -29.5 7.5t-31.5 2.5q-62 0 -116.5 -24.5t-95 -65.5t-64 -95.5t-23.5 -115.5zM544 274q13 -4 27 -6t29 -2q57 0 111 23.5t95.5 64t67 95t25.5 116.5q0 16 -2 31t-6 29z" />
<glyph unicode="&#xf9;" horiz-adv-x="1356" d="M111 762l63 274h488l-136 -585q-10 -43 -4 -77.5t25 -59t49.5 -37.5t69.5 -13q32 0 64 11t60.5 30.5t55.5 49.5l94 407h-158l64 274h477l-177 -762h191l-63 -274h-500l19 81q-31 -25 -65 -44q-43 -24 -94 -36.5t-112 -12.5q-102 0 -183.5 39t-114.5 101.5t-40.5 135.5 t17.5 162l77 336h-167zM373 1464v25h326l196 -311h-229z" />
<glyph unicode="&#xfa;" horiz-adv-x="1356" d="M111 762l63 274h488l-136 -585q-10 -43 -4 -77.5t25 -59t49.5 -37.5t69.5 -13q32 0 64 11t60.5 30.5t55.5 49.5l94 407h-158l64 274h477l-177 -762h191l-63 -274h-500l19 81q-31 -25 -65 -44q-43 -24 -94 -36.5t-112 -12.5q-102 0 -183.5 39t-114.5 101.5t-40.5 135.5 t17.5 162l77 336h-167zM551 1178l215 311h326v-25l-306 -286h-235z" />
<glyph unicode="&#xfb;" horiz-adv-x="1356" d="M111 762l63 274h488l-136 -585q-10 -43 -4 -77.5t25 -59t49.5 -37.5t69.5 -13q32 0 64 11t60.5 30.5t55.5 49.5l94 407h-158l64 274h477l-177 -762h191l-63 -274h-500l19 81q-31 -25 -65 -44q-43 -24 -94 -36.5t-112 -12.5q-102 0 -183.5 39t-114.5 101.5t-40.5 135.5 t17.5 162l77 336h-167zM311 1178l357 325h239l197 -325h-248l-96 157l-172 -157h-277z" />
<glyph unicode="&#xfc;" horiz-adv-x="1356" d="M111 762l63 274h488l-136 -585q-10 -43 -4 -77.5t25 -59t49.5 -37.5t69.5 -13q32 0 64 11t60.5 30.5t55.5 49.5l94 407h-158l64 274h477l-177 -762h191l-63 -274h-500l19 81q-31 -25 -65 -44q-43 -24 -94 -36.5t-112 -12.5q-102 0 -183.5 39t-114.5 101.5t-40.5 135.5 t17.5 162l77 336h-167zM244 1342q0 37 13.5 69.5t37.5 57t56.5 38.5t70.5 14q36 0 68 -14t56 -38.5t38 -57t14 -69.5t-14 -69.5t-38 -56.5t-56 -38t-68 -14q-38 0 -70.5 14t-56.5 38t-37.5 56.5t-13.5 69.5zM723 1342q0 37 14 69.5t38 57t56.5 38.5t70.5 14q36 0 68 -14 t56 -38.5t38 -57t14 -69.5t-14 -69.5t-38 -56.5t-56 -38t-68 -14q-38 0 -70.5 14t-56.5 38t-38 56.5t-14 69.5z" />
<glyph unicode="&#xfd;" horiz-adv-x="1126" d="M-20 -471l73 274h136l126 200l-167 759h-105l63 274h512l-63 -274h-77l66 -393l246 393h-85l63 274h512l-63 -274h-81l-634 -959h125l-74 -274h-573zM590 1178l215 311h326v-25l-306 -286h-235z" />
<glyph unicode="&#xfe;" horiz-adv-x="1343" d="M-164 -471l64 274h173l341 1479h-195l64 274h534l-137 -593q35 41 99.5 69.5t152.5 28.5q99 0 179 -35.5t136 -97.5t86.5 -145.5t30.5 -178.5q0 -137 -50.5 -251.5t-137.5 -197t-204.5 -128t-250.5 -45.5q-33 0 -69 5t-70 14t-63 22t-49 29l-57 -249h162l-63 -274h-676z M547 387q13 -27 35 -47t49.5 -33.5t58.5 -20.5t62 -7q54 0 102 21t83.5 57.5t56 86t20.5 105.5q0 43 -13 78.5t-36 60.5t-54.5 39t-68.5 14q-71 0 -135.5 -36t-107.5 -96z" />
<glyph unicode="&#xff;" horiz-adv-x="1126" d="M-20 -471l73 274h136l126 200l-167 759h-105l63 274h512l-63 -274h-77l66 -393l246 393h-85l63 274h512l-63 -274h-81l-634 -959h125l-74 -274h-573zM283 1342q0 37 13.5 69.5t37.5 57t56.5 38.5t70.5 14q36 0 68 -14t56 -38.5t38 -57t14 -69.5t-14 -69.5t-38 -56.5 t-56 -38t-68 -14q-38 0 -70.5 14t-56.5 38t-37.5 56.5t-13.5 69.5zM762 1342q0 37 14 69.5t38 57t56.5 38.5t70.5 14q36 0 68 -14t56 -38.5t38 -57t14 -69.5t-14 -69.5t-38 -56.5t-56 -38t-68 -14q-38 0 -70.5 14t-56.5 38t-38 56.5t-14 69.5z" />
<glyph unicode="&#x178;" horiz-adv-x="1393" d="M184 1241l64 275h612l-63 -275h-105l133 -328l25 26l262 302h-88l63 275h613l-64 -275h-101l-594 -626l-79 -341h170l-63 -274h-676l63 274h160l82 361l-280 606h-134zM547 1821q0 37 13.5 69.5t37.5 57t56.5 38.5t70.5 14q36 0 68 -14t56 -38.5t38 -57t14 -69.5 t-14 -69.5t-38 -56.5t-56 -38t-68 -14q-38 0 -70.5 14t-56.5 38t-37.5 56.5t-13.5 69.5zM1026 1821q0 37 14 69.5t38 57t56.5 38.5t70.5 14q36 0 68 -14t56 -38.5t38 -57t14 -69.5t-14 -69.5t-38 -56.5t-56 -38t-68 -14q-38 0 -70.5 14t-56.5 38t-38 56.5t-14 69.5z" />
<glyph unicode="&#x2c6;" horiz-adv-x="991" d="M100 1178l357 325h239l197 -325h-248l-96 157l-172 -157h-277z" />
<glyph unicode="&#x2dc;" horiz-adv-x="903" d="M10 1264q14 54 47.5 94t74.5 67t84.5 40.5t78.5 13.5q42 0 81 -14.5t76.5 -32t73 -32t70.5 -14.5q42 0 74.5 15t58.5 53l158 -70q-15 -45 -42.5 -84t-63.5 -68.5t-79 -46t-90 -16.5q-52 0 -94 13.5t-79.5 30t-73.5 30.5t-76 14q-45 0 -76 -18.5t-51 -44.5z" />
<glyph unicode="&#x2000;" horiz-adv-x="1000" />
<glyph unicode="&#x2001;" horiz-adv-x="2000" />
<glyph unicode="&#x2002;" horiz-adv-x="1000" />
<glyph unicode="&#x2003;" horiz-adv-x="2000" />
<glyph unicode="&#x2004;" horiz-adv-x="666" />
<glyph unicode="&#x2005;" horiz-adv-x="500" />
<glyph unicode="&#x2006;" horiz-adv-x="333" />
<glyph unicode="&#x2007;" horiz-adv-x="333" />
<glyph unicode="&#x2008;" horiz-adv-x="250" />
<glyph unicode="&#x2009;" horiz-adv-x="400" />
<glyph unicode="&#x200a;" horiz-adv-x="111" />
<glyph unicode="&#x2010;" horiz-adv-x="831" d="M143 449l64 274h627l-64 -274h-627z" />
<glyph unicode="&#x2011;" horiz-adv-x="831" d="M143 449l64 274h627l-64 -274h-627z" />
<glyph unicode="&#x2012;" horiz-adv-x="831" d="M143 449l64 274h627l-64 -274h-627z" />
<glyph unicode="&#x2013;" horiz-adv-x="1393" d="M332 459l63 274h1024l-63 -274h-1024z" />
<glyph unicode="&#x2014;" horiz-adv-x="2396" d="M434 459l64 274h1843l-64 -274h-1843z" />
<glyph unicode="&#x2018;" horiz-adv-x="608" d="M205 1096l358 561l209 -84l-297 -584z" />
<glyph unicode="&#x2019;" horiz-adv-x="608" d="M266 1079l297 584l271 -107l-359 -561z" />
<glyph unicode="&#x201c;" horiz-adv-x="1096" d="M205 1106l383 557l209 -92l-322 -572zM692 1096l359 561l209 -84l-297 -584z" />
<glyph unicode="&#x201d;" horiz-adv-x="1096" d="M266 1079l297 584l271 -107l-359 -561zM729 1081l322 572l270 -107l-383 -557z" />
<glyph unicode="&#x201e;" horiz-adv-x="1102" d="M-30 -300l297 584l271 -107l-359 -561zM433 -298l322 572l270 -107l-383 -557z" />
<glyph unicode="&#x2022;" horiz-adv-x="1270" d="M307 553q0 81 30.5 151.5t83.5 123.5t123.5 83.5t151.5 30.5t151.5 -30.5t123.5 -83.5t83.5 -123.5t30.5 -151.5t-30.5 -151.5t-83.5 -123.5t-123.5 -83.5t-151.5 -30.5t-151.5 30.5t-123.5 83.5t-83.5 123.5t-30.5 151.5z" />
<glyph unicode="&#x2026;" horiz-adv-x="1315" d="M31 143q0 37 14.5 69t40 55t59.5 36.5t72 13.5q37 0 72 -13.5t61 -36.5t42 -55t16 -69q0 -35 -16 -66.5t-42 -55.5t-61 -38t-72 -14q-38 0 -72 14t-59.5 38t-40 55.5t-14.5 66.5zM469 143q0 37 14.5 69t40 55t59.5 36.5t72 13.5t72.5 -13.5t61 -36.5t42 -55t15.5 -69 q0 -35 -15.5 -66.5t-42 -55.5t-61 -38t-72.5 -14t-72 14t-59.5 38t-40 55.5t-14.5 66.5zM907 143q0 37 14.5 69t40 55t59.5 36.5t73 13.5q37 0 71.5 -13.5t61 -36.5t42 -55t15.5 -69q0 -35 -15.5 -66.5t-42 -55.5t-61 -38t-71.5 -14q-39 0 -73 14t-59.5 38t-40 55.5 t-14.5 66.5z" />
<glyph unicode="&#x202f;" horiz-adv-x="400" />
<glyph unicode="&#x2039;" horiz-adv-x="629" d="M123 535l18 73l330 361h240l-335 -424l146 -389h-223z" />
<glyph unicode="&#x203a;" horiz-adv-x="629" d="M41 156l335 423l-147 390h224l176 -379l-19 -74l-329 -360h-240z" />
<glyph unicode="&#x205f;" horiz-adv-x="500" />
<glyph unicode="&#x25fc;" horiz-adv-x="1035" d="M0 0v1035h1035v-1035h-1035z" />
</font>
</defs>
</svg>
