<?xml version="1.0" standalone="no"?>
<!DOCTYPE svg PUBLIC "-//W3C//DTD SVG 1.1//EN" "http://www.w3.org/Graphics/SVG/1.1/DTD/svg11.dtd" >
<svg xmlns="http://www.w3.org/2000/svg">
<metadata></metadata>
<defs>
<font id="alegreya_sansthin_italic" horiz-adv-x="422" >
<font-face units-per-em="1000" ascent="800" descent="-200" />
<missing-glyph horiz-adv-x="150" />
<glyph unicode="&#xa8;I" horiz-adv-x="235" d="M80 0q11 82 80 637h20q-70 -557 -80 -637h-20zM115 781q0 9 5.5 14.5t14.5 5.5t14.5 -5.5t5.5 -14.5t-5.5 -14.5t-14.5 -5.5t-14.5 5.5t-5.5 14.5zM217 781q0 9 5.5 14.5t14.5 5.5t14.5 -5.5t5.5 -14.5t-5.5 -14.5t-14.5 -5.5t-14.5 5.5t-5.5 14.5z" />
<glyph unicode="&#xa8;O" horiz-adv-x="599" d="M56 253q0 182 78.5 285.5t220.5 103.5q104 0 158.5 -65t54.5 -186q0 -185 -79 -290.5t-222 -105.5q-102 0 -156.5 67t-54.5 191zM77 256q0 -115 49.5 -178t141.5 -63q132 0 205.5 100t73.5 272q0 113 -49 174t-144 61q-131 0 -204 -97.5t-73 -268.5zM273 781q0 20 20 20 t20 -20t-20 -20t-20 20zM423 781q0 20 20 20t20 -20t-20 -20t-20 20z" />
<glyph unicode="&#xb4;Y" horiz-adv-x="469" d="M77 637h25l7 -26l120 -334h5l218 334l14 26h26l-254 -390q-5 -36 -10 -77.5t-11 -91.5t-10 -78h-20l24 195l7 50zM219 742q91 44 176 94l5 -2l7 -12l-2 -5q-67 -38 -174 -93l-5 3z" />
<glyph unicode="&#xa8;i" horiz-adv-x="203" d="M61 -4l49 366l6 90l25 4l-46 -350l-7 -106zM76 596q0 20 20 20t20 -20t-20 -20t-20 20zM178 596q0 20 20 20t20 -20t-20 -20t-20 20z" />
<glyph unicode="&#xa8;o" horiz-adv-x="396" d="M48 134q0 139 54.5 230.5t145.5 93.5h5q50 -4 72.5 -37t22.5 -101q0 -139 -53.5 -229.5t-145.5 -96.5h-5q-50 3 -73 36.5t-23 103.5zM68 137q0 -122 80 -122q79 0 129 86t50 216q0 62 -19 91t-60 29q-79 0 -129.5 -85t-50.5 -215zM154 596q0 20 20 20t20 -20t-20 -20 t-20 20zM304 596q0 20 20 20t20 -20t-20 -20t-20 20z" />
<glyph unicode="&#xb4;y" horiz-adv-x="378" d="M-125 -159l5 2q37 -17 66 -17q94 0 208 186l-80 438l23 6q13 -82 40 -236.5t31 -177.5h4l134 226q36 60 36 106q0 32 -28 70l1 5l18 6q29 -41 29 -82q0 -49 -39 -115l-143 -243q-65 -111 -122 -160t-114 -49q-34 0 -68 15zM157 532q69 58 146 137l5 -1l10 -10l-1 -5 q-69 -69 -144 -135l-5 1z" />
<glyph unicode="&#xfb01;" horiz-adv-x="460" d="M71 433l4 16h72l13 102q13 74 56.5 114t111.5 40l76 -20l2 -3l-7 -20h-6q-35 23 -75 23q-56 0 -91.5 -34.5t-46.5 -99.5l-13 -102h209l18 6l3 -3l-45 -346l-7 -106l-27 -4l49 366l5 67h-208q-31 -246 -57 -453l-9 -106l-25 -4q47 371 71 563h-69z" />
<glyph unicode="&#xfb02;" horiz-adv-x="462" d="M71 433l4 16h72l13 102q10 76 52 115t112 39l86 -6l22 3l-79 -596l-9 -106l-26 -4l82 612l4 66q-41 11 -86 11q-59 0 -94.5 -34t-43.5 -100l-13 -102h116l3 -4l-4 -16h-118q-31 -246 -57 -453l-9 -106l-25 -4q47 371 71 563h-69z" />
<glyph horiz-adv-x="1000" />
<glyph horiz-adv-x="1000" />
<glyph unicode="&#xd;" horiz-adv-x="1000" />
<glyph unicode=" "  horiz-adv-x="150" />
<glyph unicode="&#x09;" horiz-adv-x="150" />
<glyph unicode="&#xa0;" horiz-adv-x="150" />
<glyph unicode="!" horiz-adv-x="249" d="M83 18q0 20 20 20t20 -20t-20 -20t-20 20zM113 203l63 448l4 3h14l2 -3l-63 -453h-16z" />
<glyph unicode="&#x22;" horiz-adv-x="222" d="M80 489l29 144l18 2l2 -4l-30 -144l-17 -2zM177 489l29 144l18 2l2 -4l-30 -144l-17 -2z" />
<glyph unicode="#" horiz-adv-x="480" d="M20 228l2 17h118l33 129h-112l-3 3l2 17h118l46 181h16l2 -5l-44 -176h118l46 181h16l2 -5l-44 -176h121l3 -3l-2 -17h-128l-32 -129h121l3 -3l-2 -17h-127l-49 -193h-16l-3 4l48 189h-118l-49 -193h-16l-3 4l48 189h-112zM160 245h118l33 129h-119z" />
<glyph unicode="$" horiz-adv-x="408" d="M41 33l2 20l5 1q47 -37 113 -37h3l31 225q-25 13 -39.5 22t-32.5 23.5t-26 33.5t-8 42q0 50 39 87.5t101 41.5l20 138h16l4 -5l-18 -132q51 -2 93 -22l-7 -18l-6 -1q-36 19 -83 21l-31 -218q24 -12 39.5 -21.5t32 -24t25 -33.5t8.5 -42q0 -51 -39.5 -90t-100.5 -46 l-18 -122h-15l-4 4l17 117h-2q-71 0 -119 36zM109 362q0 -33 22.5 -54.5t66.5 -43.5l29 208q-53 -5 -85.5 -37.5t-32.5 -72.5zM185 19q52 7 84.5 41t32.5 75q0 33 -22.5 54.5t-65.5 43.5z" />
<glyph unicode="%" horiz-adv-x="799" d="M78 432q0 96 43.5 151t120.5 55q56 0 85.5 -35t29.5 -101q0 -96 -42.5 -151t-120.5 -55q-57 0 -86.5 35t-29.5 101zM93 -77l576 746l10 -5l2 -8l-577 -746l-8 4zM97 436q0 -58 26 -89.5t76 -31.5q66 0 103 49t37 135q0 58 -26 89t-76 31q-66 0 -103 -48.5t-37 -134.5z M464 133q0 96 43.5 151t120.5 55q56 0 85.5 -35t29.5 -101q0 -96 -42.5 -151t-120.5 -55q-57 0 -86.5 35t-29.5 101zM483 137q0 -121 102 -121q66 0 103 48.5t37 134.5q0 121 -102 121q-66 0 -103 -48.5t-37 -134.5z" />
<glyph unicode="&#x26;" horiz-adv-x="601" d="M63 143q0 122 153 191v4q-41 17 -64 54t-23 88q0 75 49.5 119t136.5 44q78 0 152 -43l-8 -19h-7q-64 42 -138 42q-78 0 -121.5 -38t-43.5 -105q0 -57 32 -94t86 -41l300 15l69 8l2 -4l-8 -20l-189 -10l-1 -4q39 -54 39 -132q0 -93 -60.5 -148.5t-164.5 -55.5 q-89 0 -140 40.5t-51 108.5zM83 147q0 -60 46 -96.5t126 -36.5q94 0 149 50.5t55 135.5q0 87 -51 132l-167 -9q-158 -63 -158 -176z" />
<glyph unicode="'" horiz-adv-x="125" d="M80 489l29 144l18 2l2 -4l-30 -144l-17 -2z" />
<glyph unicode="(" horiz-adv-x="280" d="M82 142q0 80 9 146t31.5 137t69 131.5t114.5 106.5h4l8 -11l-1 -4q-67 -44 -111.5 -104t-66 -129.5t-29.5 -132t-8 -137.5q0 -95 28.5 -159.5t91.5 -113.5l-1 -4l-10 -11h-4q-66 54 -95.5 120t-29.5 165z" />
<glyph unicode=")" horiz-adv-x="281" d="M-29 -132l1 4q67 44 111.5 104t66 129.5t29.5 132t8 137.5q0 95 -28.5 159.5t-91.5 113.5l1 4l10 11h4q66 -54 95.5 -120t29.5 -165q0 -80 -9 -146t-31.5 -137t-69 -131.5t-114.5 -106.5h-4z" />
<glyph unicode="*" horiz-adv-x="365" d="M83 606q0 14 3 21l3 2l104 -46l-3 -14l-5 -1zM122 458l76 85l12 -7l-1 -6l-67 -85q-10 3 -19 10zM213 603l5 109q11 3 21 3l2 -2l-11 -113l-14 -2zM237 535l11 9l5 -2l60 -90q-7 -10 -15 -15h-3zM252 583l3 4l104 29q6 -7 10 -19l-1 -2l-111 -25z" />
<glyph unicode="+" horiz-adv-x="478" d="M43 263l4 17h189l23 189l17 2l3 -3l-23 -188h187l3 -3l-4 -17h-189l-23 -189l-17 -2l-3 3l23 188h-187z" />
<glyph unicode="," horiz-adv-x="230" d="M45 -89l1 3q54 40 54 78q0 20 -30 34v4q5 7 13 11q38 -17 38 -48q0 -42 -66 -93z" />
<glyph unicode="-" horiz-adv-x="312" d="M32 232l2 16l249 33l3 -4l-1 -16l-250 -33z" />
<glyph unicode="." horiz-adv-x="230" d="M69 18q0 20 20 20t20 -20t-20 -20t-20 20z" />
<glyph unicode="/" horiz-adv-x="291" d="M20 -106l258 781h16l3 -5l-258 -780h-16z" />
<glyph unicode="0" horiz-adv-x="539" d="M56 198q0 140 63.5 218.5t181.5 78.5q90 0 138.5 -53.5t48.5 -153.5q0 -139 -63.5 -215.5t-180.5 -76.5q-90 0 -139 52.5t-49 149.5zM76 203q0 -90 43.5 -138.5t126.5 -48.5q106 0 164 70.5t58 196.5q0 92 -43.5 142t-125.5 50q-105 0 -164 -72t-59 -200z" />
<glyph unicode="1" horiz-adv-x="328" d="M39 424l2 16l174 53l3 -4q-39 -325 -60 -489h-20q22 173 57 466l-151 -45z" />
<glyph unicode="2" horiz-adv-x="439" d="M27 1l2 16l162 174q76 82 108 126.5t32 81.5q0 31 -23 52t-64 21q-81 0 -150 -77h-4l-2 17q72 80 158 80q47 0 76 -25t29 -64q0 -42 -34 -92.5t-111 -132.5l-145 -155l2 -3h234l78 1l2 -4l-6 -18l-82 1h-222l-38 -1z" />
<glyph unicode="3" horiz-adv-x="392" d="M5 -74l3 3q43 -8 86 -8q90 0 147.5 46t57.5 121q0 55 -39.5 86t-114.5 35h-47l-3 3l3 16h43q53 0 108.5 47t55.5 109q0 40 -27 64t-71 24q-66 0 -138 -63h-4l-1 19q77 65 144 65q53 0 85.5 -29t32.5 -76q0 -49 -35 -94t-90 -70l-1 -3q58 -13 88.5 -47t30.5 -85 q0 -82 -64 -135t-163 -53q-44 0 -86 8z" />
<glyph unicode="4" horiz-adv-x="458" d="M17 102l2 17l303 372h22l-45 -372h105l4 -4l-6 -17l-71 1h-34l-24 -191l-2 -3l-16 -3l-2 3l24 194h-215l-42 -1zM45 119h234l41 333h-4z" />
<glyph unicode="5" horiz-adv-x="403" d="M12 -75l4 3q39 -7 74 -7q98 0 160 50.5t62 129.5q0 92 -151 129l-72 17l-3 5l29 232l10 8l49 -1h136l65 1l2 -2l-4 -18l-4 -2l-41 1h-195l-27 -206l64 -15q83 -19 122.5 -55t39.5 -92q0 -89 -68.5 -145.5t-177.5 -56.5q-34 0 -72 7z" />
<glyph unicode="6" horiz-adv-x="455" d="M54 170q0 53 16.5 108t53.5 115t109.5 113t171.5 86h4l7 -11v-4q-140 -47 -219 -126t-107 -172l3 -3q73 59 157 59q69 0 108 -37t39 -106q0 -32 -8.5 -63t-28 -63t-59.5 -52t-94 -20q-75 0 -114 46t-39 130zM74 173q0 -76 34 -117.5t100 -41.5q48 0 83 17.5t52.5 45.5 t25.5 56t8 57q0 60 -33.5 92.5t-94.5 32.5q-88 0 -167 -68q-8 -35 -8 -74z" />
<glyph unicode="7" horiz-adv-x="401" d="M52 -95l325 566h-257l-58 -1l-3 5l5 17l64 -1h238l37 1l-2 -18l-283 -493l-46 -86l-20 6v4z" />
<glyph unicode="8" horiz-adv-x="456" d="M48 131q0 117 158 174v3q-49 22 -74 51.5t-25 79.5q0 67 45.5 108.5t116.5 41.5q59 0 94 -31.5t35 -89.5q0 -110 -138 -161v-3q31 -13 48.5 -22.5t38 -26.5t30 -40t9.5 -54q0 -71 -51 -118t-133 -47q-71 0 -112.5 36.5t-41.5 98.5zM68 132q0 -54 36 -85t99 -31 q73 0 118 40.5t45 102.5q0 28 -9.5 49t-28.5 36t-39 25t-49 23q-7 2 -10 4q-32 -12 -54.5 -22.5t-50.5 -30t-42.5 -47.5t-14.5 -64zM126 439q0 -48 27 -73.5t80 -49.5q145 46 145 151q0 49 -29 75.5t-81 26.5q-63 0 -102.5 -36t-39.5 -94z" />
<glyph unicode="9" horiz-adv-x="455" d="M44 -85q140 47 219 126.5t107 171.5l-3 3q-73 -59 -157 -59q-69 0 -108 37t-39 106q0 32 8.5 63t28 63t59.5 52t94 20q75 0 114 -46t39 -130q0 -53 -16.5 -108t-53.5 -115t-109.5 -113t-171.5 -86h-4l-7 11v4zM83 302q0 -60 33.5 -92.5t94.5 -32.5q88 0 167 68q8 35 8 74 q0 76 -34 117.5t-100 41.5q-48 0 -83 -17.5t-52.5 -45.5t-25.5 -56t-8 -57z" />
<glyph unicode=":" horiz-adv-x="229" d="M69 18q0 20 20 20t20 -20t-20 -20t-20 20zM103 295q0 20 20 20t20 -20t-20 -20t-20 20z" />
<glyph unicode=";" horiz-adv-x="230" d="M44 -89l1 3q54 40 54 78q0 20 -30 34v4q5 7 13 11q38 -17 38 -48q0 -42 -66 -93zM102 295q0 20 20 20t20 -20t-20 -20t-20 20z" />
<glyph unicode="&#x3c;" horiz-adv-x="500" d="M36 258l3 22l3 4l410 171l5 -14l-3 -5l-390 -164l-1 -4l355 -153l-8 -15l-4 -2z" />
<glyph unicode="=" horiz-adv-x="479" d="M40 191l2 17h397l3 -3l-2 -17h-397zM58 335l2 17h397l3 -3l-2 -17h-397z" />
<glyph unicode="&#x3e;" horiz-adv-x="501" d="M55 115l393 153v4l-350 164l-2 5l9 14l368 -171l2 -4l-3 -22l-409 -160l-4 2z" />
<glyph unicode="?" horiz-adv-x="323" d="M98 18q0 20 20 20t20 -20t-20 -20t-20 20zM120 198l7 112l6 9l110 69q83 52 83 121q0 54 -51 87t-147 39l-2 3l7 13l7 3q97 -8 152 -45t55 -96q0 -81 -94 -141l-104 -66l-2 -3l-8 -108l-17 -1z" />
<glyph unicode="@" horiz-adv-x="805" d="M44 190q0 181 109 291.5t288 110.5q147 0 234.5 -85t87.5 -223q0 -132 -77 -205.5t-223 -82.5l36 275h-5q-93 -177 -202 -275h-11q-27 20 -39.5 52t-12.5 89q0 131 60.5 222t166.5 98h4l65 -5l13 7l5 -3l-46 -350l-8 -90q124 12 189 80.5t65 187.5q0 130 -81.5 209 t-220.5 79q-169 0 -273 -105t-104 -273q0 -167 105 -263t281 -96l1 -4l-13 -16q-177 4 -285.5 105.5t-108.5 269.5zM249 141q0 -41 8 -69t16.5 -38t15.5 -10q8 0 40 34.5t83 111t96 166.5q1 7 10 96l-60 5q-63 -1 -111.5 -44t-73 -109t-24.5 -143z" />
<glyph unicode="A" horiz-adv-x="524" d="M-8 0l319 637h21l138 -637h-23l-6 43l-37 170h-283l-85 -170l-20 -43h-24zM131 233h268l-81 370h-3z" />
<glyph unicode="B" horiz-adv-x="471" d="M80 0q11 83 81 637l116 2q66 0 102 -33t36 -93q0 -135 -112 -179q120 -19 120 -136q0 -95 -62 -148t-177 -53q-56 0 -104 3zM103 20q37 -3 78 -3q105 0 163 47t58 131q0 55 -33.5 87.5t-96.5 37.5h-131q-13 -100 -38 -300zM144 343l121 -3q62 13 95.5 57.5t33.5 110.5 q0 51 -30 80.5t-82 29.5h-103z" />
<glyph unicode="C" horiz-adv-x="497" d="M55 251q0 182 77.5 286t217.5 104q96 0 160 -59l-9 -17h-7q-59 56 -146 56q-130 0 -201.5 -98t-71.5 -270q0 -115 47.5 -176.5t138.5 -61.5q94 0 180 67l7 -2l-4 -18q-92 -67 -184 -67q-100 0 -152.5 66.5t-52.5 189.5z" />
<glyph unicode="D" horiz-adv-x="609" d="M80 0q11 82 80 637l190 5q111 0 170 -64.5t59 -184.5q0 -184 -84 -291t-235 -107q-75 0 -180 5zM102 19q14 0 52.5 -1t68.5 -2t40 -1q139 0 217 101t78 274q0 112 -54 172t-156 60q-78 0 -170 -5q-67 -534 -76 -598z" />
<glyph unicode="E" horiz-adv-x="432" d="M80 0q11 82 80 637h291l2 -4l-6 -16h-269l-35 -277h223l3 -4l-6 -16h-222q-13 -100 -38 -300h273l3 -4l-6 -16h-293z" />
<glyph unicode="F" horiz-adv-x="394" d="M80 0q11 82 80 637h281l3 -4l-6 -16h-260l-36 -287h214l2 -4l-6 -16h-213q-9 -76 -39 -310h-20z" />
<glyph unicode="G" horiz-adv-x="575" d="M55 250q0 184 85.5 287.5t237.5 103.5q85 0 164 -54l-8 -18h-7q-76 52 -152 52q-142 0 -221 -97.5t-79 -271.5q0 -114 49 -175.5t142 -61.5q77 0 181 30l15 113l9 78l20 2l-9 -80l-17 -128q-117 -34 -199 -34q-103 0 -157 66t-54 188z" />
<glyph unicode="H" horiz-adv-x="640" d="M80 0q11 82 80 637h20l-38 -303h385l38 303h20q-70 -557 -80 -637h-20q30 231 40 314h-385q-11 -84 -40 -314h-20z" />
<glyph unicode="I" horiz-adv-x="235" d="M80 0q11 82 80 637h20q-70 -557 -80 -637h-20z" />
<glyph unicode="J" horiz-adv-x="260" d="M-27 -81q68 42 102 88t41 108q12 100 35.5 288.5t26.5 213.5h-125l-4 4l5 16h146q-3 -24 -27.5 -221.5t-37.5 -300.5q-9 -70 -44 -118.5t-109 -94.5l-9 11v6z" />
<glyph unicode="K" horiz-adv-x="483" d="M80 0q11 83 81 637h20q-71 -557 -81 -637h-20zM170 339v3l265 248l47 47h32l-316 -298q116 -177 248 -334v-4q-4 -4 -14 -8l-4 1q-149 179 -258 345z" />
<glyph unicode="L" horiz-adv-x="378" d="M79 0q11 82 80 637h20q-7 -59 -23.5 -192t-29 -233t-24.5 -192h244l3 -4l-6 -16h-264z" />
<glyph unicode="M" horiz-adv-x="742" d="M47 0l146 637h23q27 -104 78.5 -303.5t57.5 -223.5h4q15 28 119 225.5t158 301.5h24l-17 -637h-21l6 195l8 394h-4l-265 -508h-25l-133 508h-4q-111 -487 -134 -589h-21z" />
<glyph unicode="N" horiz-adv-x="640" d="M80 0q9 74 81 637h19l304 -595h4l77 594l20 2q-76 -589 -82 -638h-19l-304 595h-4q-63 -488 -76 -595h-20z" />
<glyph unicode="O" horiz-adv-x="599" d="M56 253q0 182 78.5 285.5t220.5 103.5q104 0 158.5 -65t54.5 -186q0 -185 -79 -290.5t-222 -105.5q-102 0 -156.5 67t-54.5 191zM77 256q0 -115 49.5 -178t141.5 -63q132 0 205.5 100t73.5 272q0 113 -49 174t-144 61q-131 0 -204 -97.5t-73 -268.5z" />
<glyph unicode="P" horiz-adv-x="464" d="M80 0q11 82 80 637l133 2q72 0 111.5 -39.5t39.5 -110.5q0 -113 -60 -176.5t-170 -63.5h-82q-5 -37 -10 -78.5t-11.5 -92t-10.5 -78.5h-20zM134 269h112q33 3 61.5 15t49.5 31.5t36.5 45t23 57t7.5 67.5q0 62 -32.5 96.5t-93.5 37.5l-120 -1z" />
<glyph unicode="Q" horiz-adv-x="592" d="M56 253q0 182 78.5 285.5t220.5 103.5q104 0 158.5 -65t54.5 -186q0 -167 -65.5 -270t-184.5 -122q144 -139 344 -163q-1 -4 -3.5 -8.5t-4.5 -7.5l-3 -2h-4q-206 26 -355 178q-8 -1 -25 -1q-102 0 -156.5 67t-54.5 191zM77 256q0 -115 49.5 -178t141.5 -63 q132 0 205.5 100t73.5 272q0 113 -49 174t-144 61q-131 0 -204 -97.5t-73 -268.5z" />
<glyph unicode="R" horiz-adv-x="494" d="M80 0q11 82 80 637l133 2q73 0 112.5 -38.5t39.5 -109.5q0 -84 -43 -142.5t-122 -82.5q60 -134 137 -261l-1 -4q-6 -6 -13 -8l-5 2q-81 137 -140 268h-125q-1 -12 -33 -263h-20zM136 283h134q74 20 114.5 73.5t40.5 131.5q0 60 -32.5 94t-94.5 37l-120 -1z" />
<glyph unicode="S" horiz-adv-x="423" d="M28 43l3 19l6 2q52 -48 131 -48q76 0 126 44.5t50 104.5q0 36 -18.5 65.5t-46 47.5t-60 38.5t-60 40t-46 51t-18.5 70.5q0 68 54.5 115t134.5 47q61 0 114 -29l-6 -18l-7 -1q-46 28 -104 28q-72 0 -119 -43.5t-47 -99.5q0 -34 18.5 -62t46 -45.5t60 -38.5t60 -40.5 t46 -51.5t18.5 -72q0 -71 -57.5 -121t-140.5 -50q-82 0 -138 47z" />
<glyph unicode="T" horiz-adv-x="450" d="M77 621l6 16h388l3 -4l-6 -16h-183q-68 -530 -78 -617h-20q11 89 78 617h-185z" />
<glyph unicode="U" horiz-adv-x="583" d="M81 176q0 29 4 53q9 60 17.5 128t19 151.5t16.5 128.5h20l-53 -408q-4 -34 -4 -49q0 -80 42.5 -122t121.5 -42q91 0 146 55t69 158l51 408h20q-6 -47 -16.5 -128.5t-19 -150t-15.5 -129.5q-11 -111 -72.5 -172t-161.5 -61q-89 0 -137 46.5t-48 133.5z" />
<glyph unicode="V" horiz-adv-x="508" d="M71 637h23l7 -43l122 -560h4l280 560l18 43h24l-317 -637h-22z" />
<glyph unicode="W" horiz-adv-x="834" d="M74 637h23l7 -43l119 -560h4l213 437l-36 166h22l7 -43l118 -560h4l276 560l19 43h23l-314 -637h-20l-91 438h-4l-213 -438h-22z" />
<glyph unicode="X" horiz-adv-x="537" d="M7 0l257 331l-161 306h26q28 -58 83 -163t67 -128l195 251l27 40h27l-238 -308l173 -329h-25l-16 38l-148 276l-215 -278l-25 -36h-27z" />
<glyph unicode="Y" horiz-adv-x="469" d="M77 637h25l7 -26l120 -334h5l218 334l14 26h26l-254 -390q-5 -36 -10 -77.5t-11 -91.5t-10 -78h-20l24 195l7 50z" />
<glyph unicode="Z" horiz-adv-x="482" d="M5 -1l2 18l453 600h-300l-55 -1l-4 5l6 17l61 -1h286l35 1l-2 -18l-453 -600h310l65 1l4 -5l-6 -16h-368z" />
<glyph unicode="[" horiz-adv-x="282" d="M71 -123q47 384 94 759l147 10l3 -4l-2 -15l-131 -9l-88 -723l128 -9l-1 -15l-5 -4z" />
<glyph unicode="\" horiz-adv-x="360" d="M84 670l3 5h16l204 -781l-3 -4h-16z" />
<glyph unicode="]" horiz-adv-x="282" d="M-26 -129l2 15l131 9l88 723l-128 9l1 15l5 4l145 -10q-47 -384 -94 -759l-147 -10z" />
<glyph unicode="^" horiz-adv-x="407" d="M12 120l216 364l4 3h22l115 -366l-2 -4l-16 -5l-110 350h-4l-207 -346l-5 -3z" />
<glyph unicode="_" horiz-adv-x="455" d="M-55 -103l4 17h480l2 -3l-4 -17h-480z" />
<glyph unicode="`" horiz-adv-x="390" d="M159 658l10 10l5 1q77 -79 146 -137l-11 -13l-5 -1q-75 66 -144 135z" />
<glyph unicode="a" d="M46 137q0 131 60.5 222t166.5 98h4l65 -5l12 7l5 -3l-46 -350l-9 -106l-25 -4l36 275h-4q-93 -177 -202 -275h-11q-27 20 -39.5 52t-12.5 89zM66 141q0 -41 8 -69t16.5 -38t15.5 -10q8 0 39.5 34t82.5 110t95 165l4 29l7 70l-59 5q-63 -1 -111.5 -44t-73 -109t-24.5 -143 z" />
<glyph unicode="b" horiz-adv-x="423" d="M64 14l79 594l7 90l25 4l-70 -523h4q95 177 205 275h11q28 -22 40 -52t12 -85q0 -132 -61.5 -223t-169.5 -98h-4l-69 17zM87 30l57 -14q96 0 154.5 87.5t58.5 208.5q0 40 -8 67.5t-16.5 37t-15.5 9.5q-8 0 -39.5 -34t-83.5 -109.5t-97 -164.5z" />
<glyph unicode="c" horiz-adv-x="323" d="M47 142q0 141 54 227.5t161 86.5l56 -19l5 -7l-6 -14l-5 -3q-37 23 -64 23q-85 -1 -133 -80t-48 -215q0 -125 73 -125t125 102h6l9 -13q-55 -99 -139 -110h-8q-42 7 -64 36.5t-22 110.5z" />
<glyph unicode="d" horiz-adv-x="423" d="M45 133q0 132 61.5 223t169.5 98h4l62 -3l21 157l6 90l25 4l-79 -596l-9 -106l-25 -4l37 275h-5q-95 -178 -206 -275h-11q-27 19 -39 50.5t-12 86.5zM65 138q0 -40 8 -67.5t16 -37t15 -9.5q8 0 40.5 35t84.5 111t98 166l12 95l-61 3q-96 0 -154.5 -87.5t-58.5 -208.5z " />
<glyph unicode="e" horiz-adv-x="354" d="M47 143q0 133 56 222.5t139 91.5h5q75 -6 75 -69q0 -117 -254 -212l-1 -28q0 -132 79 -132q75 0 131 102h7l9 -13q-58 -99 -145 -110h-9q-49 6 -70.5 41.5t-21.5 106.5zM70 198q111 41 171 90t60 97q0 23 -14.5 37t-42.5 14q-66 0 -114.5 -67t-59.5 -171z" />
<glyph unicode="f" horiz-adv-x="257" d="M71 433l4 16h72l13 102q20 154 148 154l74 -12l2 -3l-7 -20h-6q-39 15 -69 15q-104 0 -122 -134l-13 -102h116l3 -4l-4 -16h-118q-31 -246 -57 -453l-9 -106l-25 -4q47 371 71 563h-69z" />
<glyph unicode="g" horiz-adv-x="415" d="M-58 -92l2 7l150 122v5q-35 35 -35 116q0 122 57.5 206.5t156.5 90.5h4l59 -3l11 7l5 -3q-53 -419 -53 -421q-15 -116 -72 -174t-145 -58q-110 0 -140 105zM-33 -96q1 -11 8.5 -23.5t20.5 -26t35.5 -22.5t50.5 -9q78 0 130 53t66 155l33 255h-4q-43 -67 -66 -102t-58 -80 t-66 -73l-144 -117q-6 -5 -6 -10zM78 162q0 -37 7 -62.5t15 -34t14 -8.5q7 0 35 32.5t75.5 102t94.5 152.5l3 26l5 64l-53 2q-59 0 -104.5 -39t-68.5 -101t-23 -134z" />
<glyph unicode="h" horiz-adv-x="446" d="M61 -4l82 612l6 90l26 4l-69 -518h5q64 111 114 178.5t99 99.5h11q24 -7 38 -30.5t13 -54.5q-7 -54 -23.5 -152t-20.5 -124l-12 -101l-25 -4l59 365l1 15q1 25 -10 42.5t-24 17.5q-26 0 -90 -85t-143 -231l-2 -14l-9 -106z" />
<glyph unicode="i" horiz-adv-x="203" d="M61 -4l49 366l6 90l25 4l-46 -350l-7 -106zM128 610q0 20 20 20t20 -20t-20 -20t-20 20z" />
<glyph unicode="j" horiz-adv-x="212" d="M-40 -181l1 6q55 37 78 76t32 107l49 358l5 63h-83l-4 4l4 16h87l19 3l2 -1l-45 -358l-11 -75q-10 -80 -36.5 -124.5t-86.5 -85.5zM120 610q0 20 20 20t20 -20t-20 -20t-20 20z" />
<glyph unicode="k" horiz-adv-x="426" d="M61 -4l82 612l6 90l26 4l-68 -513h4q67 118 114 181.5t96 86.5l16 1q58 -11 58 -76q0 -103 -169 -199q70 -101 137 -183v-3l-16 -8l-4 2q-50 62 -142 190l1 9q173 95 173 189q0 28 -13.5 42.5t-28.5 14.5q-69 0 -235 -313l-2 -17l-9 -106z" />
<glyph unicode="l" horiz-adv-x="205" d="M61 -4l82 612l6 90l26 4l-79 -596l-9 -106z" />
<glyph unicode="m" horiz-adv-x="693" d="M61 -4l48 366l7 90l25 4l-36 -272h5q64 112 114 179t98 99h11q24 -7 38.5 -30.5t13.5 -54.5q-5 -38 -16.5 -106.5t-14.5 -86.5h5q64 112 114 179t98 99h11q24 -7 38 -30.5t13 -54.5q-7 -54 -23.5 -152t-20.5 -124l-12 -101l-25 -4l59 365l1 15q1 25 -10 42.5t-24 17.5 q-26 0 -91 -86t-145 -234q-3 -22 -8 -64.5t-6 -51.5l-25 -4l60 365l1 15q0 25 -11 42.5t-24 17.5q-26 0 -89.5 -85t-142.5 -231l-2 -14l-9 -106z" />
<glyph unicode="n" horiz-adv-x="445" d="M61 -4l48 366l7 90l25 4l-36 -272h5q65 112 114.5 179t98.5 99h11q24 -7 38 -30.5t13 -54.5q-7 -54 -23.5 -152t-20.5 -124l-12 -101l-25 -4l59 365l1 15q1 25 -10 42.5t-24 17.5q-26 0 -90 -85t-143 -231l-2 -14l-9 -106z" />
<glyph unicode="o" horiz-adv-x="396" d="M48 134q0 139 54.5 230.5t145.5 93.5h5q50 -4 72.5 -37t22.5 -101q0 -139 -53.5 -229.5t-145.5 -96.5h-5q-50 3 -73 36.5t-23 103.5zM68 137q0 -122 80 -122q79 0 129 86t50 216q0 62 -19 91t-60 29q-79 0 -129.5 -85t-50.5 -215z" />
<glyph unicode="p" d="M39 -189l71 551l6 90l25 4l-35 -277h4q94 176 204 275h11q28 -22 40 -52t12 -85q0 -133 -61.5 -223.5t-169.5 -97.5h-4l-58 14l-11 -89l-9 -106zM87 31l58 -15q96 0 154 87.5t58 208.5q0 40 -7.5 67.5t-16 37t-15.5 9.5q-8 0 -39.5 -34t-83.5 -109t-97 -163z" />
<glyph unicode="q" horiz-adv-x="421" d="M45 133q0 132 61.5 223t168.5 98h4l61 -3l13 8l5 -3l-68 -535l-9 -106l-25 -4l59 460h-4q-94 -176 -204 -275h-11q-27 19 -39 50.5t-12 86.5zM66 138q0 -40 7.5 -67.5t15.5 -37t15 -9.5q8 0 39.5 34t83 109.5t96.5 163.5l4 31l6 70l-57 2q-94 0 -152 -88t-58 -208z" />
<glyph unicode="r" horiz-adv-x="307" d="M61 -4l47 366l8 90l23 4l-35 -275h5q54 123 106.5 193.5t94.5 77.5l16 -2l-3 -20l-3 -2l-11 2q-40 -7 -96 -90.5t-118 -235.5l-10 -104z" />
<glyph unicode="s" horiz-adv-x="306" d="M10 28l3 18l7 4q41 -35 88 -35q50 0 83 30t33 72q0 27 -16.5 50.5t-39.5 40.5l-46 34t-39.5 41t-16.5 53q0 51 40.5 85.5t100.5 33.5q42 -4 72 -20l-7 -19l-6 -1q-34 20 -69 20q-47 0 -79 -30t-32 -67q0 -24 16.5 -46t40 -39t46.5 -35t39.5 -43t16.5 -55 q0 -52 -41.5 -88.5t-107.5 -37.5q-48 7 -86 34z" />
<glyph unicode="t" horiz-adv-x="316" d="M68 433l3 16h75l19 131l22 10l3 -3l-23 -138h144l3 -4l-3 -16h-148l-57 -342l-2 -20q0 -24 11 -37.5t29 -13.5q20 0 47.5 26.5t55.5 77.5h7l9 -13q-33 -53 -60 -80t-58 -37h-10q-51 13 -51 74q8 59 26.5 165t22.5 133l10 67h-71z" />
<glyph unicode="u" horiz-adv-x="454" d="M68 74q7 54 23.5 152t20.5 124l12 101l25 4l-59 -365l-1 -15q-1 -25 10 -42.5t24 -17.5q26 0 90.5 85t142.5 230l4 32l7 90l25 4l-46 -350l-9 -106l-25 -4l36 271h-5q-65 -112 -114.5 -179t-98.5 -99h-11q-24 7 -38 30.5t-13 54.5z" />
<glyph unicode="v" horiz-adv-x="382" d="M90 450l23 6q7 -85 23.5 -244t18.5 -182h3l149 238q38 62 38 106q0 32 -28 70l1 5l18 6q29 -41 29 -82q0 -50 -41 -115l-164 -258h-21z" />
<glyph unicode="w" horiz-adv-x="658" d="M90 450l22 5q6 -63 14.5 -135.5t19 -155t16.5 -134.5h4q15 32 89 186t114 236h24q9 -83 27.5 -235t22.5 -187h4l137 238q38 66 38 106q0 32 -28 70l1 5l18 6q29 -41 29 -82q0 -46 -41 -115l-153 -258h-20l-50 418h-4l-203 -418h-26z" />
<glyph unicode="x" horiz-adv-x="414" d="M12 0l187 233l-114 215l21 8q14 -32 32 -67t39.5 -75t34.5 -65l138 169l24 34h28l-178 -223l123 -225l-21 -8q-21 45 -65.5 125t-50.5 92l-147 -181l-23 -32h-28z" />
<glyph unicode="y" horiz-adv-x="378" d="M-125 -159l5 2q37 -17 66 -17q94 0 208 186l-80 438l23 6q13 -82 40 -236.5t31 -177.5h4l134 226q36 60 36 106q0 32 -28 70l1 5l18 6q29 -41 29 -82q0 -49 -39 -115l-143 -243q-65 -111 -122 -160t-114 -49q-34 0 -68 15z" />
<glyph unicode="z" horiz-adv-x="393" d="M-6 3l323 429h-200l-42 -1l-2 4l4 17l2 2l46 -2h205l17 12l11 -9l-313 -416l27 5q23 0 70.5 -17t69.5 -17q103 0 112 159l9 1l10 -11q-9 -169 -133 -169q-23 0 -71.5 16.5t-71.5 16.5q-36 0 -61 -28h-3z" />
<glyph unicode="{" horiz-adv-x="282" d="M53 244l2 18q57 7 82.5 38t25.5 100l-1 94q0 84 27.5 121.5t82.5 37.5q19 0 36 -5l3 -3l-6 -17q-27 5 -39 5q-44 0 -64 -31.5t-20 -108.5l1 -95q0 -61 -20 -94.5t-61 -49.5v-2q54 -22 54 -87q0 -28 -22.5 -110t-22.5 -114q0 -68 62 -68q12 0 40 5l2 -17q-11 -8 -42 -8 q-82 0 -82 87q0 35 22.5 116.5t22.5 106.5q0 71 -83 81z" />
<glyph unicode="|" horiz-adv-x="321" d="M91 -261q70 567 129 1050l18 2l2 -2q-60 -491 -130 -1054h-17z" />
<glyph unicode="}" horiz-adv-x="281" d="M-23 -139l6 17q27 -5 39 -5q44 0 64 31.5t20 108.5l-1 95q0 61 20 94.5t61 49.5v2q-54 22 -54 87q0 28 22.5 110t22.5 114q0 68 -62 68q-12 0 -40 -5l-2 17q11 8 42 8q82 0 82 -87q0 -35 -22.5 -116.5t-22.5 -106.5q0 -71 83 -81l-2 -18q-57 -7 -82.5 -38t-25.5 -100 l1 -94q0 -84 -27.5 -121.5t-82.5 -37.5q-19 0 -36 5z" />
<glyph unicode="~" horiz-adv-x="481" d="M71 242v5l64 53l6 3q21 -3 98 -24t94 -21q2 0 4.5 0.5t5 2l5 3t6 4.5t6.5 5t8 6t8.5 7t9.5 8.5t10 9.5h6l7 -10v-4l-65 -54l-6 -2q-22 2 -98.5 23.5t-92.5 21.5q-4 0 -8 -2t-10.5 -6.5t-11.5 -9t-15.5 -13.5l-17.5 -15h-6z" />
<glyph unicode="&#xa1;" horiz-adv-x="249" d="M51 -194l63 453h16l4 -5l-63 -448l-4 -3h-14zM124 439q0 20 20 20t20 -20t-20 -20t-20 20z" />
<glyph unicode="&#xa2;" horiz-adv-x="379" d="M55 191q0 122 44 204t131 102l26 153h16l5 -5l-26 -145q20 2 30 2l59 -19l5 -7l-6 -14l-5 -3q-40 23 -68 23l-18 -1l-73 -419q65 13 113 100h6l8 -11q-53 -91 -130 -107l-28 -158h-15l-4 4l27 151h-5q-45 7 -68.5 37t-23.5 113zM75 190q0 -130 79 -130h1l71 417 q-72 -17 -111.5 -92.5t-39.5 -194.5z" />
<glyph unicode="&#xa3;" horiz-adv-x="383" d="M5 4l5 14q34 5 55.5 34t27.5 78l22 178h-67l-3 4l5 16h67l15 119q19 144 142 144q44 0 97 -19l-5 -19l-3 -2q-39 20 -89 20q-106 0 -122 -124l-15 -119h126l2 -4l-5 -16h-125l-22 -178q-9 -74 -53 -108v-2h188l69 1l3 -5l-5 -16h-307z" />
<glyph unicode="&#xa4;" horiz-adv-x="436" d="M53 214l1 5l73 65q-22 28 -22 71q0 53 43 96l-58 66l2 5l10 9h5l58 -66q38 32 86 32q46 0 80 -31l73 65l5 -1l8 -10l-1 -5l-72 -64q22 -30 22 -71q0 -56 -43 -96l58 -66l-1 -5l-12 -10l-5 1l-57 65q-38 -32 -86 -32t-80 32l-74 -66l-5 1zM125 356q0 -41 28 -70t69 -29 q48 0 86 36.5t38 84.5q0 41 -28 70t-69 29q-48 0 -86 -36.5t-38 -84.5z" />
<glyph unicode="&#xa5;" horiz-adv-x="458" d="M16 133l4 17h182l5 39l-29 71h-144l-2 3l4 17h134l-86 211h25l6 -21l103 -253h4l179 253l13 21h25l-147 -211h141l3 -3l-5 -17h-153l-52 -75l-4 -35h195l3 -3l-5 -17h-196l-17 -130h-20l17 130h-181z" />
<glyph unicode="&#xa6;" horiz-adv-x="321" d="M91 -261l51 418l17 3l3 -5l-52 -420h-17zM168 369l52 420l18 2l2 -2l-52 -421l-17 -2z" />
<glyph unicode="&#xa7;" horiz-adv-x="407" d="M15 -70l5 17l6 3q43 -35 102 -35t96 32.5t37 74.5q0 35 -30 71t-66 63t-66 65.5t-30 77.5q0 80 106 136q-33 40 -33 80q0 51 43.5 88t105.5 37q44 0 89 -20l-6 -19l-6 -1q-41 20 -82 20q-55 0 -89 -32t-34 -72q0 -27 19.5 -54.5t48 -51.5t56.5 -49t47.5 -56.5t19.5 -64.5 q0 -79 -106 -133q34 -41 34 -82q0 -53 -45.5 -91.5t-111.5 -38.5q-64 0 -110 35zM89 301q0 -31 21 -59.5t65.5 -66t59.5 -53.5q99 47 99 116q0 33 -21 62t-66 67.5t-59 53.5q-47 -24 -73 -55.5t-26 -64.5z" />
<glyph unicode="&#xa8;" horiz-adv-x="390" d="M145 596q0 20 20 20t20 -20t-20 -20t-20 20zM295 596q0 20 20 20t20 -20t-20 -20t-20 20z" />
<glyph unicode="&#xa9;" horiz-adv-x="688" d="M60 293q0 137 80 221t211 84t211.5 -84t80.5 -221t-80.5 -221t-211.5 -84t-211 84t-80 221zM80 293q0 -128 74.5 -206.5t196.5 -78.5t197 78.5t75 206.5t-75 206.5t-197 78.5t-196.5 -78.5t-74.5 -206.5zM210 295q0 82 38.5 126t111.5 44q53 0 98 -29l-5 -18h-5 q-36 27 -88 27q-63 0 -96.5 -38.5t-33.5 -111.5t32.5 -111.5t92.5 -38.5q55 0 99 32l4 -1l-2 -19q-52 -32 -102 -32q-70 0 -107 44t-37 126z" />
<glyph unicode="&#xaa;" horiz-adv-x="299" d="M72 440q0 82 39.5 139.5t109.5 63.5h3l43 -4l14 6l4 -2l-30 -225l-5 -68l-23 -3l22 169h-4q-57 -107 -127 -169h-8q-38 24 -38 93zM91 445q0 -26 5 -43.5t10.5 -24t10.5 -6.5q6 0 26 21.5t52 69t60 103.5l2 16l4 41l-40 3q-59 -1 -94.5 -53.5t-35.5 -126.5z" />
<glyph unicode="&#xab;" horiz-adv-x="364" d="M47 220l2 11l175 165l11 -9l-1 -6l-164 -158l126 -158l-1 -6l-13 -9zM193 220l2 11l175 165l11 -9l-1 -6l-164 -158l126 -158l-1 -6l-13 -9z" />
<glyph unicode="&#xac;" horiz-adv-x="480" d="M40 263l4 17h373l5 -6l-25 -203l-17 -2l-3 3l23 188h-358z" />
<glyph unicode="&#xad;" horiz-adv-x="312" d="M32 232l2 16l249 33l3 -4l-1 -16l-250 -33z" />
<glyph unicode="&#xae;" horiz-adv-x="432" d="M40 526q0 80 48.5 128t128.5 48q79 0 127.5 -48t48.5 -128t-48 -128.5t-128 -48.5t-128.5 48.5t-48.5 128.5zM59 526q0 -71 43.5 -114.5t114.5 -43.5t114 43.5t43 114.5t-43 114t-114 43t-114.5 -43t-43.5 -114zM159 437v192h59q60 0 60 -55q0 -43 -41 -60q26 -41 53 -73 v-3q-2 -1 -6 -1.5t-8.5 -1.5t-6.5 -1l-3 2q-23 30 -51 74h-35v-13l1 -60h-22zM180 530l40 -2q36 12 36 44q0 37 -43 39l-32 -1z" />
<glyph unicode="&#xaf;" horiz-adv-x="390" d="M95 590l2 17h287l3 -3l-2 -17h-287z" />
<glyph unicode="&#xb0;" horiz-adv-x="295" d="M61 510q0 54 41.5 93t96.5 39q46 0 76.5 -31t30.5 -77q0 -54 -41 -92.5t-96 -38.5q-47 0 -77.5 30.5t-30.5 76.5zM81 513q0 -37 26.5 -63.5t64.5 -26.5q43 0 78 33t35 75q0 38 -26 64.5t-63 26.5q-44 0 -79.5 -33t-35.5 -76z" />
<glyph unicode="&#xb1;" horiz-adv-x="479" d="M4 -62l2 17h397l3 -3l-2 -17h-397zM43 263l4 17h189l23 189l17 2l3 -3l-23 -188h187l3 -3l-4 -17h-189l-23 -189l-17 -2l-3 3l23 188h-187z" />
<glyph unicode="&#xb2;" horiz-adv-x="336" d="M58 332l2 15l123 131q60 64 82.5 94.5t22.5 57.5q0 23 -17 38t-47 15q-62 0 -114 -57h-3l-2 17q54 59 123 59q36 0 58.5 -18.5t22.5 -48.5q0 -31 -24.5 -65.5t-87.5 -101.5l-108 -116l2 -2h175l61 1l1 -4l-5 -17l-65 1h-169l-29 -1z" />
<glyph unicode="&#xb3;" horiz-adv-x="294" d="M53 335v16l2 2q32 -5 60 -5q58 0 95 27t37 72q0 68 -100 73h-33l-2 2l3 15h29q34 0 69.5 28t35.5 65q0 25 -17.5 39.5t-46.5 14.5q-43 0 -91 -39h-3l-2 17q51 41 100 41q37 0 59.5 -18.5t22.5 -49.5q0 -30 -23 -58t-60 -44v-2q79 -17 79 -83q0 -52 -44 -85.5t-111 -33.5 q-31 0 -59 6z" />
<glyph unicode="&#xb4;" horiz-adv-x="390" d="M160 532q69 58 146 137l5 -1l10 -10l-1 -5q-69 -69 -144 -135l-5 1z" />
<glyph unicode="&#xb5;" horiz-adv-x="458" d="M38 -194l72 556l6 90l25 4l-49 -381q-3 -26 9 -43t26 -17q26 0 90.5 85t142.5 230l4 32l7 90l25 4l-46 -350l-9 -106l-25 -4l36 271h-5q-65 -112 -114.5 -179t-98.5 -99h-11q-26 8 -38 30l-13 -103l-9 -106z" />
<glyph unicode="&#xb6;" horiz-adv-x="448" d="M79 428q0 98 57 153.5t159 55.5h164l3 -4l-5 -16h-81l-55 -449l-6 -46q-13 -109 -147 -190l-9 11l1 6q123 75 135 169q12 97 34 275.5t27 223.5h-71q-88 -5 -137 -53.5t-49 -131.5q0 -66 40 -107.5t116 -55.5l-6 -20q-82 14 -126 59t-44 120z" />
<glyph unicode="&#xb7;" horiz-adv-x="230" d="M96 238q0 20 20 20t20 -20t-20 -20t-20 20z" />
<glyph unicode="&#xb8;" horiz-adv-x="390" d="M90 -145l6 18h4q21 -31 49 -31q40 0 40 33q0 17 -24 33l-43 28l24 75h20l-21 -66l31 -20q33 -21 33 -50q0 -24 -17.5 -38.5t-42.5 -14.5q-37 0 -59 33z" />
<glyph unicode="&#xb9;" horiz-adv-x="240" d="M68 654l2 16l123 35l3 -4q-37 -293 -46 -370h-20q10 81 43 348l-101 -27z" />
<glyph unicode="&#xba;" horiz-adv-x="282" d="M71 439q0 89 36.5 146.5t99.5 58.5h3q34 -3 50 -25t16 -66q0 -89 -36 -146t-98 -61h-4q-67 4 -67 93zM91 441q0 -77 52 -77q50 0 81.5 52.5t31.5 133.5q0 76 -51 76t-82.5 -52t-31.5 -133z" />
<glyph unicode="&#xbb;" horiz-adv-x="355" d="M-14 59l1 6l164 158l-126 158l1 6l13 9l135 -170l-2 -11l-175 -165zM132 59l1 6l164 158l-126 158l1 6l13 9l135 -170l-2 -11l-175 -165z" />
<glyph unicode="&#xbc;" horiz-adv-x="654" d="M-9 -77l576 746l10 -5l2 -8l-577 -746l-8 4zM61 591l2 16l123 35l3 -4q-37 -293 -46 -370h-20q10 81 43 348l-101 -27zM336 121l2 15l203 233h19l-29 -232h69l3 -3l-5 -16l-50 1h-19l-13 -117l-3 -2l-16 -2l-2 2l15 119h-140l-31 -1zM360 137h152l25 200h-3z" />
<glyph unicode="&#xbd;" horiz-adv-x="655" d="M-9 -77l576 746l10 -5l2 -8l-577 -746l-8 4zM61 591l2 16l123 35l3 -4q-37 -293 -46 -370h-20q10 81 43 348l-101 -27zM335 1l2 15l123 131q60 64 82.5 94.5t22.5 57.5q0 23 -17 38t-47 15q-62 0 -114 -57h-3l-2 17q54 59 123 59q36 0 58.5 -18.5t22.5 -48.5 q0 -31 -24.5 -65.5t-87.5 -101.5l-108 -116l2 -2h175l61 1l1 -4l-5 -17l-65 1h-169l-29 -1z" />
<glyph unicode="&#xbe;" horiz-adv-x="689" d="M26 -77l576 746l10 -5l2 -8l-577 -746l-8 4zM45 272v16l2 2q32 -5 60 -5q58 0 95 27t37 72q0 68 -100 73h-33l-2 2l3 15h29q34 0 69.5 28t35.5 65q0 25 -17.5 39.5t-46.5 14.5q-43 0 -91 -39h-3l-2 17q51 41 100 41q37 0 59.5 -18.5t22.5 -49.5q0 -30 -23 -58t-60 -44v-2 q79 -17 79 -83q0 -52 -44 -85.5t-111 -33.5q-30 0 -59 6zM371 121l2 15l203 233h19l-29 -232h69l3 -3l-5 -16l-50 1h-19l-13 -117l-3 -2l-16 -2l-2 2l15 119h-140l-31 -1zM395 137h152l25 200h-3z" />
<glyph unicode="&#xbf;" horiz-adv-x="323" d="M-21 -56q0 81 94 141l104 66l2 3l8 108l17 1l2 -4l-7 -112l-6 -9l-110 -69q-83 -52 -83 -121q0 -54 51 -87t147 -39l2 -3l-7 -13l-7 -3q-97 8 -152 45t-55 96zM188 439q0 20 20 20t20 -20t-20 -20t-20 20z" />
<glyph unicode="&#xc0;" horiz-adv-x="524" d="M-8 0l319 637h21l138 -637h-23l-6 43l-37 170h-283l-85 -170l-20 -43h-24zM131 233h268l-81 370h-3zM242 822l7 12l5 2q85 -50 176 -94l-7 -15l-5 -3q-107 55 -174 93z" />
<glyph unicode="&#xc1;" horiz-adv-x="524" d="M-8 0l319 637h21l138 -637h-23l-6 43l-37 170h-283l-85 -170l-20 -43h-24zM131 233h268l-81 370h-3zM253 742q91 44 176 94l5 -2l7 -12l-2 -5q-67 -38 -174 -93l-5 3z" />
<glyph unicode="&#xc2;" horiz-adv-x="524" d="M-8 0l319 637h21l138 -637h-23l-6 43l-37 170h-283l-85 -170l-20 -43h-24zM131 233h268l-81 370h-3zM230 750q44 28 106 76h16q60 -52 91 -76l-8 -14h-5q-40 29 -87 70q-47 -35 -103 -70h-5z" />
<glyph unicode="&#xc3;" horiz-adv-x="524" d="M-8 0l319 637h21l138 -637h-23l-6 43l-37 170h-283l-85 -170l-20 -43h-24zM131 233h268l-81 370h-3zM198 760v4l52 47l6 2q18 -2 80.5 -20t75.5 -18q3 0 6.5 2t8.5 6t9.5 8t12 11.5t14.5 13.5h4l9 -11v-4l-52 -47l-6 -2q-18 2 -80.5 20t-75.5 18q-3 0 -6.5 -2t-8.5 -6 t-9.5 -8t-12 -11.5t-14.5 -13.5h-4z" />
<glyph unicode="&#xc4;" horiz-adv-x="524" d="M-8 0l319 637h21l138 -637h-23l-6 43l-37 170h-283l-85 -170l-20 -43h-24zM131 233h268l-81 370h-3zM242 781q0 20 20 20t20 -20t-20 -20t-20 20zM392 781q0 20 20 20t20 -20t-20 -20t-20 20z" />
<glyph unicode="&#xc5;" horiz-adv-x="524" d="M-8 0l319 637h21l138 -637h-23l-6 43l-37 170h-283l-85 -170l-20 -43h-24zM131 233h268l-81 370h-3zM266 784q0 30 19.5 49.5t50.5 19.5q33 0 52 -21t19 -49q0 -31 -21.5 -50t-49.5 -19t-49 19t-21 51zM286 784q0 -23 14.5 -36.5t35.5 -13.5t36 13t15 36q0 21 -13.5 35.5 t-37.5 14.5q-23 0 -36.5 -13.5t-13.5 -35.5z" />
<glyph unicode="&#xc6;" horiz-adv-x="744" d="M-42 0l426 637h285l2 -4l-7 -16h-258l9 -304l227 39l2 -3l-5 -17l-224 -38l8 -274h271l1 -4l-6 -16h-286v43l-8 247l-249 -43l-135 -204l-26 -43h-27zM162 270l232 40l-9 292h-3z" />
<glyph unicode="&#xc7;" horiz-adv-x="497" d="M55 251q0 182 77.5 286t217.5 104q96 0 160 -59l-9 -17h-7q-59 56 -146 56q-130 0 -201.5 -98t-71.5 -270q0 -115 47.5 -176.5t138.5 -61.5q94 0 180 67l7 -2l-4 -18q-84 -60 -165 -66l-16 -51l31 -20q33 -21 33 -50q0 -24 -17.5 -38.5t-42.5 -14.5q-37 0 -59 33l6 18h4 q21 -31 49 -31q40 0 40 33q0 17 -24 33l-43 28l19 59q-99 1 -151.5 67t-52.5 189z" />
<glyph unicode="&#xc8;" horiz-adv-x="432" d="M80 0q11 82 80 637h291l2 -4l-6 -16h-269l-35 -277h223l3 -4l-6 -16h-222q-13 -100 -38 -300h273l3 -4l-6 -16h-293zM234 822l7 12l5 2q85 -50 176 -94l-7 -15l-5 -3q-107 55 -174 93z" />
<glyph unicode="&#xc9;" horiz-adv-x="432" d="M80 0q11 82 80 637h291l2 -4l-6 -16h-269l-35 -277h223l3 -4l-6 -16h-222q-13 -100 -38 -300h273l3 -4l-6 -16h-293zM245 742q91 44 176 94l5 -2l7 -12l-2 -5q-67 -38 -174 -93l-5 3z" />
<glyph unicode="&#xca;" horiz-adv-x="432" d="M80 0q11 82 80 637h291l2 -4l-6 -16h-269l-35 -277h223l3 -4l-6 -16h-222q-13 -100 -38 -300h273l3 -4l-6 -16h-293zM222 750q44 28 106 76h16q60 -52 91 -76l-8 -14h-5q-40 29 -87 70q-47 -35 -103 -70h-5z" />
<glyph unicode="&#xcb;" horiz-adv-x="432" d="M80 0q11 82 80 637h291l2 -4l-6 -16h-269l-35 -277h223l3 -4l-6 -16h-222q-13 -100 -38 -300h273l3 -4l-6 -16h-293zM234 781q0 9 5.5 14.5t14.5 5.5t14.5 -5.5t5.5 -14.5t-5.5 -14.5t-14.5 -5.5t-14.5 5.5t-5.5 14.5zM384 781q0 9 5.5 14.5t14.5 5.5t14.5 -5.5 t5.5 -14.5t-5.5 -14.5t-14.5 -5.5t-14.5 5.5t-5.5 14.5z" />
<glyph unicode="&#xcc;" horiz-adv-x="235" d="M80 0q11 82 80 637h20q-70 -557 -80 -637h-20zM91 822l7 12l5 2q85 -50 176 -94l-7 -15l-5 -3q-107 55 -174 93z" />
<glyph unicode="&#xcd;" horiz-adv-x="235" d="M80 0q11 82 80 637h20q-70 -557 -80 -637h-20zM102 742q91 44 176 94l5 -2l7 -12l-2 -5q-67 -38 -174 -93l-5 3z" />
<glyph unicode="&#xce;" horiz-adv-x="235" d="M79 750q44 28 106 76h16q60 -52 91 -76l-8 -14h-5q-40 29 -87 70q-47 -35 -103 -70h-5zM80 0q11 82 80 637h20q-70 -557 -80 -637h-20z" />
<glyph unicode="&#xd0;" horiz-adv-x="630" d="M31 322l2 17h110l37 298l190 5q111 0 170 -64.5t59 -184.5q0 -184 -84 -291t-235 -107q-75 0 -180 5q29 230 40 319h-108zM122 19q14 0 52.5 -1t68.5 -2t40 -1q139 0 217 101t78 274q0 112 -54 172t-156 60q-78 0 -170 -5l-35 -278h180l2 -3l-3 -17h-182 q-11 -98 -38 -300z" />
<glyph unicode="&#xd1;" horiz-adv-x="640" d="M80 0q9 74 81 637h19l304 -595h4l77 594l20 2q-76 -589 -82 -638h-19l-304 595h-4q-63 -488 -76 -595h-20zM250 760v4l52 47l6 2q18 -2 80.5 -20t75.5 -18q3 0 6.5 2t8.5 6t9.5 8t12 11.5t14.5 13.5h4l9 -11v-4l-52 -47l-6 -2q-18 2 -80.5 20t-75.5 18q-3 0 -6.5 -2 t-8.5 -6t-9.5 -8t-12 -11.5t-14.5 -13.5h-4z" />
<glyph unicode="&#xd2;" horiz-adv-x="599" d="M56 253q0 182 78.5 285.5t220.5 103.5q104 0 158.5 -65t54.5 -186q0 -185 -79 -290.5t-222 -105.5q-102 0 -156.5 67t-54.5 191zM77 256q0 -115 49.5 -178t141.5 -63q132 0 205.5 100t73.5 272q0 113 -49 174t-144 61q-131 0 -204 -97.5t-73 -268.5zM273 822l7 12l5 2 q85 -50 176 -94l-7 -15l-5 -3q-107 55 -174 93z" />
<glyph unicode="&#xd3;" horiz-adv-x="599" d="M56 253q0 182 78.5 285.5t220.5 103.5q104 0 158.5 -65t54.5 -186q0 -185 -79 -290.5t-222 -105.5q-102 0 -156.5 67t-54.5 191zM77 256q0 -115 49.5 -178t141.5 -63q132 0 205.5 100t73.5 272q0 113 -49 174t-144 61q-131 0 -204 -97.5t-73 -268.5zM284 742 q91 44 176 94l5 -2l7 -12l-2 -5q-67 -38 -174 -93l-5 3z" />
<glyph unicode="&#xd4;" horiz-adv-x="599" d="M56 253q0 182 78.5 285.5t220.5 103.5q104 0 158.5 -65t54.5 -186q0 -185 -79 -290.5t-222 -105.5q-102 0 -156.5 67t-54.5 191zM77 256q0 -115 49.5 -178t141.5 -63q132 0 205.5 100t73.5 272q0 113 -49 174t-144 61q-131 0 -204 -97.5t-73 -268.5zM261 750 q44 28 106 76h16q60 -52 91 -76l-8 -14h-5q-40 29 -87 70q-47 -35 -103 -70h-5z" />
<glyph unicode="&#xd5;" horiz-adv-x="599" d="M56 253q0 182 78.5 285.5t220.5 103.5q104 0 158.5 -65t54.5 -186q0 -185 -79 -290.5t-222 -105.5q-102 0 -156.5 67t-54.5 191zM77 256q0 -115 49.5 -178t141.5 -63q132 0 205.5 100t73.5 272q0 113 -49 174t-144 61q-131 0 -204 -97.5t-73 -268.5zM229 760v4l52 47l6 2 q18 -2 80.5 -20t75.5 -18q3 0 6.5 2t8.5 6t9.5 8t12 11.5t14.5 13.5h4l9 -11v-4l-52 -47l-6 -2q-18 2 -80.5 20t-75.5 18q-3 0 -6.5 -2t-8.5 -6t-9.5 -8t-12 -11.5t-14.5 -13.5h-4z" />
<glyph unicode="&#xd7;" horiz-adv-x="481" d="M82 133v4l150 133l-117 133l1 4l14 11l117 -134l151 134l12 -11l-1 -4l-149 -133l116 -133v-4l-14 -11l-118 134l-150 -134z" />
<glyph unicode="&#xd8;" horiz-adv-x="600" d="M56 253q0 182 78.5 285.5t220.5 103.5q71 0 118 -30l55 97l16 -3l1 -5l-56 -100q79 -64 79 -210q0 -185 -79 -290.5t-222 -105.5q-61 0 -105 24l-60 -106l-15 3l-2 4l61 109q-90 63 -90 224zM77 256q0 -148 80 -208l306 545q-44 29 -109 29q-131 0 -204 -97.5t-73 -268.5 zM172 38q41 -23 96 -23q132 0 205.5 100t73.5 272q0 137 -69 195z" />
<glyph unicode="&#xd9;" horiz-adv-x="583" d="M81 176q0 29 4 53q9 60 17.5 128t19 151.5t16.5 128.5h20l-53 -408q-4 -34 -4 -49q0 -80 42.5 -122t121.5 -42q91 0 146 55t69 158l51 408h20q-6 -47 -16.5 -128.5t-19 -150t-15.5 -129.5q-11 -111 -72.5 -172t-161.5 -61q-89 0 -137 46.5t-48 133.5zM265 822l7 12l5 2 q85 -50 176 -94l-7 -15l-5 -3q-107 55 -174 93z" />
<glyph unicode="&#xda;" horiz-adv-x="583" d="M81 176q0 29 4 53q9 60 17.5 128t19 151.5t16.5 128.5h20l-53 -408q-4 -34 -4 -49q0 -80 42.5 -122t121.5 -42q91 0 146 55t69 158l51 408h20q-6 -47 -16.5 -128.5t-19 -150t-15.5 -129.5q-11 -111 -72.5 -172t-161.5 -61q-89 0 -137 46.5t-48 133.5zM276 742 q91 44 176 94l5 -2l7 -12l-2 -5q-67 -38 -174 -93l-5 3z" />
<glyph unicode="&#xdb;" horiz-adv-x="583" d="M81 176q0 29 4 53q9 60 17.5 128t19 151.5t16.5 128.5h20l-53 -408q-4 -34 -4 -49q0 -80 42.5 -122t121.5 -42q91 0 146 55t69 158l51 408h20q-6 -47 -16.5 -128.5t-19 -150t-15.5 -129.5q-11 -111 -72.5 -172t-161.5 -61q-89 0 -137 46.5t-48 133.5zM253 750 q44 28 106 76h16q60 -52 91 -76l-8 -14h-5q-40 29 -87 70q-47 -35 -103 -70h-5z" />
<glyph unicode="&#xdc;" horiz-adv-x="583" d="M81 176q0 29 4 53q9 60 17.5 128t19 151.5t16.5 128.5h20l-53 -408q-4 -34 -4 -49q0 -80 42.5 -122t121.5 -42q91 0 146 55t69 158l51 408h20q-6 -47 -16.5 -128.5t-19 -150t-15.5 -129.5q-11 -111 -72.5 -172t-161.5 -61q-89 0 -137 46.5t-48 133.5zM265 781q0 20 20 20 t20 -20t-20 -20t-20 20zM415 781q0 20 20 20t20 -20t-20 -20t-20 20z" />
<glyph unicode="&#xde;" horiz-adv-x="467" d="M80 0q11 82 80 637h20l-15 -123l113 2q73 0 112 -39t39 -111q0 -113 -60 -176.5t-170 -63.5h-83l-16 -126h-20zM119 146h112q83 8 130.5 66.5t47.5 149.5q0 62 -32.5 96.5t-93.5 37.5l-121 -1q-3 -24 -19 -152.5t-24 -196.5z" />
<glyph unicode="&#xdf;" horiz-adv-x="516" d="M71 433l4 16h72l13 105q9 72 52 111t113 39q60 0 96 -27t36 -81q0 -34 -15 -62.5t-36.5 -48t-43 -37.5t-36.5 -42t-15 -51q0 -24 11 -45.5t28 -36.5t36.5 -32.5t36.5 -33.5t28 -39.5t11 -49.5q0 -35 -18.5 -63t-52.5 -44.5t-76 -16.5q-48 7 -86 34l2 18l7 4 q41 -35 89 -35q33 0 59 14t40.5 37t14.5 51t-15.5 51.5t-37.5 42t-44 37.5t-37.5 46t-15.5 59q0 27 11 50t27 38.5t35 32.5t35 32.5t27 38t11 49.5q0 46 -31 68t-82 22q-64 0 -100 -35t-44 -95q-56 -437 -73 -578l-9 -106l-25 -4q47 371 71 563h-69z" />
<glyph unicode="&#xe0;" d="M46 137q0 131 60.5 222t166.5 98h4l65 -5l12 7l5 -3l-46 -350l-9 -106l-25 -4l36 275h-4q-93 -177 -202 -275h-11q-27 20 -39.5 52t-12.5 89zM66 141q0 -41 8 -69t16.5 -38t15.5 -10q8 0 39.5 34t82.5 110t95 165l4 29l7 70l-59 5q-63 -1 -111.5 -44t-73 -109t-24.5 -143 zM179 658l10 10l5 1q77 -79 146 -137l-11 -13l-5 -1q-75 66 -144 135z" />
<glyph unicode="&#xe1;" d="M46 137q0 131 60.5 222t166.5 98h4l65 -5l12 7l5 -3l-46 -350l-9 -106l-25 -4l36 275h-4q-93 -177 -202 -275h-11q-27 20 -39.5 52t-12.5 89zM66 141q0 -41 8 -69t16.5 -38t15.5 -10q8 0 39.5 34t82.5 110t95 165l4 29l7 70l-59 5q-63 -1 -111.5 -44t-73 -109t-24.5 -143 zM192 532q69 58 146 137l5 -1l10 -10l-1 -5q-69 -69 -144 -135l-5 1z" />
<glyph unicode="&#xe2;" d="M46 137q0 131 60.5 222t166.5 98h4l65 -5l12 7l5 -3l-46 -350l-9 -106l-25 -4l36 275h-4q-93 -177 -202 -275h-11q-27 20 -39.5 52t-12.5 89zM66 141q0 -41 8 -69t16.5 -38t15.5 -10q8 0 39.5 34t82.5 110t95 165l4 29l7 70l-59 5q-63 -1 -111.5 -44t-73 -109t-24.5 -143 zM158 522q37 36 116 126h18q46 -74 86 -126l-11 -12h-5q-39 50 -81 117q-59 -68 -110 -117h-5z" />
<glyph unicode="&#xe3;" d="M46 137q0 131 60.5 222t166.5 98h4l65 -5l12 7l5 -3l-46 -350l-9 -106l-25 -4l36 275h-4q-93 -177 -202 -275h-11q-27 20 -39.5 52t-12.5 89zM66 141q0 -41 8 -69t16.5 -38t15.5 -10q8 0 39.5 34t82.5 110t95 165l4 29l7 70l-59 5q-63 -1 -111.5 -44t-73 -109t-24.5 -143 zM131 575v4l52 47l6 2q18 -2 80.5 -20t75.5 -18q3 0 6.5 2t8.5 6t9.5 8t12 11.5t14.5 13.5h4l9 -11v-4l-52 -47l-6 -2q-18 2 -80.5 20t-75.5 18q-3 0 -6.5 -2t-8.5 -6t-9.5 -8t-12 -11.5t-14.5 -13.5h-4z" />
<glyph unicode="&#xe4;" d="M46 137q0 131 60.5 222t166.5 98h4l65 -5l12 7l5 -3l-46 -350l-9 -106l-25 -4l36 275h-4q-93 -177 -202 -275h-11q-27 20 -39.5 52t-12.5 89zM66 141q0 -41 8 -69t16.5 -38t15.5 -10q8 0 39.5 34t82.5 110t95 165l4 29l7 70l-59 5q-63 -1 -111.5 -44t-73 -109t-24.5 -143 zM175 596q0 20 20 20t20 -20t-20 -20t-20 20zM325 596q0 20 20 20t20 -20t-20 -20t-20 20z" />
<glyph unicode="&#xe5;" d="M46 137q0 131 60.5 222t166.5 98h4l65 -5l12 7l5 -3l-46 -350l-9 -106l-25 -4l36 275h-4q-93 -177 -202 -275h-11q-27 20 -39.5 52t-12.5 89zM66 141q0 -41 8 -69t16.5 -38t15.5 -10q8 0 39.5 34t82.5 110t95 165l4 29l7 70l-59 5q-63 -1 -111.5 -44t-73 -109t-24.5 -143 zM199 599q0 30 19.5 49.5t50.5 19.5q33 0 52 -21t19 -49q0 -31 -21.5 -50t-49.5 -19t-49 19.5t-21 50.5zM219 599q0 -23 14.5 -36.5t35.5 -13.5t36 13t15 36q0 21 -13.5 35.5t-37.5 14.5q-23 0 -36.5 -13.5t-13.5 -35.5z" />
<glyph unicode="&#xe6;" horiz-adv-x="572" d="M53 137q0 131 60.5 222t166.5 98h4l102 -26q37 24 79 26h5q75 -6 75 -69q0 -117 -254 -212q-1 -14 -1 -28q0 -132 79 -132q75 0 131 102h7l9 -13q-58 -99 -145 -110h-9q-49 6 -70.5 41.5t-21.5 106.5q0 50 7 89q-77 -150 -161 -236h-11q-27 20 -39.5 52t-12.5 89zM73 141 q0 -41 8 -69t16.5 -38t15.5 -10q8 0 37.5 36.5t75.5 113t83 161.5q25 50 57 79l-84 23q-63 -1 -111.5 -44t-73 -109t-24.5 -143zM293 198q111 41 171 90t60 97q0 23 -14.5 37t-42.5 14q-66 0 -114.5 -67t-59.5 -171z" />
<glyph unicode="&#xe7;" horiz-adv-x="323" d="M47 142q0 141 54 227.5t161 86.5l56 -19l5 -7l-6 -14l-5 -3q-37 23 -64 23q-85 -1 -133 -80t-48 -215q0 -125 73 -125t125 102h6l9 -13q-51 -90 -120 -106l-17 -54l31 -20q33 -21 33 -50q0 -24 -17.5 -38.5t-42.5 -14.5q-37 0 -59 33l6 18h4q21 -31 49 -31q40 0 40 33 q0 17 -24 33l-43 28l19 59h-6q-42 7 -64 36.5t-22 110.5z" />
<glyph unicode="&#xe8;" horiz-adv-x="354" d="M47 143q0 133 56 222.5t139 91.5h5q75 -6 75 -69q0 -117 -254 -212l-1 -28q0 -132 79 -132q75 0 131 102h7l9 -13q-58 -99 -145 -110h-9q-49 6 -70.5 41.5t-21.5 106.5zM70 198q111 41 171 90t60 97q0 23 -14.5 37t-42.5 14q-66 0 -114.5 -67t-59.5 -171zM160 658l10 10 l5 1q77 -79 146 -137l-11 -13l-5 -1q-75 66 -144 135z" />
<glyph unicode="&#xe9;" horiz-adv-x="354" d="M47 143q0 133 56 222.5t139 91.5h5q75 -6 75 -69q0 -117 -254 -212l-1 -28q0 -132 79 -132q75 0 131 102h7l9 -13q-58 -99 -145 -110h-9q-49 6 -70.5 41.5t-21.5 106.5zM70 198q111 41 171 90t60 97q0 23 -14.5 37t-42.5 14q-66 0 -114.5 -67t-59.5 -171zM173 532 q69 58 146 137l5 -1l10 -10l-1 -5q-69 -69 -144 -135l-5 1z" />
<glyph unicode="&#xea;" horiz-adv-x="354" d="M47 143q0 133 56 222.5t139 91.5h5q75 -6 75 -69q0 -117 -254 -212l-1 -28q0 -132 79 -132q75 0 131 102h7l9 -13q-58 -99 -145 -110h-9q-49 6 -70.5 41.5t-21.5 106.5zM70 198q111 41 171 90t60 97q0 23 -14.5 37t-42.5 14q-66 0 -114.5 -67t-59.5 -171zM139 522 q37 36 116 126h18q46 -74 86 -126l-11 -12h-5q-39 50 -81 117q-59 -68 -110 -117h-5z" />
<glyph unicode="&#xeb;" horiz-adv-x="354" d="M47 143q0 133 56 222.5t139 91.5h5q75 -6 75 -69q0 -117 -254 -212l-1 -28q0 -132 79 -132q75 0 131 102h7l9 -13q-58 -99 -145 -110h-9q-49 6 -70.5 41.5t-21.5 106.5zM70 198q111 41 171 90t60 97q0 23 -14.5 37t-42.5 14q-66 0 -114.5 -67t-59.5 -171zM156 596 q0 20 20 20t20 -20t-20 -20t-20 20zM306 596q0 20 20 20t20 -20t-20 -20t-20 20z" />
<glyph unicode="&#xec;" horiz-adv-x="203" d="M56 658l10 10l5 1q77 -79 146 -137l-11 -13l-5 -1q-75 66 -144 135zM61 -4l49 366l6 90l25 4l-46 -350l-7 -106z" />
<glyph unicode="&#xed;" horiz-adv-x="203" d="M61 -4l49 366l6 90l25 4l-46 -350l-7 -106zM69 532q69 58 146 137l5 -1l10 -10l-1 -5q-69 -69 -144 -135l-5 1z" />
<glyph unicode="&#xee;" horiz-adv-x="203" d="M35 522q37 36 116 126h18q46 -74 86 -126l-11 -12h-5q-39 50 -81 117q-59 -68 -110 -117h-5zM61 -4l49 366l6 90l25 4l-46 -350l-7 -106z" />
<glyph unicode="&#xf0;" d="M59 134q0 139 54.5 230.5t146.5 93.5h5q39 -3 59 -22q-23 83 -76 145l-139 -58l-3 3l-3 16l131 55q-57 57 -131 90v5l10 10h4q82 -34 139 -96l117 49l4 -3l3 -16l-110 -46q91 -111 91 -270q0 -139 -54 -229.5t-146 -96.5h-5q-50 3 -73.5 36.5t-23.5 103.5zM79 137 q0 -122 81 -122q79 0 129.5 86t50.5 216q0 29 -3 57q-15 63 -77 63q-80 0 -130.5 -85t-50.5 -215z" />
<glyph unicode="&#xf1;" horiz-adv-x="445" d="M61 -4l48 366l7 90l25 4l-36 -272h5q65 112 114.5 179t98.5 99h11q24 -7 38 -30.5t13 -54.5q-7 -54 -23.5 -152t-20.5 -124l-12 -101l-25 -4l59 365l1 15q1 25 -10 42.5t-24 17.5q-26 0 -90 -85t-143 -231l-2 -14l-9 -106zM134 575v4l52 47l6 2q18 -2 80.5 -20t75.5 -18 q3 0 6.5 2t8.5 6t9.5 8t12 11.5t14.5 13.5h4l9 -11v-4l-52 -47l-6 -2q-18 2 -80.5 20t-75.5 18q-3 0 -6.5 -2t-8.5 -6t-9.5 -8t-12 -11.5t-14.5 -13.5h-4z" />
<glyph unicode="&#xf2;" horiz-adv-x="396" d="M48 134q0 139 54.5 230.5t145.5 93.5h5q50 -4 72.5 -37t22.5 -101q0 -139 -53.5 -229.5t-145.5 -96.5h-5q-50 3 -73 36.5t-23 103.5zM68 137q0 -122 80 -122q79 0 129 86t50 216q0 62 -19 91t-60 29q-79 0 -129.5 -85t-50.5 -215zM158 658l10 10l5 1q77 -79 146 -137 l-11 -13l-5 -1q-75 66 -144 135z" />
<glyph unicode="&#xf3;" horiz-adv-x="396" d="M48 134q0 139 54.5 230.5t145.5 93.5h5q50 -4 72.5 -37t22.5 -101q0 -139 -53.5 -229.5t-145.5 -96.5h-5q-50 3 -73 36.5t-23 103.5zM68 137q0 -122 80 -122q79 0 129 86t50 216q0 62 -19 91t-60 29q-79 0 -129.5 -85t-50.5 -215zM171 532q69 58 146 137l5 -1l10 -10 l-1 -5q-69 -69 -144 -135l-5 1z" />
<glyph unicode="&#xf4;" horiz-adv-x="396" d="M48 134q0 139 54.5 230.5t145.5 93.5h5q50 -4 72.5 -37t22.5 -101q0 -139 -53.5 -229.5t-145.5 -96.5h-5q-50 3 -73 36.5t-23 103.5zM68 137q0 -122 80 -122q79 0 129 86t50 216q0 62 -19 91t-60 29q-79 0 -129.5 -85t-50.5 -215zM137 522q37 36 116 126h18 q46 -74 86 -126l-11 -12h-5q-39 50 -81 117q-59 -68 -110 -117h-5z" />
<glyph unicode="&#xf5;" horiz-adv-x="396" d="M48 134q0 139 54.5 230.5t145.5 93.5h5q50 -4 72.5 -37t22.5 -101q0 -139 -53.5 -229.5t-145.5 -96.5h-5q-50 3 -73 36.5t-23 103.5zM68 137q0 -122 80 -122q79 0 129 86t50 216q0 62 -19 91t-60 29q-79 0 -129.5 -85t-50.5 -215zM110 575v4l52 47l6 2q18 -2 80.5 -20 t75.5 -18q3 0 6.5 2t8.5 6t9.5 8t12 11.5t14.5 13.5h4l9 -11v-4l-52 -47l-6 -2q-18 2 -80.5 20t-75.5 18q-3 0 -6.5 -2t-8.5 -6t-9.5 -8t-12 -11.5t-14.5 -13.5h-4z" />
<glyph unicode="&#xf7;" horiz-adv-x="479" d="M43 263l2 17h397l3 -3l-2 -17h-397zM203 88q0 20 20 20t20 -20t-20 -20t-20 20zM247 451q0 20 20 20t20 -20t-20 -20t-20 20z" />
<glyph unicode="&#xf8;" horiz-adv-x="396" d="M48 134q0 139 54.5 230.5t145.5 93.5h5q22 -2 35 -8l35 80l15 -2l2 -5l-35 -81q43 -29 43 -122q0 -139 -53.5 -229.5t-145.5 -96.5h-5q-17 1 -32 6l-46 -107l-15 3l-2 4l47 107q-48 29 -48 127zM68 137q0 -85 36 -110l176 404q-13 6 -32 6q-79 0 -129.5 -85t-50.5 -215z M121 19q11 -4 27 -4q79 0 129 86t50 216q0 78 -31 105z" />
<glyph unicode="&#xf9;" horiz-adv-x="454" d="M68 74q7 54 23.5 152t20.5 124l12 101l25 4l-59 -365l-1 -15q-1 -25 10 -42.5t24 -17.5q26 0 90.5 85t142.5 230l4 32l7 90l25 4l-46 -350l-9 -106l-25 -4l36 271h-5q-65 -112 -114.5 -179t-98.5 -99h-11q-24 7 -38 30.5t-13 54.5zM182 658l10 10l5 1q77 -79 146 -137 l-11 -13l-5 -1q-75 66 -144 135z" />
<glyph unicode="&#xfa;" horiz-adv-x="454" d="M68 74q7 54 23.5 152t20.5 124l12 101l25 4l-59 -365l-1 -15q-1 -25 10 -42.5t24 -17.5q26 0 90.5 85t142.5 230l4 32l7 90l25 4l-46 -350l-9 -106l-25 -4l36 271h-5q-65 -112 -114.5 -179t-98.5 -99h-11q-24 7 -38 30.5t-13 54.5zM195 532q69 58 146 137l5 -1l10 -10 l-1 -5q-69 -69 -144 -135l-5 1z" />
<glyph unicode="&#xfb;" horiz-adv-x="454" d="M68 74q7 54 23.5 152t20.5 124l12 101l25 4l-59 -365l-1 -15q-1 -25 10 -42.5t24 -17.5q26 0 90.5 85t142.5 230l4 32l7 90l25 4l-46 -350l-9 -106l-25 -4l36 271h-5q-65 -112 -114.5 -179t-98.5 -99h-11q-24 7 -38 30.5t-13 54.5zM161 522q37 36 116 126h18 q46 -74 86 -126l-11 -12h-5q-39 50 -81 117q-59 -68 -110 -117h-5z" />
<glyph unicode="&#xfc;" horiz-adv-x="454" d="M68 74q7 54 23.5 152t20.5 124l12 101l25 4l-59 -365l-1 -15q-1 -25 10 -42.5t24 -17.5q26 0 90.5 85t142.5 230l4 32l7 90l25 4l-46 -350l-9 -106l-25 -4l36 271h-5q-65 -112 -114.5 -179t-98.5 -99h-11q-24 7 -38 30.5t-13 54.5zM178 596q0 20 20 20t20 -20t-20 -20 t-20 20zM328 596q0 20 20 20t20 -20t-20 -20t-20 20z" />
<glyph unicode="&#xfe;" horiz-adv-x="429" d="M38 -191l105 799l6 90l25 4l-68 -523h4q94 176 204 275h11q28 -22 40 -52t12 -85q0 -133 -61.5 -223.5t-169.5 -97.5h-4l-58 14l-12 -91l-9 -106zM87 31l58 -15q96 0 154 87.5t58 208.5q0 40 -7.5 67.5t-16 37t-15.5 9.5q-8 0 -39.5 -34t-83.5 -109.5t-97 -163.5z" />
<glyph unicode="&#xff;" horiz-adv-x="378" d="M-125 -159l5 2q37 -17 66 -17q94 0 208 186l-80 438l23 6q13 -82 40 -236.5t31 -177.5h4l134 226q36 60 36 106q0 32 -28 70l1 5l18 6q29 -41 29 -82q0 -49 -39 -115l-143 -243q-65 -111 -122 -160t-114 -49q-34 0 -68 15zM140 596q0 9 5.5 14.5t14.5 5.5t14.5 -5.5 t5.5 -14.5t-5.5 -14.5t-14.5 -5.5t-14.5 5.5t-5.5 14.5zM290 596q0 9 5.5 14.5t14.5 5.5t14.5 -5.5t5.5 -14.5t-5.5 -14.5t-14.5 -5.5t-14.5 5.5t-5.5 14.5z" />
<glyph unicode="&#x152;" horiz-adv-x="789" d="M56 260q0 179 90.5 284t248.5 105q25 0 70.5 -6t72.5 -6h269l3 -4l-6 -16h-270l-34 -277h222l2 -4l-6 -16h-222q-14 -116 -37 -300h274l3 -4l-6 -16h-273q-28 0 -80.5 -6t-75.5 -6q-118 0 -181.5 72t-63.5 200zM76 262q0 -121 59.5 -187.5t173.5 -66.5q42 0 102 10 q17 3 23 8t8 17l66 543q2 12 1.5 19t-2.5 9.5t-8 3.5q-59 11 -107 11q-147 0 -231.5 -99t-84.5 -268z" />
<glyph unicode="&#x153;" horiz-adv-x="621" d="M52 134q0 139 54.5 230.5t146.5 93.5h5q51 -4 73 -36.5t22 -99.5q26 61 68.5 97.5t92.5 37.5h5q75 -6 75 -69q0 -117 -254 -212l-1 -28q0 -132 79 -132q75 0 131 102h7l9 -13q-58 -99 -145 -110h-9q-47 6 -68 38.5t-23 98.5q-25 -62 -67.5 -98t-98.5 -40h-5 q-50 3 -73.5 36.5t-23.5 103.5zM72 137q0 -122 81 -122q79 0 129.5 86t50.5 216q0 62 -19 91t-61 29q-80 0 -130.5 -85t-50.5 -215zM342 198q111 41 171 90t60 97q0 23 -14.5 37t-42.5 14q-58 0 -104 -53.5t-64 -140.5q-1 -12 -5 -34z" />
<glyph unicode="&#x178;" horiz-adv-x="469" d="M77 637h25l7 -26l120 -334h5l218 334l14 26h26l-254 -390q-5 -36 -10 -77.5t-11 -91.5t-10 -78h-20l24 195l7 50zM208 781q0 9 5.5 14.5t14.5 5.5t14.5 -5.5t5.5 -14.5t-5.5 -14.5t-14.5 -5.5t-14.5 5.5t-5.5 14.5zM358 781q0 9 5.5 14.5t14.5 5.5t14.5 -5.5t5.5 -14.5 t-5.5 -14.5t-14.5 -5.5t-14.5 5.5t-5.5 14.5z" />
<glyph unicode="&#x2c6;" horiz-adv-x="390" d="M121 522q37 36 116 126h18q46 -74 86 -126l-11 -12h-5q-39 50 -81 117q-59 -68 -110 -117h-5z" />
<glyph unicode="&#x2dc;" horiz-adv-x="390" d="M101 575v4l52 47l6 2q18 -2 80.5 -20t75.5 -18q3 0 6.5 2t8.5 6t9.5 8t12 11.5t14.5 13.5h4l9 -11v-4l-52 -47l-6 -2q-18 2 -80.5 20t-75.5 18q-3 0 -6.5 -2t-8.5 -6t-9.5 -8t-12 -11.5t-14.5 -13.5h-4z" />
<glyph unicode="&#x2000;" horiz-adv-x="426" />
<glyph unicode="&#x2001;" horiz-adv-x="853" />
<glyph unicode="&#x2002;" horiz-adv-x="426" />
<glyph unicode="&#x2003;" horiz-adv-x="853" />
<glyph unicode="&#x2004;" horiz-adv-x="284" />
<glyph unicode="&#x2005;" horiz-adv-x="213" />
<glyph unicode="&#x2006;" horiz-adv-x="142" />
<glyph unicode="&#x2007;" horiz-adv-x="142" />
<glyph unicode="&#x2008;" horiz-adv-x="106" />
<glyph unicode="&#x2009;" horiz-adv-x="170" />
<glyph unicode="&#x200a;" horiz-adv-x="47" />
<glyph unicode="&#x2010;" horiz-adv-x="312" d="M32 232l2 16l249 33l3 -4l-1 -16l-250 -33z" />
<glyph unicode="&#x2011;" horiz-adv-x="312" d="M32 232l2 16l249 33l3 -4l-1 -16l-250 -33z" />
<glyph unicode="&#x2012;" horiz-adv-x="312" d="M32 232l2 16l249 33l3 -4l-1 -16l-250 -33z" />
<glyph unicode="&#x2013;" horiz-adv-x="492" d="M-12 247l4 17h517l2 -3l-4 -17h-517z" />
<glyph unicode="&#x2014;" horiz-adv-x="972" d="M-12 247l4 17h997l2 -3l-4 -17h-997z" />
<glyph unicode="&#x2018;" horiz-adv-x="124" d="M65 534q0 46 53 102l13 -11v-4q-44 -47 -44 -83q0 -30 38 -39v-4q-1 -3 -10 -16q-50 12 -50 55z" />
<glyph unicode="&#x2019;" horiz-adv-x="124" d="M67 488v4q44 47 44 83q0 30 -38 39v4q1 3 10 16q50 -12 50 -55q0 -46 -53 -102z" />
<glyph unicode="&#x201a;" horiz-adv-x="230" d="M41 -89l1 3q54 40 54 78q0 20 -30 34v4q5 7 13 11q38 -17 38 -48q0 -42 -66 -93z" />
<glyph unicode="&#x201c;" horiz-adv-x="206" d="M56 534q0 46 53 102l13 -11v-4q-44 -47 -44 -83q0 -30 38 -39v-4q-1 -3 -10 -16q-50 12 -50 55zM151 534q0 46 53 102l13 -11v-4q-44 -47 -44 -83q0 -30 38 -39v-4q-1 -3 -10 -16q-50 12 -50 55z" />
<glyph unicode="&#x201d;" horiz-adv-x="219" d="M63 488v4q44 47 44 83q0 30 -38 39v4q1 3 10 16q50 -12 50 -55q0 -46 -53 -102zM158 488v4q44 47 44 83q0 30 -38 39v4q1 3 10 16q50 -12 50 -55q0 -46 -53 -102z" />
<glyph unicode="&#x201e;" horiz-adv-x="325" d="M41 -89l1 3q54 40 54 78q0 20 -30 34v4q5 7 13 11q38 -17 38 -48q0 -42 -66 -93zM136 -89l1 3q54 40 54 78q0 20 -30 34v4q5 7 13 11q38 -17 38 -48q0 -42 -66 -93z" />
<glyph unicode="&#x2022;" horiz-adv-x="230" d="M100 237q0 20 20 20t20 -20t-20 -20t-20 20z" />
<glyph unicode="&#x2026;" horiz-adv-x="529" d="M39 18q0 20 20 20t20 -20t-20 -20t-20 20zM189 18q0 20 20 20t20 -20t-20 -20t-20 20zM339 18q0 20 20 20t20 -20t-20 -20t-20 20z" />
<glyph unicode="&#x202f;" horiz-adv-x="170" />
<glyph unicode="&#x2039;" horiz-adv-x="214" d="M38 220l2 11l175 165l11 -9l-1 -6l-164 -158l126 -158l-1 -6l-13 -9z" />
<glyph unicode="&#x203a;" horiz-adv-x="210" d="M1 59l1 6l164 158l-126 158l1 6l13 9l135 -170l-2 -11l-175 -165z" />
<glyph unicode="&#x205f;" horiz-adv-x="213" />
<glyph unicode="&#x20ac;" horiz-adv-x="506" d="M16 167l5 17h79q2 58 11 103h-77l-2 3l4 17h80q25 91 85 139t149 48q78 0 133 -44l-8 -18h-6q-50 42 -123 42q-161 0 -208 -167h217l2 -3l-4 -17h-220q-11 -47 -11 -103h218l2 -3l-4 -17h-215q6 -72 45.5 -110t109.5 -38q80 0 150 50l6 -2l-4 -18q-75 -50 -155 -50 t-124.5 43.5t-50.5 124.5h-81z" />
<glyph unicode="&#x2122;" horiz-adv-x="574" d="M79 622l4 15h168l2 -2l-4 -15l-42 1h-32l-19 -144l-7 -72h-19q4 34 26 216h-32l-43 -1zM278 405l55 232h24q7 -27 16.5 -56.5t20.5 -64.5t17 -56h1l85 144l17 33h23l-3 -232h-17v71l1 127h-3l-98 -170h-18l-54 170h-2l-31 -125l-16 -73h-18z" />
<glyph unicode="&#x25fc;" horiz-adv-x="455" d="M0 0v455h455v-455h-455z" />
</font>
</defs>
</svg>
