<?xml version="1.0" standalone="no"?>
<!DOCTYPE svg PUBLIC "-//W3C//DTD SVG 1.1//EN" "http://www.w3.org/Graphics/SVG/1.1/DTD/svg11.dtd" >
<svg xmlns="http://www.w3.org/2000/svg">
<metadata></metadata>
<defs>
<font id="alegreya_sansextrabold" horiz-adv-x="480" >
<font-face units-per-em="1000" ascent="800" descent="-200" />
<missing-glyph horiz-adv-x="145" />
<glyph unicode="&#xa8;I" horiz-adv-x="308" d="M-2 797q0 36 20.5 57t55.5 21q33 0 51.5 -19t18.5 -52q0 -36 -20 -57t-55 -21q-34 0 -52.5 18.5t-18.5 52.5zM70 0l9 191l-9 454h165l-9 -438l7 -207h-163zM163 797q0 36 20.5 57t55.5 21q33 0 51.5 -19t18.5 -52q0 -36 -20 -57t-55 -21q-34 0 -52.5 18.5t-18.5 52.5z " />
<glyph unicode="&#xa8;O" horiz-adv-x="647" d="M24 313q0 164 81.5 253t231.5 89q137 0 212 -82.5t75 -234.5q0 -167 -81.5 -258t-230.5 -91q-138 0 -213 84.5t-75 239.5zM161 797q0 36 20.5 57t55.5 21q33 0 51.5 -19t18.5 -52q0 -36 -20 -57t-55 -21q-34 0 -52.5 18.5t-18.5 52.5zM193 335q0 -125 29.5 -174 t102.5 -49q70 0 99.5 43t29.5 149q0 124 -29.5 172.5t-102.5 48.5q-71 0 -100 -42.5t-29 -147.5zM343 797q0 36 20.5 57t55.5 21q33 0 51.5 -19t18.5 -52q0 -36 -20 -57t-55 -21q-34 0 -52.5 18.5t-18.5 52.5z" />
<glyph unicode="&#xb4;Y" horiz-adv-x="573" d="M0 645h171l15 -48l94 -225h11l106 219l20 54h166l-228 -432l-1 -38l6 -175h-162l9 175l-1 35zM170 784q108 53 215 116l14 -3l40 -95l-5 -13q-93 -34 -224 -75l-15 4z" />
<glyph unicode="&#xa8;i" horiz-adv-x="261" d="M-22 620q0 36 20.5 57t55.5 21q33 0 51.5 -19t18.5 -52q0 -36 -20 -57t-55 -21q-34 0 -52.5 18.5t-18.5 52.5zM51 0l8 191l-6 267l157 12l-8 -263l7 -207h-158zM143 620q0 36 20.5 57t55.5 21q33 0 51.5 -19t18.5 -52q0 -36 -20 -57t-55 -21q-34 0 -52.5 18.5t-18.5 52.5 z" />
<glyph unicode="&#xa8;o" horiz-adv-x="495" d="M23 223q0 124 59.5 189.5t172.5 65.5q106 0 161.5 -60t55.5 -175q0 -124 -59.5 -189t-172.5 -65q-106 0 -161.5 60t-55.5 174zM86 620q0 36 20.5 57t55.5 21q33 0 51.5 -19t18.5 -52q0 -36 -20 -57t-55 -21q-34 0 -52.5 18.5t-18.5 52.5zM171 252q0 -90 17.5 -124.5 t62.5 -34.5q39 0 55.5 26.5t16.5 93.5q0 89 -17.5 123.5t-61.5 34.5q-40 0 -56.5 -26.5t-16.5 -92.5zM268 620q0 36 20.5 57t55.5 21q33 0 51.5 -19t18.5 -52q0 -36 -20 -57t-55 -21q-34 0 -52.5 18.5t-18.5 52.5z" />
<glyph unicode="&#xb4;y" horiz-adv-x="457" d="M-19 -96l6 14q110 20 179 82l-171 465l152 6l16 -80l69 -234h9l67 219l18 92h135l-146 -429q-33 -97 -89 -148.5t-163 -83.5l-12 1q-43 41 -70 96zM126 581q105 80 189 156l14 -1l57 -87l-3 -14q-99 -57 -206 -115l-14 1z" />
<glyph unicode="&#xfb01;" horiz-adv-x="617" d="M22 378l7 86h66v26q0 110 57.5 162.5t176.5 52.5q60 0 137 -16l-17 -122l-15 -7q-79 35 -123 35q-64 0 -65 -70v-61h231l85 11l9 -7l-8 -261l7 -207h-158l8 191l-4 179h-172l-2 -163l7 -207h-158l8 192l-2 178h-71z" />
<glyph unicode="&#xfb02;" horiz-adv-x="632" d="M22 378l7 86h66l-1 43q0 98 59.5 150.5t168.5 52.5q58 0 126 -17l128 9l-8 -495l7 -207h-158l8 192l-5 382q-61 25 -105 25q-67 0 -68 -69l-1 -66h110l4 -9l-7 -85h-108l-3 -164l7 -206h-158l8 191l-3 179h-69z" />
<glyph horiz-adv-x="1000" />
<glyph horiz-adv-x="1000" />
<glyph unicode="&#xd;" horiz-adv-x="1000" />
<glyph unicode=" "  horiz-adv-x="145" />
<glyph unicode="&#x09;" horiz-adv-x="145" />
<glyph unicode="&#xa0;" horiz-adv-x="145" />
<glyph unicode="!" horiz-adv-x="268" d="M41 72q0 39 23 62.5t62 23.5q37 0 57 -21t20 -58q0 -40 -22.5 -63.5t-60.5 -23.5t-58.5 21t-20.5 59zM66 642l14 18l127 8l18 -19l-42 -403l-90 -13l-15 16z" />
<glyph unicode="&#x22;" horiz-adv-x="391" d="M54 636l123 8l8 -11l-40 -237l-73 -11l-12 10zM222 636l122 8l9 -11l-41 -237l-73 -11l-12 10z" />
<glyph unicode="#" horiz-adv-x="564" d="M20 174l7 80h96l18 98h-80l-9 10l6 80h99l24 131h88l10 -12l-21 -119h96l24 131h88l10 -12l-21 -119h80l9 -10l-7 -80h-98l-18 -98h82l10 -10l-7 -80h-101l-24 -133h-91l-8 11l22 122h-96l-24 -133h-91l-8 11l22 122h-78zM224 254h96l18 98h-96z" />
<glyph unicode="$" horiz-adv-x="458" d="M32 20l21 135l15 11q35 -31 78 -49.5t75 -18.5q21 0 34 10t13 25q0 18 -23 31.5t-55.5 26t-65 29.5t-55.5 49.5t-23 77.5q0 60 39 104t108 59l8 136h90l14 -13l-7 -118q56 -6 107 -24l-22 -130l-22 -5q-69 49 -122 49q-21 0 -32.5 -9.5t-11.5 -23.5q0 -18 23 -31.5 t55.5 -26t64.5 -29t55 -48.5t23 -76q0 -59 -37.5 -104.5t-112.5 -60.5l-8 -134h-92l-12 12l7 118q-66 5 -129 28z" />
<glyph unicode="%" horiz-adv-x="868" d="M26 460q0 93 44 142.5t126 49.5q74 0 113 -45.5t39 -130.5q0 -93 -43.5 -142.5t-124.5 -49.5q-74 0 -114 45.5t-40 130.5zM123 468q0 -47 15 -68.5t49 -21.5t49.5 20.5t15.5 64.5q0 47 -16 68t-50 21t-48.5 -20t-14.5 -64zM148 -37l466 726l63 -39l9 -20l-465 -723 l-67 41zM519 170q0 92 44 141.5t126 49.5q74 0 113 -45.5t39 -130.5q0 -93 -43.5 -142t-124.5 -49q-74 0 -114 45.5t-40 130.5zM616 178q0 -48 15 -69.5t49 -21.5t49.5 20.5t15.5 64.5q0 47 -16 68t-50 21t-48.5 -19.5t-14.5 -63.5z" />
<glyph unicode="&#x26;" horiz-adv-x="719" d="M33 174q0 108 113 163l1 9q-63 69 -63 142q0 76 57 120t161 44q91 0 166 -27l-36 -117h-19q-61 35 -116 35q-75 0 -75 -64q0 -22 10.5 -40t41.5 -44l197 -179q8 29 8 57q0 36 -11 67h-57l-7 9l10 102h291l9 -11l-10 -100h-126l-4 -10q8 -35 8 -76q0 -65 -24 -116 l130 -118v-10q-36 -40 -85 -71l-10 1l-115 104q-77 -54 -196 -54q-114 0 -181.5 49.5t-67.5 134.5zM169 200q0 -49 33.5 -75t94.5 -26q57 0 97 21l-182 164q-43 -34 -43 -84z" />
<glyph unicode="'" horiz-adv-x="223" d="M54 636l123 8l8 -11l-40 -237l-73 -11l-12 10z" />
<glyph unicode="(" horiz-adv-x="298" d="M64 252q1 152 39 249.5t121 158.5h14l57 -47v-13q-54 -52 -78.5 -135t-25.5 -212q1 -122 25.5 -200.5t78.5 -130.5v-13l-57 -47h-14q-83 61 -121 154t-39 236z" />
<glyph unicode=")" horiz-adv-x="298" d="M3 -78q54 52 78.5 134.5t24.5 212.5q0 121 -24.5 200t-78.5 131v13l56 47h14q83 -62 121.5 -155t38.5 -235q0 -151 -38.5 -248.5t-121.5 -159.5h-14l-56 47v13z" />
<glyph unicode="*" horiz-adv-x="388" d="M22 583q0 43 12 86l10 3l106 -70l-8 -46l-10 -4zM40 442l1 11l97 81l41 -21l1 -11l-61 -97q-28 8 -79 37zM158 731q37 13 85 15l5 -9l-32 -125l-46 -5l-8 7zM198 504l33 31l11 -1l71 -92q-21 -31 -61 -62l-9 3zM226 593l5 10l107 41q27 -39 40 -78l-6 -7l-125 -7z" />
<glyph unicode="+" d="M20 216l8 95h159v160l96 8l11 -10v-158h156l11 -10l-8 -96h-159v-160l-96 -7l-11 10v157h-157z" />
<glyph unicode="," horiz-adv-x="228" d="M11 -77q56 47 56 102q0 36 -33 66l1 14q60 33 115 48q46 -40 46 -94q0 -98 -133 -192l-51 44z" />
<glyph unicode="-" horiz-adv-x="302" d="M26 193v98l237 36l12 -11v-98l-237 -37z" />
<glyph unicode="." horiz-adv-x="228" d="M33 72q0 39 22.5 62.5t61.5 23.5q37 0 57.5 -21t20.5 -58q0 -40 -23 -63.5t-61 -23.5q-78 0 -78 80z" />
<glyph unicode="/" horiz-adv-x="282" d="M-12 -104l207 785h107l12 -13l-207 -784h-110z" />
<glyph unicode="0" horiz-adv-x="518" d="M35 243q0 130 61.5 202.5t173.5 72.5q101 0 157 -66.5t56 -187.5q0 -131 -61 -202.5t-172 -71.5q-102 0 -158.5 66t-56.5 187zM158 253q0 -64 24 -94t77 -30t77.5 28t24.5 89q0 65 -25 94.5t-78 29.5t-76.5 -27.5t-23.5 -89.5z" />
<glyph unicode="1" horiz-adv-x="368" d="M7 317v128l248 71l23 -17l-8 -290l7 -209h-161l7 192v143l-105 -26z" />
<glyph unicode="2" horiz-adv-x="479" d="M35 449q112 67 212 67q73 0 120 -34t47 -94q0 -80 -110 -196l-62 -67l3 -4h111l93 9l8 -10l-18 -127l-131 7h-228l-36 -3l-8 6v97l132 123q89 87 89 123q0 35 -48 35q-64 0 -130 -55h-17z" />
<glyph unicode="3" horiz-adv-x="440" d="M20 460q91 57 190 57q83 0 134 -39t51 -103q0 -91 -93 -142v-6q103 -31 103 -133q0 -85 -72 -136.5t-190 -51.5q-55 0 -112 10l-9 120l11 10q63 -20 115 -20q105 0 105 69q0 53 -72 55h-76l-7 10l4 109l44 2q36 1 61.5 20t25.5 50q0 48 -59 48q-44 0 -115 -41h-16z" />
<glyph unicode="4" horiz-adv-x="514" d="M19 56v101l241 352h146l-3 -341h76l10 -14l-7 -111l-77 2l5 -122l-8 -11l-124 -8l-8 10l4 132h-148l-97 -3zM154 168h122v164h-10z" />
<glyph unicode="5" horiz-adv-x="438" d="M13 35l11 11q64 -21 122 -21q49 0 77 20t28 55q0 29 -19 45t-62 24l-102 17l-9 12l5 297l17 17l60 -3h152l109 7l9 -10l-17 -122l-10 -11l-100 12h-100l-3 -91l61 -13q84 -18 122 -57t38 -104q0 -97 -72.5 -156.5t-190.5 -59.5q-61 0 -118 13z" />
<glyph unicode="6" horiz-adv-x="489" d="M27 217q0 119 75.5 218t212.5 162h8l105 -70v-16q-98 -37 -151.5 -73t-78.5 -83l7 -8q43 20 87 20q78 0 123.5 -51.5t45.5 -125.5q0 -83 -57.5 -142t-162.5 -59q-101 0 -157.5 61t-56.5 167zM171 219q0 -66 16 -96.5t59 -30.5q72 0 72 81q0 84 -74 84q-33 0 -73 -21v-17z " />
<glyph unicode="7" horiz-adv-x="440" d="M12 380l10 133l124 -4h216l52 2v-116l-151 -329l-62 -165l-127 35l-9 25l197 417h-142l-100 -11z" />
<glyph unicode="8" horiz-adv-x="502" d="M38 142q0 91 107 138v7q-90 48 -90 138q0 79 57 125t152 46q84 0 132.5 -40t48.5 -109q0 -77 -85 -133v-7q100 -49 100 -138q0 -83 -60.5 -131t-162.5 -48q-95 0 -147 42t-52 110zM169 163q0 -31 21.5 -49.5t59.5 -18.5q39 0 60 18t21 44q0 30 -23 47t-70 36 q-35 -13 -52 -30.5t-17 -46.5zM184 431q0 -29 21 -46.5t61 -33.5q55 34 55 78q0 27 -18.5 43t-49.5 16q-33 0 -51 -15.5t-18 -41.5z" />
<glyph unicode="9" horiz-adv-x="489" d="M28 319q0 83 57.5 142t162.5 59q101 0 157.5 -61t56.5 -167q0 -119 -75.5 -218t-212.5 -162h-8l-105 70v16q98 37 151.5 73t78.5 83l-7 8q-43 -20 -87 -20q-78 0 -123.5 51.5t-45.5 125.5zM171 336q0 -84 74 -84q33 0 73 21v17q0 66 -16 96.5t-59 30.5q-72 0 -72 -81z " />
<glyph unicode=":" horiz-adv-x="228" d="M28 72q0 39 23 62.5t62 23.5q37 0 57 -21t20 -58q0 -40 -22.5 -63.5t-61.5 -23.5q-37 0 -57.5 21t-20.5 59zM28 331q0 40 22.5 63t62.5 23q37 0 57 -20.5t20 -58.5q0 -40 -22.5 -63t-61.5 -23q-37 0 -57.5 20.5t-20.5 58.5z" />
<glyph unicode=";" horiz-adv-x="228" d="M6 -77q56 46 56 102q0 37 -32 66v14q60 33 116 48q46 -40 46 -94q0 -98 -134 -192l-50 44zM28 331q0 40 22.5 63t62.5 23q37 0 57 -20.5t20 -58.5q0 -40 -22.5 -63t-61.5 -23q-37 0 -57.5 20.5t-20.5 58.5z" />
<glyph unicode="&#x3c;" d="M33 194v128l10 14l370 139l33 -91l-6 -11l-297 -107v-8l297 -104l-22 -89l-13 -10z" />
<glyph unicode="=" d="M20 116l8 96h422l11 -11l-8 -96h-423zM20 314l8 96h422l11 -11l-8 -95h-423z" />
<glyph unicode="&#x3e;" d="M34 384l33 91l370 -139l10 -14v-128l-372 -139l-13 10l-22 89l297 104v8l-297 107z" />
<glyph unicode="?" horiz-adv-x="345" d="M40 576l29 88l14 8q137 -7 211 -49t74 -115q0 -88 -94 -140l-66 -38l-3 -5l7 -79l-111 -16l-11 11l-11 122l6 11l87 40q53 26 53 70q0 35 -39.5 53.5t-134.5 24.5zM79 72q0 39 22.5 62.5t61.5 23.5q37 0 57.5 -21t20.5 -58q0 -40 -23 -63.5t-61 -23.5q-78 0 -78 80z" />
<glyph unicode="@" horiz-adv-x="853" d="M24 184q0 199 126.5 330t329.5 131q162 0 259 -88t97 -239q0 -152 -102 -234t-292 -84l19 135h-14q-46 -84 -99 -141h-19q-62 19 -87.5 58t-25.5 101q0 100 59.5 187.5t171.5 118.5h5l84 -18l84 22l11 -7l-47 -343v-5q70 13 110 68t40 137q0 110 -74 174t-199 60 q-149 -4 -240.5 -100.5t-91.5 -244.5q0 -155 103 -243t276 -88l6 -14l-42 -73q-205 1 -326.5 106t-121.5 294zM344 207q0 -80 23 -80q16 0 48 49.5t71 141.5l2 19l-64 19q-38 0 -59 -40t-21 -109z" />
<glyph unicode="A" horiz-adv-x="611" d="M6 0l208 645h195l189 -645h-165l-17 93l-9 37l-116 2l-100 -3l-8 -26l-18 -103h-159zM228 252l74 -2l74 2l-63 245h-10z" />
<glyph unicode="B" horiz-adv-x="600" d="M70 0l9 191l-9 454l254 1q103 0 161 -42t58 -121q0 -105 -98 -150q65 -16 95 -52.5t30 -96.5q0 -190 -308 -190q-100 0 -191 6h-1zM222 207l3 -97q52 -4 67 -4q54 0 84 22t30 63q0 31 -19 49.5t-59 27.5l-105 -2zM225 377l86 -4q67 19 67 88q0 41 -25.5 57t-91.5 16h-32z " />
<glyph unicode="C" horiz-adv-x="516" d="M24 317q0 161 83 249t235 88q92 0 167 -33l-29 -133l-11 -6q-61 40 -133 40t-106.5 -45t-34.5 -142q0 -210 149 -210q72 0 137 34l14 -8l-13 -133q-70 -28 -151 -28q-151 0 -229 84t-78 243z" />
<glyph unicode="D" horiz-adv-x="659" d="M70 0l9 191l-9 454h1l272 4q142 0 217 -77.5t75 -223.5q0 -172 -86 -264t-246 -92q-92 0 -232 8h-1zM227 207l2 -84q59 -8 104 -8q133 0 133 194q0 114 -32 163t-104 49q-53 0 -97 -4z" />
<glyph unicode="E" horiz-adv-x="522" d="M70 0l9 191l-9 454h432l9 -12l-11 -120l-157 6l-110 -1l-2 -129h105l105 3l9 -12l-10 -120l-115 3h-97l-1 -56l2 -80l106 -1l162 6l9 -12l-10 -120h-426z" />
<glyph unicode="F" horiz-adv-x="466" d="M70 0l9 191l-9 454h404l9 -12l-11 -120l-156 6l-83 -1l-3 -150h81l112 3l9 -12l-10 -120l-123 3h-71l-1 -35l6 -207h-163z" />
<glyph unicode="G" horiz-adv-x="597" d="M24 309q0 168 90 256.5t258 88.5q108 0 187 -35l-34 -145h-14q-93 50 -169 50q-80 0 -114.5 -46t-34.5 -161q0 -113 34 -157.5t118 -44.5q28 0 65 10l1 45l-3 104l149 10l-2 -87l1 -165q-119 -42 -225 -42q-153 0 -230 82.5t-77 236.5z" />
<glyph unicode="H" horiz-adv-x="702" d="M70 0l9 191l-9 454h166l-5 -256l122 -3l118 2l-5 257h165l-9 -438l7 -207h-163l8 191l-1 65l-130 2l-115 -3l-1 -48l6 -207h-163z" />
<glyph unicode="I" horiz-adv-x="308" d="M70 0l9 191l-9 454h166l-9 -438l6 -207h-163z" />
<glyph unicode="J" horiz-adv-x="346" d="M7 537l7 108h263l-9 -432l2 -91q0 -88 -45.5 -139.5t-162.5 -91.5l-46 85v14q58 29 81 59t23 77v71l-6 332l-97 -3z" />
<glyph unicode="K" horiz-adv-x="602" d="M70 0l9 191l-9 454h165l-6 -289l157 224l36 65h174l-212 -304q102 -151 231 -307l-2 -18q-82 -20 -161 -27l-18 10q-124 184 -206 320l-2 -112l7 -207h-163z" />
<glyph unicode="L" horiz-adv-x="441" d="M66 0l9 191l-9 454h165l-9 -438l3 -74h205l10 -12l-11 -121h-363z" />
<glyph unicode="M" horiz-adv-x="801" d="M37 0l64 645h187q13 -58 30.5 -119t41 -136t34.5 -115h10l90 273l26 97h184l55 -645h-143l-8 196l-18 212h-10l-128 -343h-124l-112 343h-11l-20 -197l-13 -211h-135z" />
<glyph unicode="N" horiz-adv-x="701" d="M70 0l9 190l-8 455h176l229 -399h10l-5 393l150 9l-9 -444l6 -204h-176l-229 399h-10l-1 -172l7 -227h-149z" />
<glyph unicode="O" horiz-adv-x="647" d="M24 313q0 164 81.5 253t230.5 89q138 0 213 -82.5t75 -234.5q0 -166 -82 -257.5t-231 -91.5q-137 0 -212 84.5t-75 239.5zM193 335q0 -125 29.5 -174t102.5 -49q70 0 99.5 43t29.5 149q0 124 -29.5 172.5t-102.5 48.5q-71 0 -100 -42.5t-29 -147.5z" />
<glyph unicode="P" horiz-adv-x="570" d="M70 0l9 191l-9 454l272 1q104 0 160.5 -52t56.5 -148q0 -113 -75 -181.5t-199 -68.5h-58l6 -196h-163zM229 317l85 -4q75 25 75 117q0 50 -24.5 74t-76.5 26l-54 -3z" />
<glyph unicode="Q" horiz-adv-x="654" d="M24 313q0 164 81.5 253t230.5 89q138 0 213 -82.5t75 -235.5q0 -229 -149 -310q124 -72 257 -108l6 -16q-33 -64 -77 -103l-12 -6q-174 74 -319 195h-18q-138 0 -213 84.5t-75 239.5zM193 333q0 -124 30 -172.5t103 -48.5q70 0 99 43.5t29 149.5q0 123 -30 171.5 t-103 48.5q-70 0 -99 -42.5t-29 -149.5z" />
<glyph unicode="R" horiz-adv-x="607" d="M70 0l9 191l-9 454l272 1q105 0 161.5 -50.5t56.5 -144.5q0 -59 -30 -110t-85 -86q83 -129 150 -217l-2 -18q-76 -25 -161 -31l-16 13q-60 112 -104 205h-85l6 -207h-163zM230 329l87 -4q72 26 72 111q0 47 -24.5 69.5t-76.5 24.5l-54 -3z" />
<glyph unicode="S" horiz-adv-x="510" d="M26 30l23 145l17 10q42 -35 91.5 -54.5t85.5 -19.5q38 0 57.5 17t19.5 40q0 26 -28.5 47t-69 38.5t-81 39t-69 61t-28.5 93.5q0 90 69.5 149t179.5 59q86 0 174 -34l-26 -136l-24 -9q-82 53 -142 53q-33 0 -52.5 -16.5t-19.5 -38.5q0 -21 20.5 -39.5t51.5 -31t67 -31.5 t67 -39.5t51.5 -55.5t20.5 -80q0 -88 -70 -147.5t-185 -59.5q-101 0 -200 40z" />
<glyph unicode="T" horiz-adv-x="510" d="M12 526l10 119h468l9 -12l-9 -119l-126 6h-28l-5 -313l6 -207h-162l9 191l-5 329h-30l-127 -6z" />
<glyph unicode="U" horiz-adv-x="644" d="M55 645h162l-7 -401q-1 -64 26 -94t84 -30q58 0 85.5 29.5t26.5 90.5l-7 405h165l-6 -327l-1 -93q1 -113 -69.5 -174t-200.5 -61q-126 0 -192.5 60t-63.5 172l2 98z" />
<glyph unicode="V" horiz-adv-x="599" d="M7 645h165l17 -94l103 -403h10l120 394l18 103h159l-208 -645h-195z" />
<glyph unicode="W" horiz-adv-x="907" d="M18 645h158l10 -88l93 -392h10l95 326l-40 154h164l14 -104l97 -376h10l109 383l17 97h150l-204 -645h-171l-81 278h-10l-80 -278h-172z" />
<glyph unicode="X" horiz-adv-x="620" d="M7 645h195l32 -71l83 -135l88 142l29 64h170l-191 -306l203 -339h-194l-32 70l-87 142l-99 -150l-30 -62h-165l200 315z" />
<glyph unicode="Y" horiz-adv-x="573" d="M-1 645h171l15 -48l94 -225h11l106 219l20 54h167l-228 -431l-2 -39l7 -175h-162l8 175l-1 35z" />
<glyph unicode="Z" horiz-adv-x="557" d="M29 -5v116l305 412h-184l-114 -9l-6 7l12 126l138 -2h274l68 1v-117l-302 -407h194l114 8l6 -8l-13 -126l-159 4h-246z" />
<glyph unicode="[" horiz-adv-x="298" d="M71 -115l9 377l-9 376l224 10l7 -8v-70l-102 -14v-589l102 -13v-71l-7 -8z" />
<glyph unicode="\" horiz-adv-x="282" d="M-17 668l12 13h107l207 -785l-10 -12h-109z" />
<glyph unicode="]" horiz-adv-x="298" d="M-4 -46l102 14v588l-102 14v71l6 7l224 -10l-8 -376l8 -377l-224 -10l-6 8v71z" />
<glyph unicode="^" horiz-adv-x="449" d="M15 144l138 346l15 9h127l140 -347l-11 -13l-88 -21l-104 272h-8l-108 -272l-11 -7z" />
<glyph unicode="_" horiz-adv-x="442" d="M-15 -178l8 88h454l10 -11l-8 -88h-454z" />
<glyph unicode="`" horiz-adv-x="388" d="M64 649l57 87l14 1q87 -78 190 -156l-37 -60l-15 -1q-107 58 -206 115z" />
<glyph unicode="a" horiz-adv-x="490" d="M24 136q0 103 108 121l148 25v29q0 31 -13.5 44.5t-43.5 13.5q-59 0 -144 -54l-10 7l-18 103q94 53 199 53q83 0 129 -35.5t46 -101.5q0 -17 -5 -106t-5 -103q0 -26 20 -26q9 0 22 4l11 -9l-14 -83q-33 -23 -81 -27q-63 6 -81 72h-7q-50 -53 -102 -73q-74 1 -116.5 40 t-42.5 106zM164 152q0 -24 12.5 -37t34.5 -13q32 0 68 34l1 72l-86 -17q-30 -6 -30 -39z" />
<glyph unicode="b" horiz-adv-x="527" d="M56 3l7 188l-6 500l157 11l-5 -301h6q49 51 105 73q88 0 136 -60t48 -167q0 -124 -63 -191t-172 -67q-55 0 -121 24l-76 -25zM206 211l2 -109q30 -12 56 -12q92 0 91 133q0 125 -80 125q-35 0 -67 -28z" />
<glyph unicode="c" horiz-adv-x="384" d="M23 227q0 118 61 184.5t171 66.5q69 0 123 -24l-26 -124l-12 -5q-53 25 -85 25q-81 0 -81 -107q0 -130 91 -130q36 0 93 21l12 -9l-16 -119q-60 -17 -124 -17q-98 0 -152.5 62.5t-54.5 175.5z" />
<glyph unicode="d" horiz-adv-x="529" d="M22 229q0 120 63.5 183.5t175.5 63.5q29 0 54 -5l-3 220l158 11l-9 -495l2 -74q0 -27 18 -27q10 0 23 4l10 -9l-14 -83q-32 -23 -81 -27q-66 6 -87 70h-7q-44 -43 -98 -69q-97 0 -151 63t-54 174zM170 256q1 -144 80 -144q35 0 67 33l1 47l-2 163q-33 15 -62 15 q-43 0 -63.5 -26.5t-20.5 -87.5z" />
<glyph unicode="e" d="M23 233q0 114 64 179t173 65q92 0 142 -49.5t50 -138.5q0 -36 -5 -59l-20 -22l-259 -1q6 -52 34 -77t84 -25q63 0 134 31l13 -9l-23 -112q-70 -26 -141 -26q-117 0 -181.5 64.5t-64.5 179.5zM170 287l144 6l2 13q0 69 -60 69q-71 0 -86 -88z" />
<glyph unicode="f" horiz-adv-x="342" d="M22 378l7 86h67l-1 42q0 95 58.5 146.5t164.5 51.5q43 0 91 -9l-10 -116l-10 -8q-54 22 -87 22q-54 0 -55 -59l-1 -70h111l4 -9l-7 -85h-110l-2 -163l7 -207h-158l8 192l-2 178h-71z" />
<glyph unicode="g" horiz-adv-x="507" d="M41 -60q34 41 81 70v5q-70 27 -70 96q35 38 71 61v6q-77 38 -77 130q0 78 57 123t155 45q56 0 104 -19q74 15 146 43l11 -9v-97q-32 -8 -71 -11l-2 -4q13 -26 13 -60q0 -76 -57 -121t-155 -45q-33 0 -57 4q-10 -11 -10 -20q0 -17 30.5 -25t74 -12t87 -13t74 -37.5 t30.5 -76.5q0 -75 -65.5 -122t-170.5 -47q-95 0 -147 37t-52 99zM167 -54q0 -54 88 -54q89 0 89 53q0 9 -3.5 15.5t-12.5 11.5t-17 8t-24 6t-26 4t-30 3.5t-30 3.5q-34 -25 -34 -51zM182 316q0 -71 69 -71q72 0 72 70q0 34 -16.5 49.5t-51.5 15.5q-38 0 -55.5 -15.5 t-17.5 -48.5z" />
<glyph unicode="h" horiz-adv-x="536" d="M56 0l8 192l-6 499l157 11l-5 -301h6q55 52 119 73q76 0 115.5 -34.5t37.5 -98.5l-3 -134l6 -207h-159l9 279q0 69 -56 69q-33 0 -76 -30l-2 -111l7 -207h-158z" />
<glyph unicode="i" horiz-adv-x="261" d="M51 0l8 191l-6 267l157 12l-8 -263l7 -207h-158zM52 622q0 39 22.5 62.5t61.5 23.5q37 0 57.5 -21t20.5 -58q0 -40 -23 -63.5t-61 -23.5q-78 0 -78 80z" />
<glyph unicode="j" horiz-adv-x="294" d="M0 379l7 85h79l147 7l5 -3l-9 -261l7 -177q0 -79 -41.5 -133t-132.5 -93l-54 70v14q41 22 59.5 55t18.5 83v165l-4 179h-73zM65 622q0 39 22.5 62.5t61.5 23.5q37 0 57.5 -21t20.5 -58q0 -40 -23 -63.5t-61 -23.5q-78 0 -78 80z" />
<glyph unicode="k" horiz-adv-x="513" d="M56 0l8 192l-6 499l157 11l-8 -495l7 -207h-158zM208 244v10l103 162l23 52h164l-139 -210q51 -88 148 -232l-1 -16q-51 -11 -147 -21l-17 8q-79 124 -134 247z" />
<glyph unicode="l" horiz-adv-x="271" d="M56 0l8 192l-6 499l157 11l-8 -495l7 -207h-158z" />
<glyph unicode="m" horiz-adv-x="807" d="M51 0l8 191l-6 267l149 12v-69h6q54 51 120 73q113 0 143 -75h5q55 52 128 75q75 0 114.5 -34.5t38.5 -98.5l-4 -134l6 -207h-157l9 280q0 69 -57 69q-34 0 -74 -29l-3 -113l6 -207h-157l9 280q0 69 -57 69q-34 0 -77 -30v-112l7 -207h-157z" />
<glyph unicode="n" horiz-adv-x="533" d="M51 0l8 191l-6 267l150 12v-69h7q52 51 119 73q76 0 115.5 -34.5t37.5 -98.5l-3 -134l6 -207h-159l9 279q0 69 -57 69q-33 0 -76 -30v-111l7 -207h-158z" />
<glyph unicode="o" horiz-adv-x="495" d="M23 223q0 124 59.5 189.5t172.5 65.5q106 0 161.5 -60t55.5 -175q0 -124 -59.5 -189t-172.5 -65q-106 0 -161.5 60t-55.5 174zM171 252q0 -90 17.5 -124.5t62.5 -34.5q39 0 55.5 26.5t16.5 93.5q0 89 -17.5 123.5t-61.5 34.5q-40 0 -56.5 -26.5t-16.5 -92.5z" />
<glyph unicode="p" horiz-adv-x="520" d="M50 -185l8 376l-7 267l151 12v-69h6q49 50 106 73q88 0 135.5 -60.5t47.5 -167.5q0 -124 -62.5 -190.5t-173.5 -66.5q-32 0 -56 5l3 -179h-158zM201 207l2 -107q27 -10 54 -10q92 0 91 133q0 125 -80 125q-34 0 -67 -29v-112z" />
<glyph unicode="q" horiz-adv-x="519" d="M22 227q0 120 63.5 184.5t167.5 64.5q54 0 121 -24l82 26l14 -8l-9 -263l7 -392h-157l7 205v28h-8q-37 -34 -85 -56q-96 0 -149.5 63t-53.5 172zM170 250q2 -138 79 -138q35 0 68 33l1 45l-3 164q-32 16 -63 16q-43 0 -62.5 -27.5t-19.5 -92.5z" />
<glyph unicode="r" horiz-adv-x="358" d="M51 0l8 191l-6 267l150 12v-90h8q45 89 119 89q6 0 24 -2v-145l-16 -5q-13 7 -36 7q-55 0 -100 -58v-59l7 -207h-158z" />
<glyph unicode="s" horiz-adv-x="392" d="M15 17l19 120l14 10q33 -27 73.5 -43t69.5 -16q22 0 33.5 10t11.5 25q0 21 -32.5 38t-71 29.5t-71 46t-32.5 84.5q0 69 52 112.5t142 43.5q72 0 136 -24l-20 -113l-19 -6q-67 42 -115 42q-20 0 -31 -9.5t-11 -22.5q0 -18 21 -31t51.5 -24.5t61 -26.5t51.5 -44.5t21 -70.5 q0 -66 -49.5 -112t-147.5 -46q-74 0 -157 28z" />
<glyph unicode="t" horiz-adv-x="348" d="M6 378l7 86h59v80l145 43l11 -10l-4 -113h110l5 -9l-7 -85h-111l-6 -202q0 -29 10.5 -40.5t36.5 -11.5q30 0 64 15l11 -12l-15 -91q-50 -28 -104 -35q-73 4 -111 38.5t-38 94.5l5 91l-1 153h-62z" />
<glyph unicode="u" horiz-adv-x="527" d="M49 458l152 12l-2 -285q0 -65 52 -65q35 0 69 30v308l150 12l-9 -338q0 -26 19 -26q10 0 23 4l10 -9l-14 -83q-32 -23 -81 -27q-63 6 -84 79h-11q-56 -58 -117 -76q-75 0 -115 34.5t-39 98.5l2 112z" />
<glyph unicode="v" horiz-adv-x="454" d="M10 465l148 6l13 -84l55 -240h9l67 231l18 90h137l-149 -468h-172z" />
<glyph unicode="w" horiz-adv-x="709" d="M10 465l143 6l11 -79l45 -234h8l57 225l17 85h153l9 -76l48 -234h9l54 225l17 85h132l-142 -468h-149l-59 272h-11l-69 -272h-155z" />
<glyph unicode="x" horiz-adv-x="473" d="M8 464l169 7l21 -61l50 -87l52 93l26 51h137l-130 -230l134 -232l-167 -12l-24 64l-50 90l-56 -97l-23 -50h-138l130 234z" />
<glyph unicode="y" horiz-adv-x="457" d="M-20 -96l6 14q111 19 179 82l-170 465l151 6l16 -80l69 -234h9l67 219l18 92h135l-145 -429q-34 -98 -90 -149.5t-163 -82.5l-12 1q-44 44 -70 96z" />
<glyph unicode="z" horiz-adv-x="430" d="M24 -4v93l213 279h-116l-88 -7l-9 10l11 99l107 -2h201l57 1l1 -94l-211 -275h123l89 7l8 -10l-10 -100l-127 3h-176z" />
<glyph unicode="{" horiz-adv-x="298" d="M32 236v72q63 21 63 76q0 18 -10.5 70t-10.5 83q0 58 37.5 89.5t107.5 31.5q35 0 71 -11l6 -11l-13 -79q-20 5 -34 5q-51 0 -51 -56q0 -19 12 -63.5t12 -64.5q0 -72 -69 -103v-6q69 -31 69 -101q0 -22 -12 -66t-12 -63q0 -57 51 -57q14 0 34 5l13 -79l-6 -11 q-33 -10 -71 -10q-70 0 -107.5 31.5t-37.5 88.5q0 31 10.5 83.5t10.5 70.5q0 55 -63 75z" />
<glyph unicode="|" horiz-adv-x="304" d="M91 -244q1 545 2 1041l110 9l11 -11l-4 -503l1 -541l-108 -9z" />
<glyph unicode="}" horiz-adv-x="298" d="M2 -92l12 80q20 -5 35 -5q51 0 51 56q0 19 -12.5 63t-12.5 64q0 71 69 103v6q-69 32 -69 102q0 21 12.5 65t12.5 64q0 56 -51 56q-15 0 -35 -5l-12 79l6 11q36 11 71 11q70 0 107.5 -31.5t37.5 -89.5q0 -31 -11 -83t-11 -70q0 -56 64 -75v-73q-64 -19 -64 -75 q0 -18 11 -70.5t11 -83.5q0 -57 -37.5 -88.5t-107.5 -31.5q-33 0 -71 10z" />
<glyph unicode="~" d="M20 220v14l86 101l14 7q25 -4 109.5 -29.5t102.5 -25.5q4 0 8.5 1.5t8.5 3t9 5.5t8.5 7t9.5 9t9 9.5t10.5 11.5t10.5 11h13l41 -52v-13l-85 -102l-14 -5q-28 4 -111 28.5t-100 24.5q-5 0 -10 -1.5t-10.5 -5t-9.5 -6.5t-10.5 -9.5l-10.5 -10.5t-11.5 -12.5t-11.5 -12.5 h-14z" />
<glyph unicode="&#xa1;" horiz-adv-x="268" d="M51 -178l42 403l90 13l15 -16l12 -393l-14 -18l-127 -8zM73 392q0 40 22.5 63.5t60.5 23.5t58.5 -21t20.5 -59q0 -39 -23 -62.5t-62 -23.5q-37 0 -57 21t-20 58z" />
<glyph unicode="&#xa2;" horiz-adv-x="382" d="M23 266q0 99 44 162.5t124 81.5l8 149h103l16 -14l-8 -133q40 -6 68 -19l-26 -124l-12 -5q-53 25 -85 25q-81 0 -81 -107q0 -130 91 -130q36 0 93 21l12 -9l-16 -119q-38 -10 -72 -14l-9 -157h-106l-12 12l9 151q-68 19 -104.5 78t-36.5 151z" />
<glyph unicode="&#xa3;" horiz-adv-x="460" d="M15 8l7 87q73 17 73 96l-1 71h-73l-6 8l7 77h72l-1 57q-1 92 57 142t164 50q55 0 118 -15l-9 -111l-10 -7q-65 32 -113 32q-69 0 -69 -66l-1 -82h128l4 -7l-6 -78h-126l-1 -63q0 -60 -37 -90v-4h135l105 8l5 -8l-11 -109l-139 4h-266z" />
<glyph unicode="&#xa4;" horiz-adv-x="434" d="M8 488l68 72l13 -1l62 -70q34 20 74 20q33 0 69 -17l59 70l14 3l72 -69v-13l-70 -62q20 -35 20 -76q0 -33 -17 -69l70 -57l3 -15l-69 -72h-13l-61 70q-33 -21 -77 -21q-36 0 -70 18l-57 -69l-14 -2l-73 68l1 14l69 60q-20 34 -20 75q0 37 18 71l-69 58zM145 345 q0 -36 22 -58t58 -22t58 22t22 58t-22 58t-58 22t-58 -22t-22 -58z" />
<glyph unicode="&#xa5;" horiz-adv-x="548" d="M27 507h144l13 -40l88 -168h8l98 163l18 45h140l-110 -191h93l7 -6l-5 -66h-136l-39 -67h173l7 -6l-5 -65h-186l5 -106h-137l5 106h-172l-5 8l4 63h162l-35 67h-126l-5 8l4 64h90z" />
<glyph unicode="&#xa6;" horiz-adv-x="304" d="M91 -244l1 392l106 13l12 -14l1 -396l-108 -9zM92 375v422l111 9l11 -11l-3 -416l-108 -14z" />
<glyph unicode="&#xa7;" horiz-adv-x="437" d="M21 -68l19 121l14 9q74 -60 142 -60q24 0 36.5 10t12.5 23q0 16 -23 30.5t-55.5 28t-65 31.5t-55.5 49.5t-23 72.5q0 44 25 84t68 65q-52 40 -52 97q0 67 56.5 114.5t142.5 47.5q71 0 133 -24l-19 -116l-18 -6q-68 44 -117 44q-21 0 -33 -10t-12 -24q0 -16 23 -30 t55.5 -27.5t65.5 -31.5t56 -49t23 -72q0 -44 -25.5 -83.5t-69.5 -64.5q54 -40 54 -99q0 -66 -56.5 -112.5t-142.5 -46.5q-82 0 -159 29zM156 287q0 -17 13 -32t28 -23.5t43 -22.5q46 23 46 59q0 25 -21 42t-64 38q-45 -24 -45 -61z" />
<glyph unicode="&#xa8;" horiz-adv-x="388" d="M31 620q0 36 20.5 57t55.5 21q33 0 51.5 -19t18.5 -52q0 -36 -20 -57t-55 -21q-34 0 -52.5 18.5t-18.5 52.5zM213 620q0 36 20.5 57t55.5 21q33 0 51.5 -19t18.5 -52q0 -36 -20 -57t-55 -21q-34 0 -52.5 18.5t-18.5 52.5z" />
<glyph unicode="&#xa9;" horiz-adv-x="688" d="M42 293q0 137 83 221t218 84q136 0 219 -84t83 -221t-83 -221t-219 -84q-135 0 -218 84t-83 221zM95 293q0 -113 68.5 -183t179.5 -70q112 0 180.5 70t68.5 183t-68.5 183t-180.5 70q-111 0 -179.5 -70t-68.5 -183zM191 293q0 81 46.5 126t131.5 45q43 0 87 -13l-19 -83 l-6 -4q-28 15 -66 15q-34 0 -49 -17t-15 -58q0 -91 70 -91q34 0 66 10l9 -4l-8 -82q-29 -9 -75 -9q-172 0 -172 165z" />
<glyph unicode="&#xaa;" horiz-adv-x="350" d="M21 422q0 73 76 85l99 14l1 15q0 36 -36 36q-40 0 -99 -34l-8 4l-13 76q67 35 139 35q61 0 93 -24.5t32 -70.5q0 -11 -2.5 -68.5t-2.5 -65.5q0 -19 11 -19q10 0 14 3l8 -7l-11 -61q-24 -19 -54 -19q-27 0 -40.5 10.5t-21.5 37.5h-4q-30 -35 -71 -49q-51 1 -80.5 28 t-29.5 74zM127 433q0 -32 30 -32q19 0 39 17v50l-47 -8q-22 -5 -22 -27z" />
<glyph unicode="&#xab;" horiz-adv-x="444" d="M18 214v24l131 181l74 -39l3 -15l-94 -137l94 -136l-3 -14l-74 -39zM212 214v24l131 181l74 -39l3 -15l-94 -137l94 -136l-3 -14l-74 -39z" />
<glyph unicode="&#xac;" d="M19 216l8 95h402l6 -8v-258l-96 -7l-11 10v157h-299z" />
<glyph unicode="&#xad;" horiz-adv-x="302" d="M26 193v98l237 36l12 -11v-98l-237 -37z" />
<glyph unicode="&#xae;" horiz-adv-x="449" d="M36 514q0 85 52 137t137 52t136.5 -52t51.5 -137t-51.5 -137t-136.5 -52t-137 52t-52 137zM73 514q0 -68 42 -110t110 -42t110 42t42 110t-42 110t-110 42t-110 -42t-42 -110zM149 423l2 56l-2 139l91 1q71 0 71 -62q0 -36 -37 -58q15 -22 49 -64l-1 -6q-16 -6 -53 -10 l-7 4q-18 30 -33 60h-28l3 -60h-55zM202 524l30 -2q22 11 22 31q0 25 -33 26l-17 -1z" />
<glyph unicode="&#xaf;" horiz-adv-x="388" d="M47 585l7 88h279l10 -11l-8 -88h-278z" />
<glyph unicode="&#xb0;" horiz-adv-x="292" d="M14 524q0 55 38.5 93t93.5 38t93.5 -38t38.5 -93q0 -56 -38 -94t-94 -38q-55 0 -93.5 38.5t-38.5 93.5zM80 524q0 -28 19 -47t47 -19t47 19t19 47t-19 46.5t-47 18.5t-47 -18.5t-19 -46.5z" />
<glyph unicode="&#xb1;" d="M20 -117l8 95h422l11 -10l-8 -96h-423zM20 216l8 95h159v160l96 8l11 -10v-158h156l11 -10l-8 -96h-159v-160l-96 -7l-11 10v157h-157z" />
<glyph unicode="&#xb2;" horiz-adv-x="367" d="M29 655q84 51 158 51q55 0 91 -25.5t36 -71.5q0 -53 -79 -148l-45 -54l2 -3h77l69 6l6 -8l-14 -95l-99 5h-168l-27 -2l-6 5v71l93 96q26 29 36.5 41t20.5 28.5t10 28.5q0 27 -34 27q-47 0 -93 -43h-14z" />
<glyph unicode="&#xb3;" horiz-adv-x="328" d="M18 670q63 37 137 37q61 0 98 -26.5t37 -69.5q0 -59 -61 -91v-4q70 -20 70 -90q0 -55 -51 -88t-136 -33q-41 0 -81 8l-7 86l8 7q45 -12 82 -12q66 0 66 36q0 29 -41 30h-56l-6 7l2 80l32 1q23 1 38.5 11.5t15.5 27.5q0 26 -37 26q-30 0 -78 -23h-13z" />
<glyph unicode="&#xb4;" horiz-adv-x="388" d="M65 581q105 80 189 156l14 -1l57 -87l-3 -14q-99 -57 -206 -115l-14 1z" />
<glyph unicode="&#xb5;" horiz-adv-x="527" d="M49 458l150 12v-285q0 -65 53 -65q34 0 68 30v308l151 12l-10 -334q0 -32 20 -32q10 0 22 6l11 -9l-16 -83q-35 -26 -78 -26q-37 0 -59 17t-36 56h-7q-47 -55 -98 -71q-14 0 -21 1v-180h-149l5 376z" />
<glyph unicode="&#xb6;" horiz-adv-x="539" d="M19 426q0 105 66.5 162t189.5 57h241l9 -11l-10 -110h-64l-6 -321l2 -64q0 -81 -46.5 -133.5t-162.5 -94.5l-41 72v14q54 29 77 59.5t23 76.5v53l-6 339h-39q-63 -15 -63 -104q0 -86 74 -138l-55 -80q-91 23 -140 80.5t-49 142.5z" />
<glyph unicode="&#xb7;" horiz-adv-x="228" d="M33 252q0 40 22.5 63t61.5 23q37 0 57.5 -21t20.5 -58q0 -40 -23 -63t-61 -23t-58 20.5t-20 58.5z" />
<glyph unicode="&#xb8;" horiz-adv-x="388" d="M104 -178l10 64l7 3q31 -29 59 -29q21 0 21 18q0 10 -15 18l-49 27l23 106h71l-16 -75l34 -19q42 -22 42 -61q0 -34 -27.5 -56t-73.5 -22q-44 0 -86 26z" />
<glyph unicode="&#xb9;" horiz-adv-x="284" d="M7 563v95l192 48l17 -12l-5 -243l4 -139h-125l5 127v133l-80 -15z" />
<glyph unicode="&#xba;" horiz-adv-x="351" d="M19 480q0 173 162 173q150 0 150 -160q0 -174 -162 -174q-150 0 -150 161zM130 494q0 -56 10 -77t37 -21q25 0 35 18t10 65q0 53 -10.5 73.5t-37.5 20.5q-25 0 -34.5 -17t-9.5 -62z" />
<glyph unicode="&#xbb;" horiz-adv-x="442" d="M19 95l94 137l-94 136l3 14l74 39l131 -175v-24l-131 -181l-74 39zM212 95l94 137l-94 136l3 14l74 39l132 -175v-24l-132 -181l-74 39z" />
<glyph unicode="&#xbc;" horiz-adv-x="768" d="M7 508v95l192 48l17 -12l-5 -243l4 -139h-125l5 127v133l-80 -15zM73 -37l466 726l63 -39l9 -20l-465 -723l-67 41zM411 88v74l165 227h114l-2 -219h50l7 -10l-5 -82l-50 2l5 -72l-7 -8l-97 -5l-6 7l2 79h-95l-73 -3zM516 170h73v90h-7z" />
<glyph unicode="&#xbd;" horiz-adv-x="799" d="M7 508v95l192 48l17 -12l-5 -243l4 -139h-125l5 127v133l-80 -15zM73 -37l466 726l63 -39l9 -20l-465 -723l-67 41zM462 343q84 51 158 51q55 0 91 -25.5t36 -71.5q0 -53 -79 -148l-45 -54l2 -3h77l69 6l6 -8l-14 -95l-99 5h-168l-27 -2l-6 5v71l93 96q26 29 36.5 41 t20.5 28.5t10 28.5q0 27 -34 27q-47 0 -93 -43h-14z" />
<glyph unicode="&#xbe;" horiz-adv-x="808" d="M18 615q63 37 137 37q61 0 98 -26.5t37 -69.5q0 -59 -61 -91v-4q70 -20 70 -90q0 -55 -51 -88t-136 -33q-41 0 -81 8l-7 86l8 7q45 -12 82 -12q66 0 66 36q0 29 -41 30h-56l-6 7l2 80l32 1q23 1 38.5 11.5t15.5 27.5q0 26 -37 26q-30 0 -78 -23h-13zM113 -37l466 726 l63 -39l9 -20l-465 -723l-67 41zM450 88v74l165 227h114l-2 -219h50l7 -10l-5 -82l-50 2l5 -72l-7 -8l-97 -5l-6 7l2 79h-95l-73 -3zM555 170h73v90h-7z" />
<glyph unicode="&#xbf;" horiz-adv-x="345" d="M-19 -37q0 88 94 140l66 38l3 5l-7 79l111 16l11 -11l11 -122l-6 -11l-87 -40q-53 -27 -53 -70q0 -35 39.5 -53.5t134.5 -24.5l11 -14l-29 -88l-14 -8q-137 7 -211 49t-74 115zM108 392q0 40 23 63.5t61 23.5q78 0 78 -80q0 -39 -22.5 -62.5t-61.5 -23.5q-37 0 -57.5 21 t-20.5 58z" />
<glyph unicode="&#xc0;" horiz-adv-x="611" d="M6 0l209 645h194l189 -645h-165l-17 93l-9 37l-115 2l-101 -3l-8 -26l-18 -103h-159zM174 803l40 94l15 4q83 -50 214 -117l-25 -65l-14 -4q-116 35 -225 74zM228 252l74 -2l74 2l-62 245h-11z" />
<glyph unicode="&#xc1;" horiz-adv-x="611" d="M6 0l209 645h194l189 -645h-165l-17 93l-9 37l-115 2l-101 -3l-8 -26l-18 -103h-159zM192 784q108 53 215 116l14 -3l40 -95l-5 -13q-93 -34 -224 -75l-15 4zM228 252l74 -2l74 2l-62 245h-11z" />
<glyph unicode="&#xc2;" horiz-adv-x="611" d="M6 0l209 645h194l189 -645h-165l-17 93l-9 37l-115 2l-101 -3l-8 -26l-18 -103h-159zM151 788q76 51 141 110h30q68 -61 142 -110l-28 -63h-15l-114 62q-21 -12 -61 -33.5t-52 -28.5h-15zM228 252l74 -2l74 2l-62 245h-11z" />
<glyph unicode="&#xc3;" horiz-adv-x="611" d="M6 0l209 645h194l189 -645h-165l-17 93l-9 37l-115 2l-101 -3l-8 -26l-18 -103h-159zM123 758v13l74 99l14 5q25 -3 83 -19t71 -16q7 0 13 2.5t13.5 9.5t11.5 11t14 16t13 16h14l46 -46v-13l-74 -99l-14 -6q-24 3 -82.5 19t-71.5 16q-5 0 -9.5 -1.5t-9.5 -4.5t-8.5 -6 t-9 -9t-9 -10t-10 -11.5t-9.5 -11.5h-14zM228 252l74 -2l74 2l-62 245h-11z" />
<glyph unicode="&#xc4;" horiz-adv-x="611" d="M6 0l209 645h194l189 -645h-165l-17 93l-9 37l-115 2l-101 -3l-8 -26l-18 -103h-159zM144 797q0 36 20.5 57t55.5 21q33 0 51.5 -19t18.5 -52q0 -36 -20 -57t-55 -21q-34 0 -52.5 18.5t-18.5 52.5zM228 252l74 -2l74 2l-62 245h-11zM326 797q0 36 20.5 57t55.5 21 q33 0 51.5 -19t18.5 -52q0 -36 -20 -57t-55 -21q-34 0 -52.5 18.5t-18.5 52.5z" />
<glyph unicode="&#xc5;" horiz-adv-x="611" d="M6 0l209 645h194l189 -645h-165l-17 93l-9 37l-115 2l-101 -3l-8 -26l-18 -103h-159zM205 812q0 50 27 76t78 26q99 0 99 -96q0 -50 -27.5 -77.5t-77.5 -27.5q-48 0 -73.5 25.5t-25.5 73.5zM228 252l74 -2l74 2l-62 245h-11zM269 815q0 -38 39 -38q37 0 37 35 q0 37 -39 37q-37 0 -37 -34z" />
<glyph unicode="&#xc6;" horiz-adv-x="830" d="M-19 0l296 645h473l10 -12l-12 -120l-153 6h-82l16 -153l184 51l11 -9l14 -113l-197 -51l12 -118h98l164 6l10 -12l-11 -120h-408l-5 93l-12 109l-197 -56l-19 -43l-32 -103h-160zM255 289l121 34l-19 174h-10z" />
<glyph unicode="&#xc7;" horiz-adv-x="516" d="M24 317q0 161 83.5 249t235.5 88q91 0 166 -33l-28 -133l-12 -6q-59 40 -133 40q-71 0 -106 -45t-35 -142q0 -210 149 -210q74 0 137 34l14 -8l-13 -133q-62 -25 -134 -28l-8 -35l34 -19q42 -22 42 -61q0 -34 -27.5 -56t-73.5 -22q-44 0 -86 26l10 64l7 3q31 -29 59 -29 q21 0 21 18q0 11 -15 18l-49 27l15 69q-125 14 -189 97t-64 227z" />
<glyph unicode="&#xc8;" horiz-adv-x="522" d="M70 0l9 191l-9 454h431l9 -12l-11 -120l-156 6l-111 -1l-2 -129h106l105 3l9 -12l-10 -120l-115 3h-98l-1 -56l3 -80l106 -1l162 6l9 -12l-10 -120h-426zM154 802l40 95l14 3q107 -63 215 -116l-25 -66l-15 -4q-131 41 -224 75z" />
<glyph unicode="&#xc9;" horiz-adv-x="522" d="M70 0l9 191l-9 454h431l9 -12l-11 -120l-156 6l-111 -1l-2 -129h106l105 3l9 -12l-10 -120l-115 3h-98l-1 -56l3 -80l106 -1l162 6l9 -12l-10 -120h-426zM172 784q108 53 215 116l14 -3l40 -95l-5 -13q-93 -34 -224 -75l-15 4z" />
<glyph unicode="&#xca;" horiz-adv-x="522" d="M70 0l9 191l-9 454h431l9 -12l-11 -120l-156 6l-111 -1l-2 -129h106l105 3l9 -12l-10 -120l-115 3h-98l-1 -56l3 -80l106 -1l162 6l9 -12l-10 -120h-426zM130 787q83 57 141 110h30q61 -54 142 -110l-28 -62h-15q-38 20 -114 62q-61 -35 -113 -62h-15z" />
<glyph unicode="&#xcb;" horiz-adv-x="522" d="M70 0l9 191l-9 454h431l9 -12l-11 -120l-156 6l-111 -1l-2 -129h106l105 3l9 -12l-10 -120l-115 3h-98l-1 -56l3 -80l106 -1l162 6l9 -12l-10 -120h-426zM123 797q0 36 20.5 57t55.5 21q33 0 51.5 -19t18.5 -52q0 -36 -20 -57t-55 -21q-34 0 -52.5 18.5t-18.5 52.5z M305 797q0 36 20.5 57t55.5 21q33 0 51.5 -19t18.5 -52q0 -36 -20 -57t-55 -21q-34 0 -52.5 18.5t-18.5 52.5z" />
<glyph unicode="&#xcc;" horiz-adv-x="308" d="M20 802l40 95l14 3q107 -63 215 -116l-25 -66l-15 -4q-131 41 -224 75zM70 0l9 191l-9 454h165l-9 -438l7 -207h-163z" />
<glyph unicode="&#xcd;" horiz-adv-x="308" d="M38 784q108 53 215 116l14 -3l40 -95l-5 -13q-93 -34 -224 -75l-15 4zM70 0l9 191l-9 454h165l-9 -438l7 -207h-163z" />
<glyph unicode="&#xce;" horiz-adv-x="308" d="M-3 788q76 51 141 110h30q68 -61 142 -110l-28 -63h-15l-114 62q-21 -12 -61 -33.5t-52 -28.5h-15zM70 0l9 191l-9 454h165l-9 -438l7 -207h-163z" />
<glyph unicode="&#xd0;" horiz-adv-x="686" d="M17 276l5 95h81l-5 274l273 4q141 0 216.5 -78t75.5 -223q0 -172 -86 -264t-246 -92q-91 0 -233 8l8 191l-1 74h-81zM254 207l3 -84q58 -8 104 -8q132 0 132 194q0 114 -32 163t-104 49q-53 0 -97 -4l-3 -146h104l7 -11l-5 -95h-108z" />
<glyph unicode="&#xd1;" horiz-adv-x="701" d="M70 0l9 190l-8 455h175l229 -399h11l-5 393l150 9l-10 -444l7 -204h-176l-229 399h-10l-1 -172l6 -227h-148zM166 758v13l74 99l14 5q25 -3 83 -19t71 -16q7 0 13 2.5t13.5 9.5t11.5 11t14 16t13 16h14l46 -46v-13l-74 -99l-14 -6q-24 3 -82.5 19t-71.5 16 q-5 0 -9.5 -1.5t-9.5 -4.5t-8.5 -6t-9 -9t-9 -10t-10 -11.5t-9.5 -11.5h-14z" />
<glyph unicode="&#xd2;" horiz-adv-x="647" d="M24 313q0 164 81.5 253t231.5 89q137 0 212 -82.5t75 -234.5q0 -167 -81.5 -258t-230.5 -91q-138 0 -213 84.5t-75 239.5zM192 802l40 95l14 3q107 -63 215 -116l-25 -66l-15 -4q-131 41 -224 75zM193 335q0 -125 29.5 -174t102.5 -49q70 0 99.5 43t29.5 149 q0 124 -29.5 172.5t-102.5 48.5q-71 0 -100 -42.5t-29 -147.5z" />
<glyph unicode="&#xd3;" horiz-adv-x="647" d="M24 313q0 164 81.5 253t231.5 89q137 0 212 -82.5t75 -234.5q0 -167 -81.5 -258t-230.5 -91q-138 0 -213 84.5t-75 239.5zM193 335q0 -125 29.5 -174t102.5 -49q70 0 99.5 43t29.5 149q0 124 -29.5 172.5t-102.5 48.5q-71 0 -100 -42.5t-29 -147.5zM210 784 q108 53 215 116l14 -3l40 -95l-5 -13q-93 -34 -224 -75l-15 4z" />
<glyph unicode="&#xd4;" horiz-adv-x="647" d="M24 313q0 164 81.5 253t231.5 89q137 0 212 -82.5t75 -234.5q0 -167 -81.5 -258t-230.5 -91q-138 0 -213 84.5t-75 239.5zM168 788q76 51 141 110h30q68 -61 142 -110l-28 -63h-15l-114 62q-21 -12 -61 -33.5t-52 -28.5h-15zM193 335q0 -125 29.5 -174t102.5 -49 q70 0 99.5 43t29.5 149q0 124 -29.5 172.5t-102.5 48.5q-71 0 -100 -42.5t-29 -147.5z" />
<glyph unicode="&#xd5;" horiz-adv-x="647" d="M24 313q0 164 81.5 253t231.5 89q137 0 212 -82.5t75 -234.5q0 -167 -81.5 -258t-230.5 -91q-138 0 -213 84.5t-75 239.5zM140 758v13l74 99l14 5q25 -3 83 -19t71 -16q7 0 13 2.5t13.5 9.5t11.5 11t14 16t13 16h14l46 -46v-13l-74 -99l-14 -6q-24 3 -82.5 19t-71.5 16 q-5 0 -9.5 -1.5t-9.5 -4.5t-8.5 -6t-9 -9t-9 -10t-10 -11.5t-9.5 -11.5h-14zM193 335q0 -125 29.5 -174t102.5 -49q70 0 99.5 43t29.5 149q0 124 -29.5 172.5t-102.5 48.5q-71 0 -100 -42.5t-29 -147.5z" />
<glyph unicode="&#xd7;" d="M54 132v14l111 112l-111 111v15l73 62l114 -112l112 112l73 -62l1 -15l-111 -111l110 -111v-15l-73 -62l-112 113l-114 -114z" />
<glyph unicode="&#xd8;" horiz-adv-x="647" d="M24 313q0 164 81.5 253t231.5 89q43 0 81 -9l56 115l98 -37l9 -16l-55 -113q98 -83 98 -257q0 -167 -81.5 -258t-230.5 -91q-39 0 -76 8l-60 -124l-101 37l-7 14l59 123q-103 83 -103 266zM193 335q0 -125 29.5 -174t102.5 -49q70 0 99.5 43t29.5 149q0 124 -29.5 172.5 t-102.5 48.5q-71 0 -100 -42.5t-29 -147.5z" />
<glyph unicode="&#xd9;" horiz-adv-x="644" d="M55 645h162l-7 -401q-1 -64 25.5 -94t84.5 -30t85.5 29.5t26.5 90.5l-7 405h164l-5 -327l-1 -93q0 -113 -70 -174t-201 -61q-125 0 -191.5 60t-63.5 172l2 98zM191 802l40 95l14 3q107 -63 215 -116l-25 -66l-15 -4q-131 41 -224 75z" />
<glyph unicode="&#xda;" horiz-adv-x="644" d="M55 645h162l-7 -401q-1 -64 25.5 -94t84.5 -30t85.5 29.5t26.5 90.5l-7 405h164l-5 -327l-1 -93q0 -113 -70 -174t-201 -61q-125 0 -191.5 60t-63.5 172l2 98zM209 784q108 53 215 116l14 -3l40 -95l-5 -13q-93 -34 -224 -75l-15 4z" />
<glyph unicode="&#xdb;" horiz-adv-x="644" d="M55 645h162l-7 -401q-1 -64 25.5 -94t84.5 -30t85.5 29.5t26.5 90.5l-7 405h164l-5 -327l-1 -93q0 -113 -70 -174t-201 -61q-125 0 -191.5 60t-63.5 172l2 98zM167 788q76 51 141 110h30q68 -61 142 -110l-28 -63h-15l-114 62q-21 -12 -61 -33.5t-52 -28.5h-15z" />
<glyph unicode="&#xdc;" horiz-adv-x="644" d="M55 645h162l-7 -401q-1 -64 25.5 -94t84.5 -30t85.5 29.5t26.5 90.5l-7 405h164l-5 -327l-1 -93q0 -113 -70 -174t-201 -61q-125 0 -191.5 60t-63.5 172l2 98zM160 797q0 36 20.5 57t55.5 21q33 0 51.5 -19t18.5 -52q0 -36 -20 -57t-55 -21q-34 0 -52.5 18.5t-18.5 52.5z M342 797q0 36 20.5 57t55.5 21q33 0 51.5 -19t18.5 -52q0 -36 -20 -57t-55 -21q-34 0 -52.5 18.5t-18.5 52.5z" />
<glyph unicode="&#xde;" horiz-adv-x="578" d="M71 0l8 191l-6 355l-2 2h2l-2 97h166l-2 -96h112q106 0 162.5 -51t56.5 -151q0 -115 -72 -178.5t-205 -63.5l-58 -1l4 -104h-164zM228 225l89 -4q77 27 77 114q0 50 -24.5 73t-77.5 25l-59 -4z" />
<glyph unicode="&#xdf;" horiz-adv-x="629" d="M21 378l7 86h64v18q0 105 68 163.5t181 58.5q96 0 145.5 -41t49.5 -106q0 -33 -14 -61t-31.5 -44t-31.5 -36t-14 -40t13.5 -36.5t34.5 -28t44.5 -27t44.5 -31.5t34.5 -43t13.5 -61q0 -67 -49 -113.5t-144 -46.5q-71 0 -148 28l19 120l13 10q31 -27 67.5 -43t64.5 -16 q43 0 43 33q0 17 -19 33t-46 31.5t-54.5 35t-46.5 52t-19 74.5q0 29 9.5 52t23.5 37.5t28 27.5t23.5 30t9.5 38q0 61 -73 61q-87 0 -88 -91l-5 -296l8 -206h-159l8 190l-2 180h-68z" />
<glyph unicode="&#xe0;" horiz-adv-x="490" d="M24 136q0 103 108 121l148 25l1 29q0 58 -57 58q-60 0 -144 -54l-11 7l-18 103q94 53 199 53q84 0 129.5 -35.5t45.5 -101.5q0 -17 -4.5 -106t-4.5 -103q0 -26 19 -26q10 0 23 4l10 -9l-14 -83q-32 -23 -81 -27q-63 6 -81 72h-7q-49 -53 -101 -73q-74 1 -117 40t-43 106z M108 649l57 87l14 1q84 -76 189 -156l-37 -60l-14 -1q-107 58 -206 115zM164 152q0 -50 46 -50q34 0 68 34l1 72l-85 -17q-30 -6 -30 -39z" />
<glyph unicode="&#xe1;" horiz-adv-x="490" d="M24 136q0 103 108 121l148 25l1 29q0 58 -57 58q-60 0 -144 -54l-11 7l-18 103q94 53 199 53q84 0 129.5 -35.5t45.5 -101.5q0 -17 -4.5 -106t-4.5 -103q0 -26 19 -26q10 0 23 4l10 -9l-14 -83q-32 -23 -81 -27q-63 6 -81 72h-7q-49 -53 -101 -73q-74 1 -117 40t-43 106z M131 581q105 80 189 156l14 -1l57 -87l-3 -14q-99 -57 -206 -115l-14 1zM164 152q0 -50 46 -50q34 0 68 34l1 72l-85 -17q-30 -6 -30 -39z" />
<glyph unicode="&#xe2;" horiz-adv-x="490" d="M24 136q0 103 108 121l148 25l1 29q0 58 -57 58q-60 0 -144 -54l-11 7l-18 103q94 53 199 53q84 0 129.5 -35.5t45.5 -101.5q0 -17 -4.5 -106t-4.5 -103q0 -26 19 -26q10 0 23 4l10 -9l-14 -83q-32 -23 -81 -27q-63 6 -81 72h-7q-49 -53 -101 -73q-74 1 -117 40t-43 106z M73 587q62 55 150 145h31q67 -70 150 -145l-39 -59h-15q-77 55 -111 86q-32 -27 -111 -86h-16zM164 152q0 -50 46 -50q34 0 68 34l1 72l-85 -17q-30 -6 -30 -39z" />
<glyph unicode="&#xe3;" horiz-adv-x="490" d="M24 136q0 103 108 121l148 25l1 29q0 58 -57 58q-60 0 -144 -54l-11 7l-18 103q94 53 199 53q84 0 129.5 -35.5t45.5 -101.5q0 -17 -4.5 -106t-4.5 -103q0 -26 19 -26q10 0 23 4l10 -9l-14 -83q-32 -23 -81 -27q-63 6 -81 72h-7q-49 -53 -101 -73q-74 1 -117 40t-43 106z M54 581v13l74 99l14 5q25 -3 83 -19t71 -16q7 0 13 2.5t13.5 9.5t11.5 11t14 16t13 16h14l46 -46v-13l-74 -99l-14 -6q-24 3 -82.5 19t-71.5 16q-5 0 -9.5 -1.5t-9.5 -4.5t-8.5 -6t-9 -9t-9 -10t-10 -11.5t-9.5 -11.5h-14zM164 152q0 -50 46 -50q34 0 68 34l1 72l-85 -17 q-30 -6 -30 -39z" />
<glyph unicode="&#xe4;" horiz-adv-x="490" d="M24 136q0 103 108 121l148 25l1 29q0 58 -57 58q-60 0 -144 -54l-11 7l-18 103q94 53 199 53q84 0 129.5 -35.5t45.5 -101.5q0 -17 -4.5 -106t-4.5 -103q0 -26 19 -26q10 0 23 4l10 -9l-14 -83q-32 -23 -81 -27q-63 6 -81 72h-7q-49 -53 -101 -73q-74 1 -117 40t-43 106z M76 620q0 36 20.5 57t55.5 21q33 0 51.5 -19t18.5 -52q0 -36 -20 -57t-55 -21q-34 0 -52.5 18.5t-18.5 52.5zM164 152q0 -50 46 -50q34 0 68 34l1 72l-85 -17q-30 -6 -30 -39zM258 620q0 36 20.5 57t55.5 21q33 0 51.5 -19t18.5 -52q0 -36 -20 -57t-55 -21q-34 0 -52.5 18.5 t-18.5 52.5z" />
<glyph unicode="&#xe5;" horiz-adv-x="490" d="M24 136q0 103 108 121l148 25l1 29q0 58 -57 58q-60 0 -144 -54l-11 7l-18 103q94 53 199 53q84 0 129.5 -35.5t45.5 -101.5q0 -17 -4.5 -106t-4.5 -103q0 -26 19 -26q10 0 23 4l10 -9l-14 -83q-32 -23 -81 -27q-63 6 -81 72h-7q-49 -53 -101 -73q-74 1 -117 40t-43 106z M136 635q0 50 27 76t78 26q99 0 99 -96q0 -50 -27.5 -77.5t-77.5 -27.5q-48 0 -73.5 25.5t-25.5 73.5zM164 152q0 -50 46 -50q34 0 68 34l1 72l-85 -17q-30 -6 -30 -39zM200 638q0 -38 39 -38q37 0 37 35q0 37 -39 37q-37 0 -37 -34z" />
<glyph unicode="&#xe6;" horiz-adv-x="701" d="M23 133q0 50 27.5 84.5t80.5 38.5l144 13v42q0 30 -13 44t-43 14q-54 0 -142 -54l-11 6l-18 104q90 53 191 53q83 0 123 -46q52 45 132 45q92 0 141 -59t40 -166l-14 -18l-258 -24q5 -55 31 -80t79 -25q64 0 132 31l13 -8l-24 -113q-67 -26 -135 -26q-121 0 -178 81 q-54 -54 -119 -80q-81 1 -130 38t-49 105zM165 148q0 -45 45 -45q29 0 75 38q-6 30 -9 55l-78 -10q-33 -6 -33 -38zM402 282l135 16q3 39 -11.5 58t-44.5 18q-34 -1 -56.5 -27t-22.5 -65z" />
<glyph unicode="&#xe7;" horiz-adv-x="384" d="M23 227q0 118 61 184.5t171 66.5q69 0 123 -24l-26 -124l-12 -5q-53 25 -85 25q-81 0 -81 -107q0 -130 91 -130q36 0 93 21l12 -9l-16 -119q-44 -13 -100 -16l-7 -35l34 -19q42 -22 42 -61q0 -34 -27.5 -56t-73.5 -22q-44 0 -86 26l10 64l7 3q31 -29 59 -29q21 0 21 18 q0 11 -15 18l-49 27l15 69q-77 14 -119 75t-42 159z" />
<glyph unicode="&#xe8;" d="M23 233q0 114 64 179t173 65q92 0 142 -49.5t50 -138.5q0 -36 -5 -59l-20 -22l-259 -1q6 -52 34 -77t84 -25q63 0 134 31l13 -9l-23 -112q-70 -26 -141 -26q-117 0 -181.5 64.5t-64.5 179.5zM120 648l57 87l14 1q84 -76 189 -156l-37 -60l-14 -1q-107 58 -206 115z M170 287l144 6l2 13q0 69 -60 69q-71 0 -86 -88z" />
<glyph unicode="&#xe9;" d="M23 233q0 114 64 179t173 65q92 0 142 -49.5t50 -138.5q0 -36 -5 -59l-20 -22l-259 -1q6 -52 34 -77t84 -25q63 0 134 31l13 -9l-23 -112q-70 -26 -141 -26q-117 0 -181.5 64.5t-64.5 179.5zM143 580q105 80 189 156l14 -1l57 -87l-3 -14q-99 -57 -206 -115l-14 1z M170 287l144 6l2 13q0 69 -60 69q-71 0 -86 -88z" />
<glyph unicode="&#xea;" d="M23 233q0 114 64 179t173 65q92 0 142 -49.5t50 -138.5q0 -36 -5 -59l-20 -22l-259 -1q6 -52 34 -77t84 -25q63 0 134 31l13 -9l-23 -112q-70 -26 -141 -26q-117 0 -181.5 64.5t-64.5 179.5zM85 586q62 55 150 145h31q67 -70 150 -145l-39 -59h-15q-77 55 -111 86 q-32 -27 -111 -86h-16zM170 287l144 6l2 13q0 69 -60 69q-71 0 -86 -88z" />
<glyph unicode="&#xeb;" d="M23 233q0 114 64 179t173 65q92 0 142 -49.5t50 -138.5q0 -36 -5 -59l-20 -22l-259 -1q6 -52 34 -77t84 -25q63 0 134 31l13 -9l-23 -112q-70 -26 -141 -26q-117 0 -181.5 64.5t-64.5 179.5zM87 619q0 36 20.5 57t55.5 21q33 0 51.5 -19t18.5 -52q0 -36 -20 -57t-55 -21 q-34 0 -52.5 18.5t-18.5 52.5zM170 287l144 6l2 13q0 69 -60 69q-71 0 -86 -88zM269 619q0 36 20.5 57t55.5 21q33 0 51.5 -19t18.5 -52q0 -36 -20 -57t-55 -21q-34 0 -52.5 18.5t-18.5 52.5z" />
<glyph unicode="&#xec;" horiz-adv-x="261" d="M2 649l57 87l14 1q84 -76 189 -156l-37 -60l-14 -1q-107 58 -206 115zM51 0l8 191l-6 267l157 12l-8 -263l7 -207h-158z" />
<glyph unicode="&#xed;" horiz-adv-x="261" d="M25 581q105 80 189 156l14 -1l57 -87l-3 -14q-99 -57 -206 -115l-14 1zM51 0l8 191l-6 267l157 12l-8 -263l7 -207h-158z" />
<glyph unicode="&#xee;" horiz-adv-x="261" d="M-32 587q62 55 150 145h31q67 -70 150 -145l-39 -59h-15q-77 55 -111 86q-32 -27 -111 -86h-16zM51 0l8 191l-6 267l157 12l-8 -263l7 -207h-158z" />
<glyph unicode="&#xf0;" horiz-adv-x="501" d="M28 223q0 114 55.5 175t160.5 61q19 0 28 -1q-26 36 -68 69l-114 -69l-13 5l-32 60l86 52q-32 17 -87 43v18l101 74h10q56 -30 99 -61l105 63l13 -4l32 -60l-86 -52q153 -144 153 -347q0 -125 -59.5 -192.5t-169.5 -67.5q-103 0 -158.5 59.5t-55.5 174.5zM172 225 q0 -74 19.5 -104t61.5 -30q41 0 57.5 31t16.5 110q0 56 -7 98q-28 21 -67 21q-44 0 -62.5 -28t-18.5 -98z" />
<glyph unicode="&#xf1;" horiz-adv-x="533" d="M51 0l8 191l-6 267l150 12v-69h7q55 52 119 73q76 0 115.5 -34.5t37.5 -98.5l-3 -134l6 -207h-159l9 279q0 69 -56 69q-34 0 -77 -30v-111l7 -207h-158zM100 581v13l74 99l14 5q25 -3 83 -19t71 -16q7 0 13 2.5t13.5 9.5t11.5 11t14 16t13 16h14l46 -46v-13l-74 -99 l-14 -6q-24 3 -82.5 19t-71.5 16q-5 0 -9.5 -1.5t-9.5 -4.5t-8.5 -6t-9 -9t-9 -10t-10 -11.5t-9.5 -11.5h-14z" />
<glyph unicode="&#xf2;" horiz-adv-x="495" d="M23 223q0 124 59.5 189.5t172.5 65.5q106 0 161.5 -60t55.5 -175q0 -124 -59.5 -189t-172.5 -65q-106 0 -161.5 60t-55.5 174zM119 649l57 87l14 1q84 -76 189 -156l-37 -60l-14 -1q-107 58 -206 115zM171 252q0 -90 17.5 -124.5t62.5 -34.5q39 0 55.5 26.5t16.5 93.5 q0 89 -17.5 123.5t-61.5 34.5q-40 0 -56.5 -26.5t-16.5 -92.5z" />
<glyph unicode="&#xf3;" horiz-adv-x="495" d="M23 223q0 124 59.5 189.5t172.5 65.5q106 0 161.5 -60t55.5 -175q0 -124 -59.5 -189t-172.5 -65q-106 0 -161.5 60t-55.5 174zM142 581q105 80 189 156l14 -1l57 -87l-3 -14q-99 -57 -206 -115l-14 1zM171 252q0 -90 17.5 -124.5t62.5 -34.5q39 0 55.5 26.5t16.5 93.5 q0 89 -17.5 123.5t-61.5 34.5q-40 0 -56.5 -26.5t-16.5 -92.5z" />
<glyph unicode="&#xf4;" horiz-adv-x="495" d="M23 223q0 124 59.5 189.5t172.5 65.5q106 0 161.5 -60t55.5 -175q0 -124 -59.5 -189t-172.5 -65q-106 0 -161.5 60t-55.5 174zM84 587q62 55 150 145h31q67 -70 150 -145l-39 -59h-15q-77 55 -111 86q-32 -27 -111 -86h-16zM171 252q0 -90 17.5 -124.5t62.5 -34.5 q39 0 55.5 26.5t16.5 93.5q0 89 -17.5 123.5t-61.5 34.5q-40 0 -56.5 -26.5t-16.5 -92.5z" />
<glyph unicode="&#xf5;" horiz-adv-x="495" d="M23 223q0 124 59.5 189.5t172.5 65.5q106 0 161.5 -60t55.5 -175q0 -124 -59.5 -189t-172.5 -65q-106 0 -161.5 60t-55.5 174zM65 581v13l74 99l14 5q25 -3 83 -19t71 -16q7 0 13 2.5t13.5 9.5t11.5 11t14 16t13 16h14l46 -46v-13l-74 -99l-14 -6q-24 3 -82.5 19 t-71.5 16q-5 0 -9.5 -1.5t-9.5 -4.5t-8.5 -6t-9 -9t-9 -10t-10 -11.5t-9.5 -11.5h-14zM171 252q0 -90 17.5 -124.5t62.5 -34.5q39 0 55.5 26.5t16.5 93.5q0 89 -17.5 123.5t-61.5 34.5q-40 0 -56.5 -26.5t-16.5 -92.5z" />
<glyph unicode="&#xf7;" d="M23 216l8 95h423l10 -10l-8 -96h-423zM183 90q0 34 19.5 53.5t53.5 19.5q31 0 48.5 -17.5t17.5 -49.5q0 -34 -19.5 -54t-52.5 -20q-67 0 -67 68zM183 423q0 34 19.5 53.5t53.5 19.5q31 0 48.5 -17.5t17.5 -49.5q0 -34 -19.5 -54t-52.5 -20q-67 0 -67 68z" />
<glyph unicode="&#xf8;" horiz-adv-x="495" d="M9 -71l69 120q-55 60 -55 174q0 124 59.5 189.5t172.5 65.5q38 0 65 -7l64 109l86 -43l8 -15l-61 -105q55 -60 55 -174q0 -124 -59.5 -189t-172.5 -65q-37 0 -65 7l-72 -125l-90 45zM171 252q0 -90 17.5 -124.5t62.5 -34.5q39 0 55.5 26.5t16.5 93.5q0 89 -17.5 123.5 t-61.5 34.5q-40 0 -56.5 -26.5t-16.5 -92.5z" />
<glyph unicode="&#xf9;" horiz-adv-x="527" d="M49 458l152 12l-2 -285q0 -65 52 -65q35 0 69 30v308l150 12l-9 -338q0 -26 19 -26q10 0 23 4l10 -9l-14 -83q-32 -23 -81 -27q-63 6 -84 79h-11q-56 -58 -117 -76q-75 0 -115 34.5t-39 98.5l2 112zM130 649l57 87l14 1q84 -76 189 -156l-37 -60l-14 -1q-107 58 -206 115 z" />
<glyph unicode="&#xfa;" horiz-adv-x="527" d="M49 458l152 12l-2 -285q0 -65 52 -65q35 0 69 30v308l150 12l-9 -338q0 -26 19 -26q10 0 23 4l10 -9l-14 -83q-32 -23 -81 -27q-63 6 -84 79h-11q-56 -58 -117 -76q-75 0 -115 34.5t-39 98.5l2 112zM153 581q105 80 189 156l14 -1l57 -87l-3 -14q-99 -57 -206 -115l-14 1 z" />
<glyph unicode="&#xfb;" horiz-adv-x="527" d="M49 458l152 12l-2 -285q0 -65 52 -65q35 0 69 30v308l150 12l-9 -338q0 -26 19 -26q10 0 23 4l10 -9l-14 -83q-32 -23 -81 -27q-63 6 -84 79h-11q-56 -58 -117 -76q-75 0 -115 34.5t-39 98.5l2 112zM95 587q62 55 150 145h31q67 -70 150 -145l-39 -59h-15q-77 55 -111 86 q-32 -27 -111 -86h-16z" />
<glyph unicode="&#xfc;" horiz-adv-x="527" d="M49 458l152 12l-2 -285q0 -65 52 -65q35 0 69 30v308l150 12l-9 -338q0 -26 19 -26q10 0 23 4l10 -9l-14 -83q-32 -23 -81 -27q-63 6 -84 79h-11q-56 -58 -117 -76q-75 0 -115 34.5t-39 98.5l2 112zM98 620q0 36 20.5 57t55.5 21q33 0 51.5 -19t18.5 -52q0 -36 -20 -57 t-55 -21q-34 0 -52.5 18.5t-18.5 52.5zM280 620q0 36 20.5 57t55.5 21q33 0 51.5 -19t18.5 -52q0 -36 -20 -57t-55 -21q-34 0 -52.5 18.5t-18.5 52.5z" />
<glyph unicode="&#xfe;" horiz-adv-x="526" d="M56 691l158 11l-5 -301h5q52 52 105 73q88 0 136 -60t48 -167q0 -124 -62.5 -191t-172.5 -67q-29 0 -59 6l2 -180h-154l6 376zM206 210l1 -108q30 -12 55 -12q93 0 93 136q-2 122 -80 122q-34 0 -67 -29z" />
<glyph unicode="&#xff;" horiz-adv-x="457" d="M-19 -96l6 14q110 20 179 82l-171 465l152 6l16 -80l69 -234h9l67 219l18 92h135l-146 -429q-33 -97 -89 -148.5t-163 -83.5l-12 1q-43 41 -70 96zM71 620q0 36 20.5 57t55.5 21q33 0 51.5 -19t18.5 -52q0 -36 -20 -57t-55 -21q-34 0 -52.5 18.5t-18.5 52.5zM253 620 q0 36 20.5 57t55.5 21q33 0 51.5 -19t18.5 -52q0 -36 -20 -57t-55 -21q-34 0 -52.5 18.5t-18.5 52.5z" />
<glyph unicode="&#x152;" horiz-adv-x="877" d="M24 314q0 163 86 253t240 90q39 0 102 -6t90 -6h314l9 -12l-11 -120l-154 6h-113l-2 -130h104l107 3l9 -12l-10 -120l-117 3h-97v-58l2 -78l105 -1l163 6l10 -12l-11 -120h-308q-32 1 -104.5 -5.5t-109.5 -6.5q-145 0 -224.5 85.5t-79.5 240.5zM193 327q0 -116 34 -166.5 t114 -50.5q57 0 76 14q17 12 16 48l-5 294q0 36 -12 46q-18 15 -79 15q-78 0 -111 -46t-33 -154z" />
<glyph unicode="&#x153;" horiz-adv-x="767" d="M21 227q0 121 59 185.5t167 64.5q98 0 146 -63q57 63 154 63q92 0 142 -49.5t50 -138.5q0 -24 -5 -59l-20 -22l-261 -1q6 -52 34.5 -77t85.5 -25q63 0 134 31l12 -9l-23 -112q-68 -26 -140 -26q-108 0 -167 68q-51 -68 -156 -68q-103 0 -157.5 61t-54.5 177zM171 252 q0 -90 17.5 -124.5t62.5 -34.5q39 0 55.5 26.5t16.5 93.5q0 89 -17.5 123.5t-61.5 34.5q-40 0 -56.5 -26.5t-16.5 -92.5zM455 286l146 6l2 14q0 69 -60 69q-73 0 -88 -89z" />
<glyph unicode="&#x178;" horiz-adv-x="573" d="M0 645h171l15 -48l94 -225h11l106 219l20 54h166l-228 -432l-1 -38l6 -175h-162l9 175l-1 35zM122 797q0 36 20.5 57t55.5 21q33 0 51.5 -19t18.5 -52q0 -36 -20 -57t-55 -21q-34 0 -52.5 18.5t-18.5 52.5zM304 797q0 36 20.5 57t55.5 21q33 0 51.5 -19t18.5 -52 q0 -36 -20 -57t-55 -21q-34 0 -52.5 18.5t-18.5 52.5z" />
<glyph unicode="&#x2c6;" horiz-adv-x="388" d="M28 587q64 55 150 145h31q77 -80 150 -145l-39 -59h-15q-68 47 -111 86q-44 -38 -111 -86h-16z" />
<glyph unicode="&#x2dc;" horiz-adv-x="388" d="M10 581v13l74 99l14 5q25 -3 83 -19t71 -16q7 0 13 2.5t13.5 9.5t11.5 11t14 16t13 16h14l46 -46v-13l-74 -99l-14 -6q-24 3 -82.5 19t-71.5 16q-5 0 -9.5 -1.5t-9.5 -4.5t-8.5 -6t-9 -9t-9 -10t-10 -11.5t-9.5 -11.5h-14z" />
<glyph unicode="&#x2000;" horiz-adv-x="457" />
<glyph unicode="&#x2001;" horiz-adv-x="914" />
<glyph unicode="&#x2002;" horiz-adv-x="457" />
<glyph unicode="&#x2003;" horiz-adv-x="914" />
<glyph unicode="&#x2004;" horiz-adv-x="304" />
<glyph unicode="&#x2005;" horiz-adv-x="228" />
<glyph unicode="&#x2006;" horiz-adv-x="152" />
<glyph unicode="&#x2007;" horiz-adv-x="152" />
<glyph unicode="&#x2008;" horiz-adv-x="114" />
<glyph unicode="&#x2009;" horiz-adv-x="182" />
<glyph unicode="&#x200a;" horiz-adv-x="50" />
<glyph unicode="&#x2010;" horiz-adv-x="302" d="M26 193v98l237 36l12 -11v-98l-237 -37z" />
<glyph unicode="&#x2011;" horiz-adv-x="302" d="M26 193v98l237 36l12 -11v-98l-237 -37z" />
<glyph unicode="&#x2012;" horiz-adv-x="302" d="M26 193v98l237 36l12 -11v-98l-237 -37z" />
<glyph unicode="&#x2013;" horiz-adv-x="460" d="M-15 216l8 96h472l10 -11l-8 -96h-472z" />
<glyph unicode="&#x2014;" horiz-adv-x="869" d="M-18 216l8 96h887l10 -11l-7 -96h-888z" />
<glyph unicode="&#x2018;" horiz-adv-x="226" d="M34 474q0 84 101 179l54 -35l3 -10q-40 -44 -40 -87q0 -52 41 -78v-12q-53 -40 -101 -60q-58 35 -58 103z" />
<glyph unicode="&#x2019;" horiz-adv-x="226" d="M35 582v12q52 40 100 60q58 -35 58 -103q0 -84 -101 -179l-54 35l-2 10q40 44 40 87q0 51 -41 78z" />
<glyph unicode="&#x201a;" horiz-adv-x="228" d="M6 -77q56 46 56 102q0 37 -32 66v14q60 33 116 48q46 -40 46 -94q0 -98 -134 -192l-50 44z" />
<glyph unicode="&#x201c;" horiz-adv-x="404" d="M32 474q0 84 101 179l54 -35l2 -10q-40 -44 -40 -87q0 -51 41 -78v-12q-52 -40 -100 -60q-58 35 -58 103zM214 474q0 84 101 179l54 -35l2 -10q-40 -44 -40 -87q0 -51 41 -78v-12q-52 -40 -100 -60q-58 35 -58 103z" />
<glyph unicode="&#x201d;" horiz-adv-x="399" d="M34 582v12q52 40 100 60q58 -35 58 -103q0 -84 -101 -179l-54 35l-2 10q40 44 40 87q0 51 -41 78zM208 582v12q52 40 100 60q58 -35 58 -103q0 -84 -101 -179l-54 35l-2 10q40 44 40 87q0 51 -41 78z" />
<glyph unicode="&#x201e;" horiz-adv-x="410" d="M6 -77q56 46 56 102q0 37 -32 66v14q60 33 116 48q46 -40 46 -94q0 -98 -134 -192l-50 44zM188 -77q55 46 55 102q0 37 -32 66l1 14q60 33 115 48q46 -40 46 -94q0 -98 -134 -192l-50 44z" />
<glyph unicode="&#x2022;" horiz-adv-x="287" d="M38 246q0 51 29.5 81.5t80.5 30.5q47 0 73.5 -27t26.5 -76q0 -52 -29.5 -82t-79.5 -30q-49 0 -75 26.5t-26 76.5z" />
<glyph unicode="&#x2026;" horiz-adv-x="654" d="M28 72q0 39 23 62.5t62 23.5q37 0 57 -21t20 -58q0 -40 -22.5 -63.5t-61.5 -23.5q-37 0 -57.5 21t-20.5 59zM241 72q0 39 23 62.5t62 23.5q37 0 57 -21t20 -58q0 -40 -22.5 -63.5t-61.5 -23.5q-37 0 -57.5 21t-20.5 59zM454 72q0 39 22.5 62.5t61.5 23.5q37 0 57.5 -21 t20.5 -58q0 -40 -23 -63.5t-61 -23.5q-78 0 -78 80z" />
<glyph unicode="&#x202f;" horiz-adv-x="182" />
<glyph unicode="&#x2039;" horiz-adv-x="250" d="M23 215v23l131 181l74 -39l3 -15l-94 -136l94 -136l-3 -15l-74 -39z" />
<glyph unicode="&#x203a;" horiz-adv-x="252" d="M24 95l94 137l-94 136l3 14l74 39l131 -175v-24l-131 -181l-74 39z" />
<glyph unicode="&#x205f;" horiz-adv-x="228" />
<glyph unicode="&#x20ac;" horiz-adv-x="459" d="M2 169l4 66h350l6 -8l-4 -65h-121q24 -50 87 -50q51 0 102 21l13 -8l-12 -116q-50 -17 -112 -17q-206 0 -244 170h-64zM2 278l4 65h70q23 84 86.5 128.5t161.5 44.5q66 0 127 -23l-24 -117l-10 -6q-47 25 -99 25q-65 0 -85 -52h123l6 -7l-4 -66h-351z" />
<glyph unicode="&#x2122;" horiz-adv-x="593" d="M22 587l5 56h192l4 -5l-4 -57l-52 3h-6l-3 -102l4 -78h-78l4 70l-1 110h-7l-53 -3zM250 404l26 239h91l7 -34l24 -81h5l26 78l9 37h90l20 -239h-69l-2 73l-5 54h-5l-42 -105h-59l-36 105h-4l-6 -47l-4 -80h-66z" />
<glyph unicode="&#x25fc;" horiz-adv-x="470" d="M0 0v470h470v-470h-470z" />
</font>
</defs>
</svg>
