<?xml version="1.0" standalone="no"?>
<!DOCTYPE svg PUBLIC "-//W3C//DTD SVG 1.1//EN" "http://www.w3.org/Graphics/SVG/1.1/DTD/svg11.dtd" >
<svg xmlns="http://www.w3.org/2000/svg">
<metadata></metadata>
<defs>
<font id="alegreya_sansbold" horiz-adv-x="295" >
<font-face units-per-em="1000" ascent="800" descent="-200" />
<missing-glyph horiz-adv-x="151" />
<glyph unicode="&#xa8;I" d="M8 795q0 31 17.5 49t48.5 18q29 0 45 -16.5t16 -45.5q0 -32 -17.5 -50t-48.5 -18q-29 0 -45 16.5t-16 46.5zM78 0l8 192l-8 452h138l-7 -440l6 -204h-137zM161 795q0 31 17.5 49t48.5 18q29 0 45 -16.5t16 -45.5q0 -32 -17.5 -50t-48.5 -18q-29 0 -45 16.5t-16 46.5z" />
<glyph unicode="&#xa8;O" horiz-adv-x="643" d="M28 314q0 163 79.5 251t225.5 88q135 0 208.5 -82.5t73.5 -234.5q0 -166 -79 -256t-225 -90q-136 0 -209.5 84.5t-73.5 239.5zM169 332q0 -128 35.5 -182.5t117.5 -54.5q79 0 115.5 50t36.5 164q0 127 -36 180.5t-118 53.5q-80 0 -115.5 -49.5t-35.5 -161.5zM173 795 q0 31 17.5 49t48.5 18q29 0 45 -16.5t16 -45.5q0 -32 -17.5 -50t-48.5 -18q-29 0 -45 16.5t-16 46.5zM347 795q0 31 17.5 49t48.5 18q29 0 45 -16.5t16 -45.5q0 -32 -17.5 -50t-48.5 -18q-29 0 -45 16.5t-16 46.5z" />
<glyph unicode="&#xb4;Y" horiz-adv-x="558" d="M4 644h143l15 -45l109 -245h9l122 241l18 49h140l-225 -425l-2 -40l6 -179h-136l8 179l-1 36zM171 776q121 61 208 113l12 -3l34 -79l-4 -12q-92 -36 -215 -78l-13 4z" />
<glyph unicode="&#xa8;i" horiz-adv-x="254" d="M-10 616q0 31 17.5 49t48.5 18q29 0 45 -16.5t16 -45.5q0 -32 -17.5 -50t-48.5 -18q-29 0 -45 16.5t-16 46.5zM60 0l7 192l-6 264l133 11l-8 -262l7 -205h-133zM143 616q0 31 17.5 49t48.5 18q29 0 45 -16.5t16 -45.5q0 -32 -17.5 -50t-48.5 -18q-29 0 -45 16.5t-16 46.5 z" />
<glyph unicode="&#xa8;o" horiz-adv-x="494" d="M29 223q0 122 57.5 186.5t166.5 64.5q102 0 156 -60t54 -173q0 -122 -57.5 -186.5t-166.5 -64.5q-102 0 -156 60t-54 173zM99 616q0 31 17.5 49t48.5 18q29 0 45 -16.5t16 -45.5q0 -32 -17.5 -50t-48.5 -18q-29 0 -45 16.5t-16 46.5zM154 249q0 -92 22.5 -131t72.5 -39 q48 0 69 31.5t21 103.5q0 91 -22 130.5t-72 39.5q-47 0 -69 -32t-22 -103zM273 616q0 31 17.5 49t48.5 18q29 0 45 -16.5t16 -45.5q0 -32 -17.5 -50t-48.5 -18q-29 0 -45 16.5t-16 46.5z" />
<glyph unicode="&#xb4;y" horiz-adv-x="447" d="M-20 -111l5 14q118 20 185 97l-170 462l128 6l15 -74l82 -259h9l81 247l16 83h116l-151 -433q-33 -94 -88.5 -144.5t-157.5 -79.5l-10 1q-36 33 -60 80zM131 571q116 93 181 153l13 -1l48 -72l-2 -13q-146 -89 -195 -118l-13 1z" />
<glyph unicode="&#xfb01;" horiz-adv-x="597" d="M26 388l7 73h66v38q0 106 53.5 156t166.5 50q57 0 134 -18l-15 -103l-13 -7q-74 34 -121 34q-40 0 -58.5 -20t-19.5 -64l-1 -66h236l73 10l8 -5l-8 -261l7 -205h-132l7 192l-4 189h-188l-3 -176l7 -205h-133l8 193l-2 188h-70z" />
<glyph unicode="&#xfb02;" horiz-adv-x="612" d="M26 388l6 73h67l-1 52q-1 96 55.5 146.5t160.5 50.5q62 0 127 -16l107 8l-8 -497l7 -205h-133l7 193l-5 399q-61 24 -109 24q-81 0 -82 -83l-1 -72h114l4 -7l-7 -73h-112l-2 -177l7 -204h-133l7 192l-2 189h-70z" />
<glyph horiz-adv-x="1000" />
<glyph horiz-adv-x="1000" />
<glyph unicode="&#xd;" horiz-adv-x="1000" />
<glyph unicode=" "  horiz-adv-x="151" />
<glyph unicode="&#x09;" horiz-adv-x="151" />
<glyph unicode="&#xa0;" horiz-adv-x="151" />
<glyph unicode="!" horiz-adv-x="264" d="M51 62q0 33 19.5 53t53.5 20q31 0 48.5 -18t17.5 -50q0 -34 -19 -54t-52 -20q-68 0 -68 69zM76 644l12 15l105 7l16 -16l-36 -413l-76 -10l-13 13z" />
<glyph unicode="&#x22;" horiz-adv-x="354" d="M55 635l103 7l7 -9l-35 -220l-62 -9l-11 9zM205 635l102 7l8 -9l-35 -220l-63 -9l-10 9z" />
<glyph unicode="#" horiz-adv-x="549" d="M20 184l6 68h101l20 104h-86l-8 9l6 68h103l27 140h74l9 -10l-25 -130h101l27 140h74l9 -10l-25 -130h87l9 -9l-7 -68h-104l-20 -104h90l8 -9l-7 -68h-106l-28 -143h-77l-7 9l26 134h-100l-28 -143h-77l-6 9l26 134h-84zM212 252h100l21 104h-101z" />
<glyph unicode="$" horiz-adv-x="450" d="M38 22l17 118l13 9q33 -30 74 -48t73 -18q28 0 45.5 14t17.5 35t-23.5 36.5t-57 29t-66.5 30t-56.5 48t-23.5 75.5q0 58 39.5 100.5t108.5 55.5l8 138h76l12 -12l-8 -123q54 -4 103 -23l-19 -112l-18 -5q-64 48 -117 48q-28 0 -44 -13.5t-16 -32.5q0 -20 23.5 -36 t56.5 -29t66 -29.5t56.5 -48t23.5 -74.5q0 -57 -38 -101.5t-111 -57.5l-8 -132h-77l-11 11l8 118q-67 5 -127 29z" />
<glyph unicode="%" horiz-adv-x="854" d="M31 462q0 91 42.5 139.5t121.5 48.5q72 0 110 -45t38 -130q0 -91 -41.5 -139.5t-120.5 -48.5q-73 0 -111.5 45t-38.5 130zM115 469q0 -102 72 -102q73 0 73 97q0 51 -18 74.5t-56 23.5q-71 0 -71 -93zM145 -44l467 730l54 -33l8 -19l-466 -726l-57 34zM510 169 q0 92 42.5 140.5t121.5 48.5q72 0 110 -45.5t38 -129.5q0 -92 -41.5 -140.5t-120.5 -48.5q-73 0 -111.5 45t-38.5 130zM594 176q0 -101 72 -101q73 0 73 96q0 99 -74 99q-37 0 -54 -22.5t-17 -71.5z" />
<glyph unicode="&#x26;" horiz-adv-x="711" d="M42 172q0 110 114 165v7q-66 69 -66 144t54.5 118.5t155.5 43.5q88 0 163 -30l-30 -97h-17q-61 35 -120 35q-90 0 -90 -77q0 -46 56 -94l210 -190q10 29 10 66q0 44 -17 83h-61l-6 8l9 85h289l8 -9l-9 -84h-135l-3 -9q12 -46 12 -90q0 -64 -24 -115l131 -118v-8 q-32 -36 -72 -59h-9l-114 103q-76 -59 -198 -59q-110 0 -175.5 48.5t-65.5 132.5zM156 194q0 -53 37.5 -82t102.5 -29q69 0 114 31l-198 179q-56 -39 -56 -99z" />
<glyph unicode="'" horiz-adv-x="205" d="M55 635l103 7l7 -9l-35 -220l-62 -9l-11 9z" />
<glyph unicode="(" d="M70 253q1 153 39 249t123 159h11l48 -41v-11q-60 -54 -87 -138t-27 -217q0 -126 27 -206.5t87 -135.5v-11l-48 -40h-11q-85 62 -123 154.5t-39 237.5z" />
<glyph unicode=")" d="M4 -88q60 55 86.5 138.5t27.5 216.5q-1 127 -27.5 207.5t-86.5 134.5v11l47 41h12q85 -62 123 -155t39 -238q-1 -152 -39 -248.5t-123 -158.5h-12l-47 40v11z" />
<glyph unicode="*" horiz-adv-x="383" d="M27 586q-1 35 10 78l10 3l102 -67l-6 -42l-10 -4zM46 444l1 9l92 82l38 -19l1 -11l-60 -96q-24 7 -72 35zM159 729q37 13 78 13l4 -8l-29 -123l-42 -5l-7 7zM196 508l30 28l11 -1l68 -92q-17 -25 -55 -56l-9 2zM223 592l4 9l105 40q21 -33 36 -71l-6 -6l-120 -10z" />
<glyph unicode="+" horiz-adv-x="480" d="M23 224l7 81h165v166l81 7l10 -10v-163h162l9 -9l-7 -81h-164v-165l-81 -6l-10 8v163h-163z" />
<glyph unicode="," horiz-adv-x="229" d="M23 -79q55 46 55 98q0 34 -32 60l1 11q46 28 96 42q45 -36 45 -86q0 -87 -121 -173l-43 38z" />
<glyph unicode="-" horiz-adv-x="304" d="M27 200v83l238 36l11 -11v-82l-238 -37z" />
<glyph unicode="." horiz-adv-x="229" d="M44 62q0 33 19.5 53t53.5 20q31 0 48.5 -18t17.5 -50q0 -34 -19 -54t-52 -20q-68 0 -68 69z" />
<glyph unicode="/" horiz-adv-x="284" d="M-1 -104l206 784h90l11 -12l-207 -783h-92z" />
<glyph unicode="0" horiz-adv-x="521" d="M39 242q0 129 60.5 200t170.5 71q102 0 157.5 -66t55.5 -187q0 -128 -60 -198.5t-170 -70.5q-102 0 -158 66t-56 185zM142 251q0 -143 119 -143t119 137q0 145 -120 145q-60 0 -89 -33.5t-29 -105.5z" />
<glyph unicode="1" horiz-adv-x="360" d="M8 337v107l234 67l19 -14l-8 -289l7 -208h-135l6 194v166l-113 -30z" />
<glyph unicode="2" horiz-adv-x="471" d="M39 3v81l135 133q94 96 94 137q0 20 -15 32t-42 12q-66 0 -132 -59h-15l-22 103q103 69 200 69q69 0 113 -32.5t44 -89.5q0 -80 -112 -200l-75 -83l2 -4h135l90 8l8 -9l-16 -107l-121 6h-227l-37 -2z" />
<glyph unicode="3" horiz-adv-x="431" d="M23 454q86 59 181 59q78 0 126 -38t48 -99q0 -93 -95 -145v-5q109 -31 109 -133q0 -84 -69.5 -136t-181.5 -52q-53 0 -108 10l-7 103l9 9q59 -21 111 -21q56 0 87.5 22t31.5 62q0 68 -91 71h-70l-7 9l4 91l44 2q38 1 68 24.5t30 59.5q0 27 -18 42t-50 15q-52 0 -118 -47 h-14z" />
<glyph unicode="4" horiz-adv-x="503" d="M21 65v84l245 357h122l-3 -348h83l8 -12l-6 -93l-83 2l5 -135l-7 -9l-104 -7l-7 8l3 144h-160l-87 -3zM135 158h144v197h-9z" />
<glyph unicode="5" horiz-adv-x="432" d="M19 19l9 9q66 -23 119 -23q55 0 87 25.5t32 67.5q0 34 -23 53.5t-75 28.5l-96 17l-9 11l5 285l16 15l58 -2h146l104 5l8 -8l-14 -103l-10 -10l-91 10h-116l-3 -112l62 -13q87 -18 125.5 -56.5t38.5 -102.5q0 -95 -71 -154t-185 -59q-52 0 -110 12z" />
<glyph unicode="6" horiz-adv-x="483" d="M33 215q0 122 76 221t215 160h7l91 -59v-13q-105 -40 -163.5 -82t-83.5 -100l8 -9q45 28 101 28q77 0 121.5 -49.5t44.5 -124.5q0 -83 -56 -140t-156 -57q-99 0 -152 59.5t-53 165.5zM154 217q0 -71 20.5 -105.5t69.5 -34.5q41 0 63.5 24.5t22.5 69.5q0 97 -85 97 q-44 0 -91 -30v-21z" />
<glyph unicode="7" horiz-adv-x="432" d="M15 397l9 112l112 -3h221l49 2v-98l-165 -360l-56 -150l-107 30l-8 21l209 444h-165l-91 -9z" />
<glyph unicode="8" horiz-adv-x="493" d="M41 142q0 93 110 143v6q-91 50 -91 139q0 76 54 120.5t144 44.5q81 0 126.5 -39t45.5 -107q0 -80 -88 -137v-6q49 -24 77 -55.5t28 -84.5q0 -81 -58.5 -128t-155.5 -47q-91 0 -141.5 42t-50.5 109zM152 159q0 -36 24.5 -57.5t67.5 -21.5q44 0 68.5 21.5t24.5 54.5 q0 34 -25 53.5t-77 40.5q-40 -15 -61.5 -35t-21.5 -56zM169 434q0 -33 23 -52.5t66 -36.5q32 18 50 38t18 51q0 32 -20.5 50.5t-56.5 18.5q-38 0 -59 -18.5t-21 -50.5z" />
<glyph unicode="9" horiz-adv-x="483" d="M33 319q0 83 56 140t156 57q99 0 152 -59.5t53 -165.5q0 -122 -76 -221t-215 -160h-7l-91 59v13q105 40 163.5 82t83.5 100l-8 9q-45 -28 -101 -28q-77 0 -121.5 49.5t-44.5 124.5zM153 335q0 -97 85 -97q44 0 91 30v21q0 71 -20.5 105.5t-69.5 34.5q-41 0 -63.5 -24.5 t-22.5 -69.5z" />
<glyph unicode=":" horiz-adv-x="229" d="M40 62q0 33 19.5 53t52.5 20q32 0 49.5 -18t17.5 -50q0 -34 -19.5 -54t-52.5 -20q-32 0 -49.5 18t-17.5 51zM40 325q0 33 19.5 53t52.5 20q32 0 49.5 -18t17.5 -50q0 -34 -19.5 -54t-52.5 -20q-32 0 -49.5 18t-17.5 51z" />
<glyph unicode=";" horiz-adv-x="229" d="M18 -79q56 47 56 98q0 33 -32 60v11q45 27 96 42q45 -36 45 -86q0 -87 -121 -173l-43 38zM40 325q0 33 19.5 53t52.5 20q32 0 49.5 -18t17.5 -50q0 -34 -19.5 -54t-52.5 -20q-32 0 -49.5 18t-17.5 51z" />
<glyph unicode="&#x3c;" horiz-adv-x="480" d="M34 206v108l9 12l373 145l29 -76l-6 -10l-311 -118v-7l312 -114l-19 -74l-12 -9z" />
<glyph unicode="=" horiz-adv-x="480" d="M23 130l7 81h418l9 -9l-7 -81h-418zM23 318l7 81h418l9 -9l-7 -81h-418z" />
<glyph unicode="&#x3e;" horiz-adv-x="480" d="M35 395l29 76l373 -145l9 -12v-108l-375 -143l-12 9l-19 74l312 114v7l-311 118z" />
<glyph unicode="?" horiz-adv-x="340" d="M47 588l24 74l13 7q132 -8 203 -49t71 -113q0 -86 -91 -138l-72 -43l-2 -5l6 -85l-93 -12l-9 9l-10 120l5 10l90 46q56 30 56 77q0 40 -43 61.5t-139 27.5zM85 62q0 33 19.5 53t53.5 20q31 0 48.5 -18t17.5 -50q0 -34 -19 -54t-52 -20q-68 0 -68 69z" />
<glyph unicode="@" horiz-adv-x="844" d="M28 185q0 196 123 323t322 127q159 0 254.5 -87.5t95.5 -235.5t-98 -229t-279 -84l22 157h-12q-60 -102 -119 -163h-18q-101 38 -101 160q0 103 60.5 192.5t172.5 116.5h6l77 -20l72 22l10 -6l-47 -346l-1 -21q79 12 123.5 69.5t44.5 146.5q0 114 -75.5 181t-203.5 63 q-153 -3 -246.5 -101t-93.5 -249q0 -158 103.5 -247t276.5 -89l5 -13l-36 -62q-200 1 -319 105.5t-119 289.5zM326 195q0 -85 26 -85q11 0 31 23t50 76t60 123l2 15v4l-64 20q-49 0 -77 -49t-28 -127z" />
<glyph unicode="A" horiz-adv-x="600" d="M8 0l218 644h161l197 -644h-138l-16 84l-17 60l-126 3l-111 -3l-17 -53l-17 -91h-134zM211 249l86 -2l87 2l-76 268h-9z" />
<glyph unicode="B" horiz-adv-x="579" d="M78 0l7 192l-7 452l229 1q99 0 154 -41.5t55 -119.5q0 -108 -98 -150q129 -30 129 -152q0 -187 -293 -187q-86 0 -176 5zM205 204l3 -108q35 -4 69 -4q63 0 97.5 25t34.5 72q0 71 -92 88l-111 -2zM208 372l94 -3q75 19 75 97q0 44 -26 62.5t-91 18.5h-49z" />
<glyph unicode="C" horiz-adv-x="517" d="M28 316q0 160 80.5 248t227.5 88q94 0 169 -39l-24 -113l-11 -5q-63 45 -140 45q-159 0 -159 -209q0 -226 163 -226q80 0 148 43l12 -7l-11 -115q-76 -35 -160 -35q-144 0 -219.5 84t-75.5 241z" />
<glyph unicode="D" horiz-adv-x="655" d="M78 0l7 192l-7 452l259 4q140 0 215 -78t75 -224q0 -171 -84 -262t-240 -91q-110 0 -225 7zM208 204l3 -99q70 -7 116 -7q159 0 159 217q0 118 -38.5 171.5t-120.5 53.5q-53 0 -113 -5z" />
<glyph unicode="E" horiz-adv-x="509" d="M78 0l7 192l-7 452h408l8 -11l-10 -101l-154 5l-116 -1l-3 -155l111 -2l105 3l8 -10l-9 -101l-114 3l-103 -1l-1 -69l3 -97l113 -1l159 6l8 -11l-9 -101h-404z" />
<glyph unicode="F" horiz-adv-x="456" d="M78 0l7 192l-7 452h383l8 -11l-10 -102l-153 6l-92 -1l-3 -174l90 -1l109 3l9 -10l-10 -101l-119 3l-81 -1l-1 -51l6 -204h-136z" />
<glyph unicode="G" horiz-adv-x="598" d="M28 308q0 167 87.5 255.5t248.5 88.5q105 0 189 -39l-29 -122l-13 -2q-92 53 -170 53q-89 0 -130 -53t-41 -174q0 -118 39.5 -167.5t130.5 -49.5q38 0 85 14l2 55l-2 99l125 10l-3 -88l3 -157q-120 -40 -221 -40q-150 0 -225.5 82t-75.5 235z" />
<glyph unicode="H" horiz-adv-x="696" d="M78 0l7 192l-7 452h138l-5 -265l138 -3l135 3l-5 265h139l-8 -440l6 -204h-137l8 192l-1 75l-146 2l-131 -3l-1 -62l6 -204h-136z" />
<glyph unicode="I" d="M78 0l7 192l-7 452h138l-8 -440l6 -204h-136z" />
<glyph unicode="J" horiz-adv-x="335" d="M6 551l7 93h245l-7 -432l2 -91q0 -84 -44 -135t-153 -92l-41 72v12q62 32 87.5 63.5t25.5 81.5v76l-6 345l-106 -3z" />
<glyph unicode="K" horiz-adv-x="584" d="M77 0l8 192l-8 452h138l-5 -299l180 237l37 62h147l-228 -304q115 -160 247 -312l-2 -15q-62 -15 -133 -23l-16 8q-144 195 -232 333l-2 -127l5 -204h-136z" />
<glyph unicode="L" horiz-adv-x="433" d="M74 0l7 192l-7 452h138l-8 -440l3 -92h216l8 -11l-9 -101h-348z" />
<glyph unicode="M" horiz-adv-x="797" d="M44 0l65 644h156q16 -62 37.5 -129t49 -146.5t41.5 -124.5h9l107 305l29 95h153l58 -644h-120l-10 195l-23 248h-10l-144 -375h-105l-131 375h-9l-25 -235l-14 -208h-114z" />
<glyph unicode="N" horiz-adv-x="695" d="M78 0l7 190l-6 454h146l262 -436h9l-4 430l126 8l-8 -447l5 -199h-146l-262 436h-9l-1 -214l5 -222h-124z" />
<glyph unicode="O" horiz-adv-x="643" d="M28 314q0 163 79.5 251t225.5 88q136 0 209.5 -82.5t73.5 -234.5q0 -166 -79.5 -256t-225.5 -90q-136 0 -209.5 84.5t-73.5 239.5zM169 332q0 -128 35.5 -182.5t117.5 -54.5q80 0 116 50t36 164q0 127 -35.5 180.5t-117.5 53.5q-80 0 -116 -49.5t-36 -161.5z" />
<glyph unicode="P" horiz-adv-x="553" d="M78 0l7 192l-7 452l247 1q101 0 155.5 -51t54.5 -146q0 -110 -71 -176t-192 -66h-64v-2l6 -204h-136zM210 309l92 -4q92 26 92 131t-112 109l-68 -4z" />
<glyph unicode="Q" horiz-adv-x="649" d="M28 314q0 163 79.5 251t225.5 88q136 0 209.5 -82.5t73.5 -236.5q0 -116 -42 -197t-120 -118q131 -80 277 -115l5 -14q-27 -53 -63 -87l-11 -4q-186 69 -329 191h-21q-136 0 -210 84.5t-74 239.5zM169 329q0 -126 36 -180t118 -54q78 0 114.5 51t36.5 165 q0 125 -36 178.5t-118 53.5q-80 0 -115.5 -50t-35.5 -164z" />
<glyph unicode="R" horiz-adv-x="590" d="M78 0l7 192l-7 452l247 1q101 0 156 -49.5t55 -141.5q0 -62 -31.5 -113.5t-88.5 -84.5q78 -124 155 -224l-2 -15q-65 -23 -133 -27l-14 11q-72 124 -117 216h-97v-13l6 -204h-136zM210 322l99 -4q85 29 85 123q0 100 -112 104l-68 -4z" />
<glyph unicode="S" horiz-adv-x="498" d="M31 32l19 126l15 8q40 -35 87.5 -53.5t84.5 -18.5q44 0 68.5 21.5t24.5 51.5t-29 53t-70.5 41t-83 40t-70.5 60.5t-29 91.5q0 86 66 142.5t171 56.5q82 0 163 -33l-22 -117l-20 -8q-72 52 -137 52q-40 0 -64 -21.5t-24 -49.5q0 -24 21 -44t52.5 -34t68 -33t68 -39 t52.5 -55.5t21 -79.5q0 -84 -67 -141.5t-175 -57.5q-95 0 -191 41z" />
<glyph unicode="T" horiz-adv-x="503" d="M15 543l9 101h457l8 -11l-8 -101l-121 6h-40l-5 -334l6 -204h-136l7 192l-5 346h-40l-123 -6z" />
<glyph unicode="U" horiz-adv-x="638" d="M61 644h136l-7 -399q-1 -143 128 -143q130 0 129 136l-7 406h138l-5 -327l-1 -85q1 -115 -67 -178t-195 -63q-122 0 -186 61t-61 175l1 93z" />
<glyph unicode="V" horiz-adv-x="587" d="M10 644h138l16 -85l122 -433h9l140 426l17 92h134l-217 -644h-162z" />
<glyph unicode="W" horiz-adv-x="903" d="M19 644h133l10 -79l114 -425h9l109 347l-46 157h138l15 -93l116 -411h9l130 416l16 88h126l-212 -644h-142l-96 308h-9l-97 -308h-143z" />
<glyph unicode="X" horiz-adv-x="610" d="M13 0l206 318l-204 326h163l30 -65l101 -157l104 162l28 60h143l-194 -307l208 -337h-163l-30 64l-107 167l-116 -174l-29 -57h-140z" />
<glyph unicode="Y" horiz-adv-x="558" d="M4 644h144l14 -45l109 -245h10l121 241l19 49h140l-226 -425l-2 -40l6 -179h-136l8 179l-2 38z" />
<glyph unicode="Z" horiz-adv-x="547" d="M30 -4v97l323 447h-204l-109 -9l-6 7l10 107l404 -1l62 1v-99l-320 -443h216l109 9l5 -8l-11 -107l-145 3h-257z" />
<glyph unicode="[" d="M80 -116l7 377l-7 377l209 10l6 -7v-60l-107 -14v-613l107 -13v-61l-6 -6z" />
<glyph unicode="\" horiz-adv-x="284" d="M-10 668l11 12h89l207 -784l-9 -11h-92z" />
<glyph unicode="]" d="M-1 -59l107 13v614l-107 13v60l6 7l210 -10l-7 -377l7 -377l-210 -10l-6 7v60z" />
<glyph unicode="^" horiz-adv-x="441" d="M17 140l144 349l13 7h107l144 -350l-9 -11l-75 -18l-113 286h-7l-118 -286l-11 -5z" />
<glyph unicode="_" horiz-adv-x="444" d="M-15 -163l7 74h459l8 -9l-7 -75h-458z" />
<glyph unicode="`" horiz-adv-x="389" d="M74 651l48 72l12 1q73 -67 181 -153l-32 -50l-12 -1q-78 45 -195 118z" />
<glyph unicode="a" horiz-adv-x="481" d="M30 130q0 97 103 117l153 29v41q0 65 -64 65q-60 0 -143 -58l-10 6l-15 88q88 56 190 56q77 0 120.5 -34.5t43.5 -96.5q0 -17 -5.5 -111.5t-5.5 -110.5q0 -30 23 -30q10 0 26 4l10 -8l-12 -70q-32 -21 -73 -25q-63 6 -77 73h-7q-50 -53 -103 -74q-72 1 -113 38t-41 101z M148 144q0 -26 14 -40.5t39 -14.5q39 0 82 46l2 74l-106 -23q-31 -7 -31 -42z" />
<glyph unicode="b" horiz-adv-x="522" d="M64 1l8 190l-7 501l133 10l-4 -303h5q55 51 112 72q88 0 135 -59.5t47 -165.5q0 -123 -61.5 -189.5t-168.5 -66.5q-51 0 -112 23l-71 -25zM191 208l2 -113q37 -18 69 -18q107 0 106 150q-2 137 -89 137q-41 0 -86 -42z" />
<glyph unicode="c" horiz-adv-x="385" d="M29 227q0 116 59 181.5t164 65.5q70 0 123 -25l-22 -106l-11 -5q-51 28 -91 28q-46 0 -71 -33t-25 -94q0 -70 27 -107t77 -37q45 0 100 25l10 -8l-13 -103q-60 -19 -123 -19q-96 0 -150 62.5t-54 174.5z" />
<glyph unicode="d" horiz-adv-x="525" d="M28 229q0 118 62 181t172 63q30 0 64 -6l-2 225l132 10l-8 -497l2 -84q1 -30 22 -30q10 0 27 4l9 -8l-12 -70q-32 -21 -73 -25q-64 6 -81 70h-8q-49 -45 -100 -69q-99 0 -152.5 62.5t-53.5 173.5zM152 249q3 -152 95 -152q43 0 81 41l2 55l-3 172q-39 18 -74 18 q-102 0 -101 -134z" />
<glyph unicode="e" horiz-adv-x="471" d="M29 230q0 113 62 178t168 65q87 0 134 -48.5t47 -134.5q0 -27 -4 -55l-19 -19l-265 -1q8 -126 124 -126q65 0 134 36l11 -7l-18 -98q-70 -30 -140 -30q-111 0 -172.5 64t-61.5 176zM155 288l168 5l2 12q0 81 -71 81q-80 0 -99 -98z" />
<glyph unicode="f" horiz-adv-x="329" d="M26 388l7 73h67l-1 55q0 90 53.5 139t150.5 49q41 0 87 -9l-9 -99l-9 -6q-47 20 -82 20q-62 0 -63 -71l-1 -78h113l4 -7l-6 -73h-113l-3 -176l7 -205h-133l8 193l-2 188h-70z" />
<glyph unicode="g" horiz-adv-x="500" d="M46 -60q31 43 83 75v5q-72 26 -72 91q27 33 68 61v5q-73 40 -73 129q0 78 54 122t147 44q54 0 98 -18q72 13 147 40l10 -9v-83q-27 -7 -77 -15l-2 -4q15 -30 15 -67q0 -75 -54.5 -119.5t-147.5 -44.5q-28 0 -58 5q-15 -15 -15 -26q0 -18 30.5 -26.5t73.5 -13t86.5 -13.5 t74 -36.5t30.5 -72.5q0 -71 -64.5 -117.5t-164.5 -46.5q-91 0 -140 37t-49 98zM154 -59q0 -26 24 -42t70 -16q47 0 75.5 16.5t28.5 45.5q0 10 -4 17.5t-13 13t-18 9t-25 6.5t-27.5 4.5t-31.5 4t-31 4.5q-48 -33 -48 -63zM167 313q0 -81 79 -81q83 0 83 82q0 76 -78 76 q-84 0 -84 -77z" />
<glyph unicode="h" horiz-adv-x="531" d="M65 0l7 193l-6 499l133 10l-5 -303h6q55 50 120 72q76 0 116 -34.5t38 -99.5l-3 -133l6 -204h-134l8 290q1 35 -15.5 54.5t-47.5 19.5q-45 0 -95 -42l-2 -117l7 -205h-133z" />
<glyph unicode="i" horiz-adv-x="254" d="M59 620q0 33 19.5 53t53.5 20q31 0 48.5 -18t17.5 -50q0 -34 -19 -54t-52 -20q-68 0 -68 69zM60 0l7 192l-6 264l133 11l-8 -262l7 -205h-133z" />
<glyph unicode="j" horiz-adv-x="285" d="M1 389l6 72h85l124 7l4 -3l-8 -260l6 -178q0 -79 -38 -131t-125 -91l-47 59v12q46 25 65 59t19 88l1 169l-4 189h-80zM70 620q0 33 19.5 53t53.5 20q31 0 48.5 -18t17.5 -50q0 -34 -19 -54t-52 -20q-68 0 -68 69z" />
<glyph unicode="k" horiz-adv-x="495" d="M65 0l7 193l-6 499l133 10l-8 -497l7 -205h-133zM198 243v9l116 165l24 48h140l-152 -210q50 -79 162 -233v-14q-34 -7 -124 -18l-14 6q-93 132 -152 247z" />
<glyph unicode="l" horiz-adv-x="263" d="M65 0l7 193l-6 499l133 10l-8 -497l7 -205h-133z" />
<glyph unicode="m" horiz-adv-x="804" d="M60 0l7 192l-6 264l126 11v-68h6q57 51 121 72q113 0 144 -75h5q59 53 130 75q76 0 115.5 -34.5t38.5 -99.5l-3 -133l5 -204h-132l7 290q2 74 -62 74q-45 0 -95 -41l-2 -119l5 -204h-132l8 290q0 74 -64 74q-45 0 -96 -42v-117l6 -205h-132z" />
<glyph unicode="n" horiz-adv-x="527" d="M60 0l7 192l-6 264l127 11v-68h6q57 51 121 72q76 0 115.5 -34.5t38.5 -99.5l-3 -133l5 -204h-133l8 290q0 74 -63 74q-45 0 -96 -43v-116l6 -205h-133z" />
<glyph unicode="o" horiz-adv-x="494" d="M29 223q0 122 58 186.5t167 64.5q102 0 156 -60t54 -173q0 -122 -58 -186.5t-167 -64.5q-102 0 -156 60t-54 173zM154 249q0 -92 22 -131t72 -39q48 0 69.5 31.5t21.5 103.5q0 91 -22.5 130.5t-71.5 39.5q-48 0 -69.5 -32t-21.5 -103z" />
<glyph unicode="p" horiz-adv-x="515" d="M60 -185l6 377l-6 264l127 11l-1 -68h7q52 49 112 72q88 0 135 -59.5t47 -166.5q0 -123 -61.5 -189t-170.5 -66q-33 0 -67 6l3 -181h-131zM185 205l2 -113q36 -15 69 -15q107 0 106 150q-2 137 -89 137q-41 0 -87 -43z" />
<glyph unicode="q" horiz-adv-x="515" d="M28 227q0 119 61.5 182.5t166.5 63.5q54 0 120 -22l69 22l11 -6l-8 -262l7 -390h-132l6 210v25h-8q-41 -35 -90 -57q-97 0 -150 62.5t-53 171.5zM152 244q3 -147 93 -147q43 0 84 41l1 53l-3 171q-41 21 -75 21q-101 0 -100 -139z" />
<glyph unicode="r" horiz-adv-x="346" d="M60 0l7 192l-6 264l127 11l-1 -91h7q49 90 123 90q8 0 24 -2v-123l-13 -5q-18 7 -37 7q-58 0 -105 -74v-64l7 -205h-133z" />
<glyph unicode="s" horiz-adv-x="384" d="M21 20l15 104l13 8q31 -26 69 -41.5t67 -15.5q27 0 42 13.5t15 32.5q0 20 -21.5 35t-52 27t-60.5 27t-51.5 44.5t-21.5 70.5q0 65 49 106.5t133 41.5q68 0 128 -23l-18 -98l-16 -5q-60 39 -109 39q-24 0 -38 -12.5t-14 -30.5q0 -20 21 -35t51.5 -26.5t61 -26.5t51.5 -44 t21 -69q0 -63 -48 -107.5t-138 -44.5q-72 0 -149 30z" />
<glyph unicode="t" horiz-adv-x="338" d="M12 388l7 73h59v77l121 39l9 -8l-3 -108h119l4 -7l-6 -73h-119l-6 -224q0 -32 12 -45.5t40 -13.5q32 0 67 17l11 -10l-13 -79q-51 -26 -104 -32q-135 14 -135 132l5 83l-1 172h-62z" />
<glyph unicode="u" horiz-adv-x="522" d="M57 456l129 11l-4 -295q0 -71 60 -71q42 0 87 39v316l126 11l-8 -346q0 -30 23 -30q10 0 26 4l10 -8l-12 -70q-32 -21 -73 -25q-63 6 -80 75h-10q-57 -55 -117 -73q-75 0 -115 34.5t-40 99.5l3 118z" />
<glyph unicode="v" horiz-adv-x="444" d="M13 462l124 6l13 -77l70 -266h7l84 259l17 81h116l-156 -465h-143z" />
<glyph unicode="w" horiz-adv-x="698" d="M13 462l121 6l11 -73l57 -261h8l70 254l16 77h129l10 -70l59 -260h8l68 253l16 77h112l-145 -465h-125l-71 299h-9l-83 -299h-131z" />
<glyph unicode="x" horiz-adv-x="461" d="M13 461l142 7l21 -55l64 -104l63 108l25 47h117l-134 -228l140 -232l-140 -10l-23 59l-66 107l-69 -113l-22 -47h-117l135 233z" />
<glyph unicode="y" horiz-adv-x="447" d="M-21 -111l5 14q118 20 185 97l-170 462l128 6l15 -74l83 -259h8l81 247l17 83h115l-151 -433q-33 -94 -88.5 -144.5t-157.5 -79.5l-10 1q-36 33 -60 80z" />
<glyph unicode="z" horiz-adv-x="424" d="M27 -3v78l227 304h-134l-83 -7l-8 9l10 86l99 -2h202l51 1l1 -79l-225 -302h141l85 8l7 -9l-9 -86l-116 2h-184z" />
<glyph unicode="{" d="M36 237v63q69 18 69 79q0 18 -10.5 73.5t-10.5 86.5q0 57 35 87.5t101 30.5q28 0 64 -9l6 -10l-11 -68q-22 5 -36 5q-54 0 -54 -61q0 -21 11.5 -70.5t11.5 -69.5q0 -71 -68 -103v-5q68 -30 68 -101q0 -22 -11.5 -71t-11.5 -70q0 -62 54 -62q14 0 36 5l11 -67l-6 -10 q-30 -9 -64 -9q-66 0 -101 30.5t-35 87.5q0 31 10.5 86t10.5 73q0 61 -69 79z" />
<glyph unicode="|" horiz-adv-x="307" d="M102 -247q1 535 2 1043l92 7l10 -9l-3 -503v-543l-90 -7z" />
<glyph unicode="}" d="M5 -100l11 67q22 -5 35 -5q55 0 55 62q0 21 -11.5 70t-11.5 69q0 73 68 103v5q-68 32 -68 102q0 22 11.5 71t11.5 70q0 62 -55 62q-13 0 -35 -5l-11 67l5 10q32 9 65 9q66 0 100.5 -30.5t34.5 -87.5q0 -31 -10.5 -86t-10.5 -74q0 -61 69 -79v-62q-69 -20 -69 -79 q0 -19 10.5 -74t10.5 -86q0 -57 -34.5 -87.5t-100.5 -30.5q-33 0 -65 9z" />
<glyph unicode="~" horiz-adv-x="480" d="M30 224v12l82 93l12 5q25 -4 107.5 -28.5t100.5 -24.5q6 0 12 2.5t14.5 9.5t13 11t16 16t16.5 17h12l35 -43v-12l-82 -93l-12 -5q-26 4 -108 28t-99 24q-20 0 -65 -48q-5 -5 -7 -8h-13z" />
<glyph unicode="&#xa1;" horiz-adv-x="264" d="M61 -181l36 413l76 10l13 -13l8 -404l-12 -15l-105 -7zM80 402q0 34 19 54t52 20q68 0 68 -69q0 -33 -19.5 -53t-53.5 -20q-31 0 -48.5 18t-17.5 50z" />
<glyph unicode="&#xa2;" horiz-adv-x="383" d="M29 266q0 102 46.5 165.5t130.5 77.5l9 148h83l14 -12l-9 -136q41 -6 72 -21l-22 -106l-11 -5q-51 28 -91 28q-46 0 -71 -33t-25 -94q0 -70 27 -107t77 -37q45 0 100 25l10 -8l-13 -103q-40 -12 -83 -17l-10 -155h-86l-10 11l9 149q-70 17 -108.5 77t-38.5 153z" />
<glyph unicode="&#xa3;" horiz-adv-x="446" d="M18 7l6 72q73 18 73 100l-1 93h-73l-5 7l7 64h71l-1 70q-1 88 52 135t150 47q55 0 115 -16l-8 -95l-8 -6q-61 32 -109 32q-77 0 -77 -77l-1 -90h128l4 -6l-5 -65h-127l-1 -85q0 -63 -38 -93v-4h144l101 7l5 -7l-9 -93l-126 3h-262z" />
<glyph unicode="&#xa4;" horiz-adv-x="435" d="M14 494l57 60h12l63 -69q33 21 76 21q38 0 71 -19l60 69l13 2l60 -57v-12l-69 -62q22 -36 22 -78q0 -35 -20 -72l70 -59l1 -12l-57 -61l-12 1l-61 69q-37 -24 -78 -24q-39 0 -73 21l-59 -69l-12 -1l-61 57l1 13l68 60q-22 35 -22 77q0 38 21 74l-69 59zM136 349 q0 -38 24 -61.5t62 -23.5t62 24t24 61t-24 61.5t-62 24.5t-62 -24t-24 -62z" />
<glyph unicode="&#xa5;" horiz-adv-x="526" d="M28 118l4 54h171l-39 75h-131l-5 8l4 53h100l-102 196h120l12 -36l99 -186h8l108 182l17 40h117l-113 -196h102l6 -5l-5 -56h-138l-43 -75h180l6 -6l-5 -55h-187l4 -111h-114l5 111h-176z" />
<glyph unicode="&#xa6;" horiz-adv-x="307" d="M102 -247l1 397l89 10l11 -12v-400l-90 -7zM103 374v422l93 7l10 -9l-3 -417l-91 -11z" />
<glyph unicode="&#xa7;" horiz-adv-x="431" d="M25 -69l17 105l12 8q70 -59 136 -59q29 0 45.5 14t16.5 32q0 19 -23 36t-55.5 33t-65 35.5t-55.5 51.5t-23 72q0 43 25 81.5t68 61.5q-51 41 -51 97q0 63 53.5 108t134.5 45q67 0 125 -23l-16 -101l-16 -5q-65 43 -111 43q-26 0 -42 -14t-16 -32t23 -35t56 -33 t65.5 -35.5t55.5 -51t23 -71.5q0 -43 -25 -81t-69 -61q52 -42 52 -98q0 -63 -53.5 -107.5t-135.5 -44.5q-78 0 -151 29zM142 290q0 -19 16 -37t33 -28t51 -28q52 25 52 65q0 15 -7 28t-25 26t-29 19.5t-39 21.5q-52 -27 -52 -67z" />
<glyph unicode="&#xa8;" horiz-adv-x="389" d="M45 616q0 31 17.5 49t48.5 18q29 0 45 -16.5t16 -45.5q0 -32 -17.5 -50t-48.5 -18q-29 0 -45 16.5t-16 46.5zM218 616q0 31 17.5 49t48.5 18q29 0 45 -16.5t16 -45.5q0 -32 -17.5 -50t-48.5 -18q-29 0 -45 16.5t-16 46.5z" />
<glyph unicode="&#xa9;" horiz-adv-x="687" d="M43 293q0 137 82.5 221t217.5 84t217.5 -84t82.5 -221t-82.5 -221t-217.5 -84t-217.5 84t-82.5 221zM90 293q0 -116 70 -187.5t183 -71.5t183 71.5t70 187.5t-70 187.5t-183 71.5t-183 -71.5t-70 -187.5zM192 293q0 82 45 127t128 45q43 0 89 -17l-16 -70l-6 -4 q-33 18 -70 18q-77 0 -77 -90q0 -102 81 -102q37 0 72 15l8 -4l-7 -70q-36 -14 -80 -14q-83 0 -125 42.5t-42 123.5z" />
<glyph unicode="&#xaa;" horiz-adv-x="340" d="M25 422q0 69 73 81l99 16l1 21q0 40 -40 40q-37 0 -96 -34l-7 3l-12 67q65 36 133 36q56 0 86.5 -24t30.5 -68q0 -11 -3 -71.5t-3 -67.5q0 -22 13 -22q10 0 16 4l7 -6l-10 -55q-23 -17 -50 -17q-26 0 -38.5 10.5t-19.5 37.5h-4q-32 -37 -72 -49q-48 1 -76 27t-28 71z M118 431q0 -36 33 -36q23 0 45 24l1 52l-54 -10q-25 -5 -25 -30z" />
<glyph unicode="&#xab;" horiz-adv-x="429" d="M18 215v22l136 178l63 -33l2 -13l-104 -141l104 -140l-2 -13l-63 -34zM203 215v22l136 178l63 -33l2 -13l-104 -141l104 -140l-2 -13l-63 -34z" />
<glyph unicode="&#xac;" horiz-adv-x="480" d="M22 224l7 81h397l6 -8v-247l-81 -6l-10 8v163h-310z" />
<glyph unicode="&#xad;" horiz-adv-x="304" d="M27 200v83l238 36l11 -11v-82l-238 -37z" />
<glyph unicode="&#xae;" horiz-adv-x="446" d="M37 517q0 83 51 134t135 51t135 -51t51 -134q0 -85 -51 -136t-135 -51t-135 51t-51 136zM71 517q0 -70 42 -112t111 -42q68 0 110 42t42 112q0 68 -42 110t-110 42q-69 0 -111 -42t-42 -110zM151 425l1 57l-1 138l85 1q33 0 51 -16t18 -45q0 -35 -37 -58q18 -28 49 -66 l-1 -5q-17 -7 -47 -9l-6 4q-20 32 -35 62h-31l2 -63h-48zM198 526l31 -2q25 10 25 32q0 28 -35 29l-20 -1z" />
<glyph unicode="&#xaf;" horiz-adv-x="389" d="M47 586l7 74h280l8 -9l-6 -74h-280z" />
<glyph unicode="&#xb0;" horiz-adv-x="293" d="M16 523q0 55 38 92.5t93 37.5q54 0 91.5 -37.5t37.5 -92.5q0 -54 -37.5 -91.5t-91.5 -37.5q-55 0 -93 37.5t-38 91.5zM74 523q0 -30 20.5 -50.5t51.5 -20.5t51.5 20.5t20.5 50.5q0 31 -20.5 51.5t-51.5 20.5t-51.5 -20.5t-20.5 -51.5z" />
<glyph unicode="&#xb1;" horiz-adv-x="480" d="M23 -107l7 81h418l9 -9l-7 -81h-418zM23 224l7 81h165v166l81 7l9 -10v-163h162l9 -9l-6 -81h-165v-165l-81 -6l-9 8v163h-163z" />
<glyph unicode="&#xb2;" horiz-adv-x="361" d="M33 317v62l94 102q28 32 38.5 45t21 30.5t10.5 30.5q0 14 -10.5 23.5t-29.5 9.5q-46 0 -94 -46h-12l-18 79q77 52 151 52q52 0 86 -25t34 -69q0 -52 -81 -149l-51 -64l2 -2h91l67 4l5 -7l-11 -82l-94 4h-167l-26 -1z" />
<glyph unicode="&#xb3;" horiz-adv-x="321" d="M22 669q60 37 129 37q57 0 91.5 -25.5t34.5 -67.5q0 -59 -61 -91v-4q72 -21 72 -90q0 -53 -49 -86t-129 -33q-39 0 -76 8l-7 74l8 7q39 -11 77 -11q73 0 73 44q0 38 -50 38h-52l-5 7l1 69l31 1q24 1 41.5 14t17.5 33q0 31 -42 31q-31 0 -78 -25h-11z" />
<glyph unicode="&#xb4;" horiz-adv-x="389" d="M74 571q116 93 181 153l13 -1l48 -72l-2 -13q-146 -89 -195 -118l-13 1z" />
<glyph unicode="&#xb5;" horiz-adv-x="522" d="M57 -185l5 377l-5 264l126 11v-311q8 -55 61 -55q41 0 85 39v316l126 11l-8 -342q0 -37 23 -37q8 0 26 7l9 -7l-14 -71q-32 -24 -71 -24q-34 0 -54 16t-32 53h-7q-53 -53 -108 -68q-19 0 -36 3v-182h-126z" />
<glyph unicode="&#xb6;" horiz-adv-x="522" d="M25 432q0 101 63.5 156.5t180.5 55.5h226l9 -11l-9 -92h-67l-5 -344l1 -61q0 -77 -43 -128t-149 -93l-36 60v13q55 30 79 63t24 79v51l-5 361h-45q-40 -6 -61 -35.5t-21 -79.5q0 -98 94 -146l-46 -70q-91 21 -140.5 78t-49.5 143z" />
<glyph unicode="&#xb7;" horiz-adv-x="229" d="M44 250q0 34 19.5 53.5t53.5 19.5q31 0 48.5 -18t17.5 -50q0 -34 -19 -54t-52 -20q-68 0 -68 69z" />
<glyph unicode="&#xb8;" horiz-adv-x="389" d="M109 -173l9 56l6 3q30 -30 59 -30q24 0 24 21q0 11 -17 20l-49 28l23 101h64l-18 -74l34 -19q41 -22 41 -59q0 -33 -26 -54t-68 -21q-45 0 -82 28z" />
<glyph unicode="&#xb9;" horiz-adv-x="276" d="M10 577v83l176 46l15 -11l-5 -242l4 -138h-108l4 126v149l-79 -18z" />
<glyph unicode="&#xba;" horiz-adv-x="347" d="M23 482q0 83 40 126.5t116 43.5q71 0 108 -40.5t37 -118.5q0 -83 -40 -126.5t-116 -43.5q-71 0 -108 40.5t-37 118.5zM121 493q0 -56 12.5 -78.5t41.5 -22.5t41 20t12 69q0 55 -12.5 77.5t-42.5 22.5q-28 0 -40 -20t-12 -68z" />
<glyph unicode="&#xbb;" horiz-adv-x="426" d="M20 89l104 141l-104 140l2 13l63 34l136 -174v-22l-136 -178l-63 33zM204 89l104 141l-104 140l3 13l62 34l136 -174v-22l-136 -178l-62 33z" />
<glyph unicode="&#xbc;" horiz-adv-x="747" d="M10 521v83l176 46l15 -11l-5 -242l4 -138h-108l4 126v149l-79 -18zM65 -44l468 730l54 -33l7 -19l-466 -726l-57 34zM400 93v65l165 228h98l-3 -221h54l6 -9l-5 -72l-53 2l5 -79l-6 -7l-83 -4l-6 5l2 86h-101l-66 -3zM492 165h84l-1 108h-6z" />
<glyph unicode="&#xbd;" horiz-adv-x="773" d="M10 521v83l176 46l15 -11l-5 -242l4 -138h-108l4 126v149l-79 -18zM65 -44l468 730l54 -33l7 -19l-466 -726l-57 34zM445 2v62l94 102q28 32 38.5 45t21 30.5t10.5 30.5q0 14 -10.5 23.5t-29.5 9.5q-46 0 -94 -46h-12l-18 79q77 52 151 52q52 0 86 -25t34 -69 q0 -52 -81 -149l-51 -64l2 -2h91l67 4l5 -7l-11 -82l-94 4h-167l-26 -1z" />
<glyph unicode="&#xbe;" horiz-adv-x="785" d="M22 613q60 37 129 37q57 0 91.5 -25.5t34.5 -67.5q0 -59 -61 -91v-4q72 -21 72 -90q0 -53 -49 -86t-129 -33q-39 0 -76 8l-7 74l8 7q39 -11 77 -11q73 0 73 44q0 38 -50 38h-52l-5 7l1 69l31 1q24 1 41.5 14t17.5 33q0 31 -42 31q-31 0 -78 -25h-11zM103 -44l468 730 l54 -33l7 -19l-466 -726l-57 34zM438 93v65l165 228h98l-3 -221h54l6 -9l-5 -72l-53 2l5 -79l-6 -7l-83 -4l-6 5l2 86h-101l-66 -3zM530 165h84l-1 108h-6z" />
<glyph unicode="&#xbf;" horiz-adv-x="340" d="M-13 -38q0 86 91 138l72 43l2 5l-6 85l93 12l9 -9l10 -120l-5 -10l-90 -46q-56 -30 -56 -77q0 -40 43 -61.5t139 -27.5l9 -13l-24 -74l-13 -7q-132 8 -203 49t-71 113zM121 402q0 34 19 54t52 20q68 0 68 -69q0 -33 -19.5 -53t-53.5 -20q-31 0 -48.5 18t-17.5 50z" />
<glyph unicode="&#xc0;" horiz-adv-x="600" d="M8 0l217 644h162l197 -644h-138l-16 84l-17 60l-126 3l-111 -3l-17 -53l-17 -91h-134zM176 807l33 79l13 3q90 -54 207 -112l-21 -56l-13 -4q-121 41 -215 78zM211 249l85 -2l88 2l-76 268h-9z" />
<glyph unicode="&#xc1;" horiz-adv-x="600" d="M8 0l217 644h162l197 -644h-138l-16 84l-17 60l-126 3l-111 -3l-17 -53l-17 -91h-134zM196 776q121 61 208 113l12 -3l34 -79l-4 -12q-92 -36 -215 -78l-13 4zM211 249l85 -2l88 2l-76 268h-9z" />
<glyph unicode="&#xc2;" horiz-adv-x="600" d="M8 0l217 644h162l197 -644h-138l-16 84l-17 60l-126 3l-111 -3l-17 -53l-17 -91h-134zM154 781q69 46 134 104h27q62 -55 134 -104l-24 -53h-13q-97 55 -110 63q-13 -8 -110 -63h-13zM211 249l85 -2l88 2l-76 268h-9z" />
<glyph unicode="&#xc3;" horiz-adv-x="600" d="M8 0l217 644h162l197 -644h-138l-16 84l-17 60l-126 3l-111 -3l-17 -53l-17 -91h-134zM125 759v11l71 89l12 5q23 -3 82 -19t72 -16q4 0 8.5 1t9 4.5t8 6t9.5 8.5t8.5 9t9.5 11t10 11h12l39 -39v-11l-70 -89l-13 -5q-22 3 -81.5 19t-72.5 16q-6 0 -11.5 -2.5t-12.5 -8.5 t-11 -10.5t-13.5 -15t-13.5 -14.5h-12zM211 249l85 -2l88 2l-76 268h-9z" />
<glyph unicode="&#xc4;" horiz-adv-x="600" d="M8 0l217 644h162l197 -644h-138l-16 84l-17 60l-126 3l-111 -3l-17 -53l-17 -91h-134zM152 795q0 31 17.5 49t48.5 18q29 0 45 -16.5t16 -45.5q0 -32 -17.5 -50t-48.5 -18q-29 0 -45 16.5t-16 46.5zM211 249l85 -2l88 2l-76 268h-9zM325 795q0 31 17.5 49t48.5 18 q29 0 45 -16.5t16 -45.5q0 -32 -17.5 -50t-48.5 -18q-29 0 -45 16.5t-16 46.5z" />
<glyph unicode="&#xc5;" horiz-adv-x="600" d="M8 0l217 644h162l197 -644h-138l-16 84l-17 60l-126 3l-111 -3l-17 -53l-17 -91h-134zM205 808q0 45 25.5 70t72.5 25q46 0 70 -24t24 -67q0 -47 -26.5 -72.5t-72.5 -25.5q-44 0 -68.5 24t-24.5 70zM211 249l85 -2l88 2l-76 268h-9zM260 809q0 -40 41 -40t41 38 q0 39 -42 39q-40 0 -40 -37z" />
<glyph unicode="&#xc6;" horiz-adv-x="822" d="M-18 0l310 644h440l9 -11l-11 -101l-155 5h-88l22 -181l194 50l10 -8l11 -95l-203 -48l18 -149h102l165 6l8 -11l-9 -101h-389l-5 84l-17 137l-212 -56l-35 -74l-30 -91h-135zM240 286l142 37l-24 194h-9z" />
<glyph unicode="&#xc7;" horiz-adv-x="517" d="M28 316q0 160 80.5 248t226.5 88q95 0 170 -39l-25 -113l-10 -5q-63 45 -140 45q-160 0 -160 -209q0 -226 164 -226q80 0 147 43l13 -7l-11 -115q-67 -30 -140 -35l-10 -39l34 -19q41 -22 41 -59q0 -33 -26 -54t-68 -21q-45 0 -82 28l9 56l6 3q30 -30 59 -30q24 0 24 21 q0 11 -17 20l-49 28l16 68q-124 13 -188 95.5t-64 227.5z" />
<glyph unicode="&#xc8;" horiz-adv-x="509" d="M78 0l8 192l-8 452h408l7 -11l-9 -101l-155 5l-115 -1l-2 -156l109 -1l106 3l8 -10l-9 -101l-114 3l-102 -1l-1 -69l3 -97l112 -1l159 6l7 -11l-8 -101h-404zM158 808l34 79l12 3q87 -52 208 -113l-22 -55l-13 -4q-123 42 -215 78z" />
<glyph unicode="&#xc9;" horiz-adv-x="509" d="M78 0l8 192l-8 452h408l7 -11l-9 -101l-155 5l-115 -1l-2 -156l109 -1l106 3l8 -10l-9 -101l-114 3l-102 -1l-1 -69l3 -97l112 -1l159 6l7 -11l-8 -101h-404zM177 776q121 61 208 113l12 -3l34 -79l-4 -12q-92 -36 -215 -78l-13 4z" />
<glyph unicode="&#xca;" horiz-adv-x="509" d="M78 0l8 192l-8 452h408l7 -11l-9 -101l-155 5l-115 -1l-2 -156l109 -1l106 3l8 -10l-9 -101l-114 3l-102 -1l-1 -69l3 -97l112 -1l159 6l7 -11l-8 -101h-404zM134 781q76 53 133 104h28q60 -53 134 -104l-24 -53h-13q-38 21 -110 63l-110 -63h-13z" />
<glyph unicode="&#xcb;" horiz-adv-x="509" d="M78 0l8 192l-8 452h408l7 -11l-9 -101l-155 5l-115 -1l-2 -156l109 -1l106 3l8 -10l-9 -101l-114 3l-102 -1l-1 -69l3 -97l112 -1l159 6l7 -11l-8 -101h-404zM133 795q0 31 17.5 49t48.5 18q29 0 45 -16.5t16 -45.5q0 -32 -17.5 -50t-48.5 -18q-29 0 -45 16.5t-16 46.5z M306 795q0 31 17.5 49t48.5 18q29 0 45 -16.5t16 -45.5q0 -32 -17.5 -50t-48.5 -18q-29 0 -45 16.5t-16 46.5z" />
<glyph unicode="&#xcc;" d="M22 808l34 79l12 3q87 -52 208 -113l-22 -55l-13 -4q-123 42 -215 78zM78 0l8 192l-8 452h138l-7 -440l6 -204h-137z" />
<glyph unicode="&#xcd;" d="M42 776q121 61 208 113l12 -3l34 -79l-4 -12q-92 -36 -215 -78l-13 4zM78 0l8 192l-8 452h138l-7 -440l6 -204h-137z" />
<glyph unicode="&#xce;" d="M-1 781q69 46 134 104h27q62 -55 134 -104l-24 -53h-13q-97 55 -110 63q-13 -8 -110 -63h-13zM78 0l8 192l-8 452h138l-7 -440l6 -204h-137z" />
<glyph unicode="&#xd0;" horiz-adv-x="680" d="M15 284l5 81h88l-5 279h1l259 4q140 0 214.5 -78t74.5 -224q0 -171 -84 -262t-240 -91q-110 0 -224 7h-1l8 192l-1 83h-89zM234 204l3 -99q70 -7 116 -7q158 0 158 217q0 118 -38.5 171.5t-120.5 53.5q-51 0 -113 -5l-2 -170h117l6 -9l-4 -81h-121z" />
<glyph unicode="&#xd1;" horiz-adv-x="695" d="M78 0l8 190l-7 454h146l262 -436h9l-4 430l127 8l-9 -447l5 -199h-146l-262 436h-9l-1 -214l6 -222h-125zM170 759v11l71 89l12 5q23 -3 82 -19t72 -16q4 0 8.5 1t9 4.5t8 6t9.5 8.5t8.5 9t9.5 11t10 11h12l39 -39v-11l-70 -89l-13 -5q-22 3 -81.5 19t-72.5 16 q-6 0 -11.5 -2.5t-12.5 -8.5t-11 -10.5t-13.5 -15t-13.5 -14.5h-12z" />
<glyph unicode="&#xd2;" horiz-adv-x="643" d="M28 314q0 163 79.5 251t225.5 88q135 0 208.5 -82.5t73.5 -234.5q0 -166 -79 -256t-225 -90q-136 0 -209.5 84.5t-73.5 239.5zM169 332q0 -128 35.5 -182.5t117.5 -54.5q79 0 115.5 50t36.5 164q0 127 -36 180.5t-118 53.5q-80 0 -115.5 -49.5t-35.5 -161.5zM198 808 l34 79l12 3q87 -52 208 -113l-22 -55l-13 -4q-123 42 -215 78z" />
<glyph unicode="&#xd3;" horiz-adv-x="643" d="M28 314q0 163 79.5 251t225.5 88q135 0 208.5 -82.5t73.5 -234.5q0 -166 -79 -256t-225 -90q-136 0 -209.5 84.5t-73.5 239.5zM169 332q0 -128 35.5 -182.5t117.5 -54.5q79 0 115.5 50t36.5 164q0 127 -36 180.5t-118 53.5q-80 0 -115.5 -49.5t-35.5 -161.5zM217 776 q121 61 208 113l12 -3l34 -79l-4 -12q-92 -36 -215 -78l-13 4z" />
<glyph unicode="&#xd4;" horiz-adv-x="643" d="M28 314q0 163 79.5 251t225.5 88q135 0 208.5 -82.5t73.5 -234.5q0 -166 -79 -256t-225 -90q-136 0 -209.5 84.5t-73.5 239.5zM169 332q0 -128 35.5 -182.5t117.5 -54.5q79 0 115.5 50t36.5 164q0 127 -36 180.5t-118 53.5q-80 0 -115.5 -49.5t-35.5 -161.5zM175 781 q69 46 134 104h27q62 -55 134 -104l-24 -53h-13q-97 55 -110 63q-13 -8 -110 -63h-13z" />
<glyph unicode="&#xd5;" horiz-adv-x="643" d="M28 314q0 163 79.5 251t225.5 88q135 0 208.5 -82.5t73.5 -234.5q0 -166 -79 -256t-225 -90q-136 0 -209.5 84.5t-73.5 239.5zM146 759v11l71 89l12 5q23 -3 82 -19t72 -16q4 0 8.5 1t9 4.5t8 6t9.5 8.5t8.5 9t9.5 11t10 11h12l39 -39v-11l-70 -89l-13 -5q-22 3 -81.5 19 t-72.5 16q-6 0 -11.5 -2.5t-12.5 -8.5t-11 -10.5t-13.5 -15t-13.5 -14.5h-12zM169 332q0 -128 35.5 -182.5t117.5 -54.5q79 0 115.5 50t36.5 164q0 127 -36 180.5t-118 53.5q-80 0 -115.5 -49.5t-35.5 -161.5z" />
<glyph unicode="&#xd7;" horiz-adv-x="480" d="M62 133v11l115 117l-115 114v14l61 52l117 -117l117 117l62 -52v-14l-115 -114l115 -116v-12l-62 -53l-117 116l-117 -117z" />
<glyph unicode="&#xd8;" horiz-adv-x="643" d="M28 314q0 163 79.5 251t225.5 88q46 0 88 -11l51 106l83 -30l8 -14l-51 -106q103 -80 103 -262q0 -166 -79 -256t-225 -90q-48 0 -85 10l-57 -119l-85 31l-6 12l57 119q-107 83 -107 271zM169 332q0 -128 35.5 -182.5t117.5 -54.5q79 0 115.5 50t36.5 164 q0 127 -36 180.5t-118 53.5q-80 0 -115.5 -49.5t-35.5 -161.5z" />
<glyph unicode="&#xd9;" horiz-adv-x="638" d="M61 644h136l-7 -399q-1 -143 128 -143t128 136l-6 406h137q-1 -47 -2 -130t-1.5 -152t-1.5 -130q1 -115 -67 -178t-195 -63q-122 0 -186 61t-62 175l2 93zM196 808l34 79l12 3q87 -52 208 -113l-22 -55l-13 -4q-123 42 -215 78z" />
<glyph unicode="&#xda;" horiz-adv-x="638" d="M61 644h136l-7 -399q-1 -143 128 -143t128 136l-6 406h137q-1 -47 -2 -130t-1.5 -152t-1.5 -130q1 -115 -67 -178t-195 -63q-122 0 -186 61t-62 175l2 93zM216 776q121 61 208 113l12 -3l34 -79l-4 -12q-92 -36 -215 -78l-13 4z" />
<glyph unicode="&#xdb;" horiz-adv-x="638" d="M61 644h136l-7 -399q-1 -143 128 -143t128 136l-6 406h137q-1 -47 -2 -130t-1.5 -152t-1.5 -130q1 -115 -67 -178t-195 -63q-122 0 -186 61t-62 175l2 93zM173 781q69 46 134 104h27q62 -55 134 -104l-24 -53h-13q-97 55 -110 63q-13 -8 -110 -63h-13z" />
<glyph unicode="&#xdc;" horiz-adv-x="638" d="M61 644h136l-7 -399q-1 -143 128 -143t128 136l-6 406h137q-1 -47 -2 -130t-1.5 -152t-1.5 -130q1 -115 -67 -178t-195 -63q-122 0 -186 61t-62 175l2 93zM172 795q0 15 4.5 27.5t13 21.5t21 13.5t27.5 4.5q29 0 45 -16.5t16 -45.5q0 -32 -17.5 -50t-48.5 -18 q-29 0 -45 16.5t-16 46.5zM346 795q0 20 8 35.5t23 23.5t35 8q29 0 45 -16.5t16 -45.5q0 -32 -17.5 -50t-48.5 -18q-29 0 -45 16.5t-16 46.5z" />
<glyph unicode="&#xde;" horiz-adv-x="561" d="M78 0l7 192l-5 350l-2 102h139l-2 -101h114q103 0 157 -50t54 -148q0 -113 -68.5 -175t-195.5 -62l-64 -1l3 -107h-137zM210 212l94 -4q93 25 93 127q0 55 -27 80.5t-84 27.5l-72 -3z" />
<glyph unicode="&#xdf;" horiz-adv-x="608" d="M26 388l6 73h65v29q0 101 63.5 157.5t169.5 56.5q90 0 137 -39.5t47 -101.5q0 -34 -15.5 -63t-33.5 -45t-33.5 -37.5t-15.5 -43.5q0 -25 19.5 -45t47.5 -35.5t56 -33.5t47.5 -48t19.5 -69q0 -64 -48 -108.5t-136 -44.5q-70 0 -143 30l16 104l12 8q65 -57 127 -57 q26 0 41.5 13t15.5 32q0 17 -14 32.5t-35 27t-46 28t-46 34t-35 45.5t-14 63q0 36 16 63.5t35 42t35 37.5t16 50q0 67 -81 67q-97 0 -98 -105l-5 -301l7 -204h-133l8 190l-3 191h-68z" />
<glyph unicode="&#xe0;" horiz-adv-x="481" d="M30 130q0 97 103 117l153 29v41q0 65 -64 65q-60 0 -143 -58l-10 6l-15 88q89 56 190 56q77 0 120.5 -34.5t43.5 -96.5q0 -17 -5.5 -111.5t-5.5 -110.5q0 -17 5.5 -23.5t18.5 -6.5q10 0 26 4l9 -8l-11 -70q-34 -21 -74 -25q-63 6 -77 73h-7q-50 -53 -102 -74 q-72 1 -113.5 38t-41.5 101zM113 651l48 72l13 1q65 -60 181 -153l-32 -50l-13 -1q-49 29 -195 118zM148 144q0 -26 14 -40.5t39 -14.5q39 0 82 46l2 74l-105 -23q-32 -7 -32 -42z" />
<glyph unicode="&#xe1;" horiz-adv-x="481" d="M30 130q0 97 103 117l153 29v41q0 65 -64 65q-60 0 -143 -58l-10 6l-15 88q89 56 190 56q77 0 120.5 -34.5t43.5 -96.5q0 -17 -5.5 -111.5t-5.5 -110.5q0 -17 5.5 -23.5t18.5 -6.5q10 0 26 4l9 -8l-11 -70q-34 -21 -74 -25q-63 6 -77 73h-7q-50 -53 -102 -74 q-72 1 -113.5 38t-41.5 101zM137 571q116 93 181 153l13 -1l48 -72l-2 -13q-146 -89 -195 -118l-13 1zM148 144q0 -26 14 -40.5t39 -14.5q39 0 82 46l2 74l-105 -23q-32 -7 -32 -42z" />
<glyph unicode="&#xe2;" horiz-adv-x="481" d="M30 130q0 97 103 117l153 29v41q0 65 -64 65q-60 0 -143 -58l-10 6l-15 88q89 56 190 56q77 0 120.5 -34.5t43.5 -96.5q0 -17 -5.5 -111.5t-5.5 -110.5q0 -17 5.5 -23.5t18.5 -6.5q10 0 26 4l9 -8l-11 -70q-34 -21 -74 -25q-63 6 -77 73h-7q-50 -53 -102 -74 q-72 1 -113.5 38t-41.5 101zM79 577q57 52 141 141h29q78 -86 140 -141l-33 -51h-13q-66 52 -109 92q-39 -37 -108 -92h-13zM148 144q0 -26 14 -40.5t39 -14.5q39 0 82 46l2 74l-105 -23q-32 -7 -32 -42z" />
<glyph unicode="&#xe3;" horiz-adv-x="481" d="M30 130q0 97 103 117l153 29v41q0 65 -64 65q-60 0 -143 -58l-10 6l-15 88q89 56 190 56q77 0 120.5 -34.5t43.5 -96.5q0 -17 -5.5 -111.5t-5.5 -110.5q0 -17 5.5 -23.5t18.5 -6.5q10 0 26 4l9 -8l-11 -70q-34 -21 -74 -25q-63 6 -77 73h-7q-50 -53 -102 -74 q-72 1 -113.5 38t-41.5 101zM57 580v11l71 89l12 5q23 -3 82 -19t72 -16q4 0 8.5 1t9 4.5t8 6t9.5 8.5t8.5 9t9.5 11t10 11h12l39 -39v-11l-70 -89l-13 -5q-22 3 -81.5 19t-72.5 16q-6 0 -11.5 -2.5t-12.5 -8.5t-11 -10.5t-13.5 -15t-13.5 -14.5h-12zM148 144 q0 -26 14 -40.5t39 -14.5q39 0 82 46l2 74l-105 -23q-32 -7 -32 -42z" />
<glyph unicode="&#xe4;" horiz-adv-x="481" d="M30 130q0 97 103 117l153 29v41q0 65 -64 65q-60 0 -143 -58l-10 6l-15 88q89 56 190 56q77 0 120.5 -34.5t43.5 -96.5q0 -17 -5.5 -111.5t-5.5 -110.5q0 -17 5.5 -23.5t18.5 -6.5q10 0 26 4l9 -8l-11 -70q-34 -21 -74 -25q-63 6 -77 73h-7q-50 -53 -102 -74 q-72 1 -113.5 38t-41.5 101zM85 616q0 31 17.5 49t48.5 18q29 0 45 -16.5t16 -45.5q0 -32 -17.5 -50t-48.5 -18q-29 0 -45 16.5t-16 46.5zM148 144q0 -26 14 -40.5t39 -14.5q39 0 82 46l2 74l-105 -23q-32 -7 -32 -42zM259 616q0 31 17.5 49t48.5 18q29 0 45 -16.5t16 -45.5 q0 -32 -17.5 -50t-48.5 -18q-29 0 -45 16.5t-16 46.5z" />
<glyph unicode="&#xe5;" horiz-adv-x="481" d="M30 130q0 97 103 117l153 29v41q0 65 -64 65q-60 0 -143 -58l-10 6l-15 88q89 56 190 56q77 0 120.5 -34.5t43.5 -96.5q0 -17 -5.5 -111.5t-5.5 -110.5q0 -17 5.5 -23.5t18.5 -6.5q10 0 26 4l9 -8l-11 -70q-34 -21 -74 -25q-63 6 -77 73h-7q-50 -53 -102 -74 q-72 1 -113.5 38t-41.5 101zM137 629q0 45 25.5 70t72.5 25q46 0 70 -24t24 -67q0 -47 -26.5 -72.5t-72.5 -25.5q-44 0 -68.5 24t-24.5 70zM148 144q0 -26 14 -40.5t39 -14.5q39 0 82 46l2 74l-105 -23q-32 -7 -32 -42zM192 630q0 -40 41 -40t41 38q0 39 -42 39 q-40 0 -40 -37z" />
<glyph unicode="&#xe6;" horiz-adv-x="694" d="M28 128q0 49 26.5 81.5t76.5 38.5l150 16v53q0 65 -63 65q-59 0 -142 -59l-9 6l-16 90q87 55 183 55q86 0 122 -53q54 52 137 52q86 0 133.5 -55.5t40.5 -157.5l-13 -16l-266 -31q5 -64 33 -94.5t85 -30.5q65 0 131 36l11 -7l-19 -97q-67 -30 -134 -30q-119 0 -173 86 q-55 -58 -125 -85q-77 1 -123 36.5t-46 100.5zM147 142q0 -25 14.5 -38.5t39.5 -13.5q35 0 89 49q-7 38 -8 59l-96 -14q-39 -7 -39 -42zM387 278l163 23q1 85 -70 85q-39 -1 -66 -31.5t-27 -75.5v-1z" />
<glyph unicode="&#xe7;" horiz-adv-x="385" d="M29 227q0 116 59 181.5t164 65.5q70 0 122 -25l-22 -106l-11 -5q-51 28 -90 28q-46 0 -71 -32.5t-25 -94.5q0 -70 27 -107t77 -37q44 0 99 25l11 -8l-14 -103q-51 -17 -102 -18l-9 -39l34 -19q41 -22 41 -59q0 -33 -26 -54t-68 -21q-45 0 -82 28l9 56l6 3q30 -30 59 -30 q24 0 24 21q0 11 -17 20l-49 28l16 68q-77 14 -119.5 74.5t-42.5 159.5z" />
<glyph unicode="&#xe8;" horiz-adv-x="471" d="M29 230q0 113 62 178t168 65q86 0 133.5 -48.5t47.5 -134.5q0 -27 -4 -55l-19 -19l-266 -1q8 -126 124 -126q65 0 135 36l11 -7l-18 -98q-72 -30 -141 -30q-110 0 -171.5 64t-61.5 176zM128 651l48 72l13 1q65 -60 181 -153l-32 -50l-13 -1q-49 29 -195 118zM154 288 l169 5l2 12q0 81 -71 81q-81 0 -100 -98z" />
<glyph unicode="&#xe9;" horiz-adv-x="471" d="M29 230q0 113 62 178t168 65q86 0 133.5 -48.5t47.5 -134.5q0 -27 -4 -55l-19 -19l-266 -1q8 -126 124 -126q65 0 135 36l11 -7l-18 -98q-72 -30 -141 -30q-110 0 -171.5 64t-61.5 176zM152 571q116 93 181 153l13 -1l48 -72l-2 -13q-146 -89 -195 -118l-13 1zM154 288 l169 5l2 12q0 81 -71 81q-81 0 -100 -98z" />
<glyph unicode="&#xea;" horiz-adv-x="471" d="M29 230q0 113 62 178t168 65q86 0 133.5 -48.5t47.5 -134.5q0 -27 -4 -55l-19 -19l-266 -1q8 -126 124 -126q65 0 135 36l11 -7l-18 -98q-72 -30 -141 -30q-110 0 -171.5 64t-61.5 176zM95 577q57 52 141 141h29q78 -86 140 -141l-33 -51h-13q-66 52 -109 92 q-39 -37 -108 -92h-13zM154 288l169 5l2 12q0 81 -71 81q-81 0 -100 -98z" />
<glyph unicode="&#xeb;" horiz-adv-x="471" d="M29 230q0 113 62 178t168 65q86 0 133.5 -48.5t47.5 -134.5q0 -27 -4 -55l-19 -19l-266 -1q8 -126 124 -126q65 0 135 36l11 -7l-18 -98q-72 -30 -141 -30q-110 0 -171.5 64t-61.5 176zM100 616q0 31 17.5 49t48.5 18q29 0 45 -16.5t16 -45.5q0 -32 -17.5 -50t-48.5 -18 q-29 0 -45 16.5t-16 46.5zM154 288l169 5l2 12q0 81 -71 81q-81 0 -100 -98zM274 616q0 31 17.5 49t48.5 18q29 0 45 -16.5t16 -45.5q0 -32 -17.5 -50t-48.5 -18q-29 0 -45 16.5t-16 46.5z" />
<glyph unicode="&#xec;" horiz-adv-x="254" d="M8 651l48 72l13 1q65 -60 181 -153l-32 -50l-13 -1q-49 29 -195 118zM60 0l7 192l-6 264l133 11l-8 -262l7 -205h-133z" />
<glyph unicode="&#xed;" horiz-adv-x="254" d="M32 571q116 93 181 153l13 -1l48 -72l-2 -13q-146 -89 -195 -118l-13 1zM60 0l7 192l-6 264l133 11l-8 -262l7 -205h-133z" />
<glyph unicode="&#xee;" horiz-adv-x="254" d="M-26 577q57 52 141 141h29q78 -86 140 -141l-33 -51h-13q-66 52 -109 92q-39 -37 -108 -92h-13zM60 0l7 192l-6 264l133 11l-8 -262l7 -205h-133z" />
<glyph unicode="&#xf0;" horiz-adv-x="497" d="M33 224q0 113 54.5 174t157.5 61q26 0 45 -4q-28 45 -76 83l-116 -66l-11 4l-27 53l91 52q-47 27 -99 50v16l83 62h8q69 -35 112 -68l109 62l11 -3l27 -54l-91 -52q151 -142 151 -346q0 -124 -57 -191t-163 -67q-99 0 -154 60t-55 174zM152 224q0 -78 24.5 -113t73.5 -35 q50 0 71.5 37t21.5 122q0 57 -9 104q-34 30 -82 30q-52 0 -76 -34.5t-24 -110.5z" />
<glyph unicode="&#xf1;" horiz-adv-x="527" d="M60 0l7 192l-6 264l127 11l-1 -68h8q55 50 120 72q76 0 116 -34.5t38 -99.5l-3 -133l6 -204h-134l8 290q1 35 -15.5 54.5t-47.5 19.5q-45 0 -96 -43l-1 -116l7 -205h-133zM104 580v11l71 89l12 5q23 -3 82 -19t72 -16q4 0 8.5 1t9 4.5t8 6t9.5 8.5t8.5 9t9.5 11t10 11h12 l39 -39v-11l-70 -89l-13 -5q-22 3 -81.5 19t-72.5 16q-6 0 -11.5 -2.5t-12.5 -8.5t-11 -10.5t-13.5 -15t-13.5 -14.5h-12z" />
<glyph unicode="&#xf2;" horiz-adv-x="494" d="M29 223q0 122 57.5 186.5t166.5 64.5q102 0 156 -60t54 -173q0 -122 -57.5 -186.5t-166.5 -64.5q-102 0 -156 60t-54 173zM127 651l48 72l13 1q65 -60 181 -153l-32 -50l-13 -1q-49 29 -195 118zM154 249q0 -92 22.5 -131t72.5 -39q48 0 69 31.5t21 103.5q0 91 -22 130.5 t-72 39.5q-47 0 -69 -32t-22 -103z" />
<glyph unicode="&#xf3;" horiz-adv-x="494" d="M29 223q0 122 57.5 186.5t166.5 64.5q102 0 156 -60t54 -173q0 -122 -57.5 -186.5t-166.5 -64.5q-102 0 -156 60t-54 173zM151 571q116 93 181 153l13 -1l48 -72l-2 -13q-146 -89 -195 -118l-13 1zM154 249q0 -92 22.5 -131t72.5 -39q48 0 69 31.5t21 103.5 q0 91 -22 130.5t-72 39.5q-47 0 -69 -32t-22 -103z" />
<glyph unicode="&#xf4;" horiz-adv-x="494" d="M29 223q0 122 57.5 186.5t166.5 64.5q102 0 156 -60t54 -173q0 -122 -57.5 -186.5t-166.5 -64.5q-102 0 -156 60t-54 173zM94 577q57 52 141 141h29q78 -86 140 -141l-33 -51h-13q-66 52 -109 92q-39 -37 -108 -92h-13zM154 249q0 -92 22.5 -131t72.5 -39q48 0 69 31.5 t21 103.5q0 91 -22 130.5t-72 39.5q-47 0 -69 -32t-22 -103z" />
<glyph unicode="&#xf5;" horiz-adv-x="494" d="M29 223q0 122 57.5 186.5t166.5 64.5q102 0 156 -60t54 -173q0 -122 -57.5 -186.5t-166.5 -64.5q-102 0 -156 60t-54 173zM72 580v11l71 89l12 5q23 -3 82 -19t72 -16q4 0 8.5 1t9 4.5t8 6t9.5 8.5t8.5 9t9.5 11t10 11h12l39 -39v-11l-70 -89l-13 -5q-22 3 -81.5 19 t-72.5 16q-6 0 -11.5 -2.5t-12.5 -8.5t-11 -10.5t-13.5 -15t-13.5 -14.5h-12zM154 249q0 -92 22.5 -131t72.5 -39q48 0 69 31.5t21 103.5q0 91 -22 130.5t-72 39.5q-47 0 -69 -32t-22 -103z" />
<glyph unicode="&#xf7;" horiz-adv-x="480" d="M29 224l7 81h417l10 -9l-7 -81h-418zM193 91q0 29 17.5 47t46.5 18q28 0 43.5 -16t15.5 -44q0 -30 -17 -48t-46 -18q-60 0 -60 61zM193 429q0 30 17.5 47.5t46.5 17.5q59 0 59 -60q0 -30 -17 -47.5t-46 -17.5q-60 0 -60 60z" />
<glyph unicode="&#xf8;" horiz-adv-x="494" d="M24 -77l66 120q-61 59 -61 180q0 122 57.5 186.5t166.5 64.5q35 0 69 -8l59 105l72 -36l7 -12l-57 -102q60 -62 60 -180q0 -122 -57.5 -186.5t-166.5 -64.5q-35 0 -67 8l-69 -123l-76 37zM154 249q0 -92 22.5 -131t72.5 -39q48 0 69 31.5t21 103.5q0 91 -22 130.5 t-72 39.5q-47 0 -69 -32t-22 -103z" />
<glyph unicode="&#xf9;" horiz-adv-x="522" d="M57 456l129 11l-3 -295q-2 -71 59 -71q43 0 87 39v316l127 11l-9 -346q0 -30 23 -30q10 0 26 4l10 -8l-12 -70q-32 -21 -73 -25q-61 6 -80 75h-9q-59 -56 -118 -73q-75 0 -115 34.5t-40 99.5l3 118zM138 651l48 72l13 1q65 -60 181 -153l-32 -50l-13 -1q-49 29 -195 118z " />
<glyph unicode="&#xfa;" horiz-adv-x="522" d="M57 456l129 11l-3 -295q-2 -71 59 -71q43 0 87 39v316l127 11l-9 -346q0 -30 23 -30q10 0 26 4l10 -8l-12 -70q-32 -21 -73 -25q-61 6 -80 75h-9q-59 -56 -118 -73q-75 0 -115 34.5t-40 99.5l3 118zM162 571q116 93 181 153l13 -1l48 -72l-2 -13q-146 -89 -195 -118 l-13 1z" />
<glyph unicode="&#xfb;" horiz-adv-x="522" d="M57 456l129 11l-3 -295q-2 -71 59 -71q43 0 87 39v316l127 11l-9 -346q0 -30 23 -30q10 0 26 4l10 -8l-12 -70q-32 -21 -73 -25q-61 6 -80 75h-9q-59 -56 -118 -73q-75 0 -115 34.5t-40 99.5l3 118zM104 577q57 52 141 141h29q78 -86 140 -141l-33 -51h-13 q-66 52 -109 92q-39 -37 -108 -92h-13z" />
<glyph unicode="&#xfc;" horiz-adv-x="522" d="M57 456l129 11l-3 -295q-2 -71 59 -71q43 0 87 39v316l127 11l-9 -346q0 -30 23 -30q10 0 26 4l10 -8l-12 -70q-32 -21 -73 -25q-61 6 -80 75h-9q-59 -56 -118 -73q-75 0 -115 34.5t-40 99.5l3 118zM110 616q0 31 17.5 49t48.5 18q29 0 45 -16.5t16 -45.5 q0 -32 -17.5 -50t-48.5 -18q-29 0 -45 16.5t-16 46.5zM284 616q0 31 17.5 49t48.5 18q29 0 45 -16.5t16 -45.5q0 -32 -17.5 -50t-48.5 -18q-29 0 -45 16.5t-16 46.5z" />
<glyph unicode="&#xfe;" horiz-adv-x="522" d="M65 -185l6 377l-6 500l132 10l-4 -303h6q53 50 112 72q88 0 134.5 -59.5t46.5 -165.5q0 -123 -61 -189.5t-169 -66.5q-34 0 -69 9l3 -184h-131zM190 207l2 -112q38 -18 69 -18q108 0 107 152q-2 135 -89 135q-41 0 -87 -43z" />
<glyph unicode="&#xff;" horiz-adv-x="447" d="M-20 -111l5 14q118 20 185 97l-170 462l128 6l15 -74l82 -259h9l81 247l16 83h116l-151 -433q-33 -94 -88.5 -144.5t-157.5 -79.5l-10 1q-36 33 -60 80zM79 616q0 31 17.5 49t48.5 18q29 0 45 -16.5t16 -45.5q0 -32 -17.5 -50t-48.5 -18q-29 0 -45 16.5t-16 46.5z M253 616q0 31 17.5 49t48.5 18q29 0 45 -16.5t16 -45.5q0 -32 -17.5 -50t-48.5 -18q-29 0 -45 16.5t-16 46.5z" />
<glyph unicode="&#x152;" horiz-adv-x="869" d="M28 315q0 162 85.5 251.5t238.5 89.5q37 0 97 -6t87 -6h309l8 -11l-10 -101l-150 5h-121l-1 -156l107 -2l109 3l8 -10l-10 -101l-116 3l-101 -1v-71l1 -94l112 -2l161 6l8 -11l-9 -101h-305q-32 1 -101 -5.5t-103 -6.5q-145 0 -224.5 86t-79.5 241zM169 325 q0 -121 41.5 -177t132.5 -56q61 0 82 13q20 10 19 43l-4 341q-1 34 -13 43q-21 14 -86 14q-90 0 -131 -52.5t-41 -168.5z" />
<glyph unicode="&#x153;" horiz-adv-x="770" d="M26 226q0 119 57.5 183t161.5 64q103 0 153 -72q55 72 160 72q86 0 133 -48.5t47 -134.5q0 -36 -4 -55l-19 -19l-268 -1q8 -126 127 -126q65 0 134 36l12 -7l-19 -98q-70 -30 -140 -30q-111 0 -167 76q-53 -76 -161 -76q-99 0 -153 61t-54 175zM154 249q0 -92 22 -131 t72 -39q48 0 69.5 31.5t21.5 103.5q0 91 -22.5 130.5t-71.5 39.5q-48 0 -69.5 -32t-21.5 -103zM450 287l171 5l2 13q0 81 -70 81q-84 0 -103 -99z" />
<glyph unicode="&#x178;" horiz-adv-x="558" d="M4 644h143l15 -45l109 -245h9l122 241l18 49h140l-225 -425l-2 -40l6 -179h-136l8 179l-1 36zM127 795q0 31 17.5 49t48.5 18q29 0 45 -16.5t16 -45.5q0 -32 -17.5 -50t-48.5 -18q-29 0 -45 16.5t-16 46.5zM301 795q0 31 17.5 49t48.5 18q29 0 45 -16.5t16 -45.5 q0 -32 -17.5 -50t-48.5 -18q-29 0 -45 16.5t-16 46.5z" />
<glyph unicode="&#x2c6;" horiz-adv-x="389" d="M39 577q66 60 141 141h28q66 -74 141 -141l-34 -51h-13q-77 62 -108 92q-31 -30 -108 -92h-14z" />
<glyph unicode="&#x2dc;" horiz-adv-x="389" d="M18 580v11l71 89l12 5q23 -3 82 -19t72 -16q4 0 8.5 1t9 4.5t8 6t9.5 8.5t8.5 9t9.5 11t10 11h12l39 -39v-11l-70 -89l-13 -5q-22 3 -81.5 19t-72.5 16q-6 0 -11.5 -2.5t-12.5 -8.5t-11 -10.5t-13.5 -15t-13.5 -14.5h-12z" />
<glyph unicode="&#x2000;" horiz-adv-x="451" />
<glyph unicode="&#x2001;" horiz-adv-x="903" />
<glyph unicode="&#x2002;" horiz-adv-x="451" />
<glyph unicode="&#x2003;" horiz-adv-x="903" />
<glyph unicode="&#x2004;" horiz-adv-x="301" />
<glyph unicode="&#x2005;" horiz-adv-x="225" />
<glyph unicode="&#x2006;" horiz-adv-x="150" />
<glyph unicode="&#x2007;" horiz-adv-x="150" />
<glyph unicode="&#x2008;" horiz-adv-x="112" />
<glyph unicode="&#x2009;" horiz-adv-x="180" />
<glyph unicode="&#x200a;" horiz-adv-x="50" />
<glyph unicode="&#x2010;" horiz-adv-x="304" d="M27 200v83l238 36l11 -11v-82l-238 -37z" />
<glyph unicode="&#x2011;" horiz-adv-x="304" d="M27 200v83l238 36l11 -11v-82l-238 -37z" />
<glyph unicode="&#x2012;" horiz-adv-x="304" d="M27 200v83l238 36l11 -11v-82l-238 -37z" />
<glyph unicode="&#x2013;" horiz-adv-x="466" d="M-15 222l7 81h480l9 -10l-6 -80h-481z" />
<glyph unicode="&#x2014;" horiz-adv-x="889" d="M-17 222l6 81h908l9 -10l-6 -80h-909z" />
<glyph unicode="&#x2018;" horiz-adv-x="207" d="M34 486q0 76 92 164l46 -31l2 -9q-41 -44 -41 -86q0 -47 41 -70v-11q-41 -33 -84 -51q-56 29 -56 94z" />
<glyph unicode="&#x2019;" horiz-adv-x="207" d="M35 432q40 44 40 85q0 47 -40 71v11q42 32 83 51q57 -31 57 -94q0 -76 -92 -164l-46 30z" />
<glyph unicode="&#x201a;" horiz-adv-x="229" d="M18 -79q56 47 56 98q0 33 -32 60v11q45 27 96 42q45 -36 45 -86q0 -87 -121 -173l-43 38z" />
<glyph unicode="&#x201c;" horiz-adv-x="367" d="M30 486q0 76 92 164l46 -30l2 -10q-40 -44 -40 -85q0 -47 40 -71v-11q-42 -32 -83 -51q-57 31 -57 94zM196 486q0 76 92 164l46 -30l2 -10q-40 -44 -40 -85q0 -47 40 -71v-11q-42 -32 -83 -51q-57 31 -57 94z" />
<glyph unicode="&#x201d;" horiz-adv-x="365" d="M33 432q41 44 41 85q0 46 -41 71v11q42 32 84 51q56 -30 56 -94q0 -78 -92 -164l-46 30zM192 432q41 44 41 85q0 47 -40 71v11q38 30 83 51q57 -31 57 -94q0 -76 -92 -164l-47 30z" />
<glyph unicode="&#x201e;" horiz-adv-x="394" d="M18 -79q56 47 56 98q0 33 -32 60v11q45 27 96 42q45 -36 45 -86q0 -87 -121 -173l-43 38zM183 -79q56 47 56 98q0 33 -32 60v11q45 27 96 42q45 -36 45 -86q0 -87 -121 -173l-43 38z" />
<glyph unicode="&#x2022;" horiz-adv-x="277" d="M51 242q0 42 24.5 66.5t65.5 24.5q40 0 61.5 -22t21.5 -62q0 -42 -24 -67t-65 -25q-40 0 -62 22t-22 63z" />
<glyph unicode="&#x2026;" horiz-adv-x="631" d="M40 62q0 33 19.5 53t52.5 20q32 0 49.5 -18t17.5 -50q0 -34 -19.5 -54t-52.5 -20q-32 0 -49.5 18t-17.5 51zM241 62q0 33 19.5 53t53.5 20q31 0 48.5 -18t17.5 -50q0 -34 -19.5 -54t-52.5 -20q-32 0 -49.5 18t-17.5 51zM442 62q0 33 19.5 53t52.5 20q32 0 49.5 -18 t17.5 -50q0 -34 -19.5 -54t-52.5 -20q-32 0 -49.5 18t-17.5 51z" />
<glyph unicode="&#x202f;" horiz-adv-x="180" />
<glyph unicode="&#x2039;" horiz-adv-x="244" d="M22 215v21l136 179l63 -34l2 -13l-104 -140l104 -140l-2 -13l-63 -34z" />
<glyph unicode="&#x203a;" horiz-adv-x="246" d="M25 89l104 141l-104 140l2 13l63 34l136 -174v-22l-136 -178l-63 33z" />
<glyph unicode="&#x205f;" horiz-adv-x="225" />
<glyph unicode="&#x20ac;" horiz-adv-x="467" d="M6 168l4 60h344l6 -7l-5 -60h-140q27 -67 105 -67q58 0 110 26l11 -6l-10 -98q-53 -23 -118 -23q-199 0 -234 168h-69zM6 278l4 59h71q22 84 84 129.5t157 45.5q66 0 130 -27l-21 -99l-10 -5q-47 29 -104 29q-83 0 -105 -73h142l6 -6l-5 -61h-345z" />
<glyph unicode="&#x2122;" horiz-adv-x="590" d="M24 594l4 48h188l3 -5l-3 -48l-50 2h-12l-2 -110l3 -76h-66l3 70l-1 116h-12l-51 -2zM251 405l26 237h78l9 -34l31 -93h4l34 91l10 36h77l21 -237h-59l-3 71l-7 68h-4l-49 -117h-52l-43 117h-4l-7 -61l-5 -78h-57z" />
<glyph unicode="&#x25fc;" horiz-adv-x="470" d="M0 0v470h470v-470h-470z" />
</font>
</defs>
</svg>
